  0
SECTION
  2
HEADER
  9
$ACADVER
  1
AC1027
  9
$ACADMAINTVER
 70
     8
  9
$DWGCODEPAGE
  3
ANSI_932
  9
$REQUIREDVERSIONS
160
                 0
  9
$LASTSAVEDBY
  1
akihiro
  9
$INSBASE
 10
0.0
 20
0.0
 30
0.0
  9
$EXTMIN
 10
42.5472824174887
 20
19.30187520624757
 30
0.0
  9
$EXTMAX
 10
291.5117992015844
 20
171.8982399279457
 30
0.0
  9
$LIMMIN
 10
0.0
 20
0.0
  9
$LIMMAX
 10
12.0
 20
9.0
  9
$ORTHOMODE
 70
     0
  9
$REGENMODE
 70
     1
  9
$FILLMODE
 70
     1
  9
$QTEXTMODE
 70
     0
  9
$MIRRTEXT
 70
     0
  9
$LTSCALE
 40
1.0
  9
$ATTMODE
 70
     1
  9
$TEXTSIZE
 40
0.2
  9
$TRACEWID
 40
0.05
  9
$TEXTSTYLE
  7
Standard
  9
$CLAYER
  8
0
  9
$CELTYPE
  6
ByLayer
  9
$CECOLOR
 62
   256
  9
$CELTSCALE
 40
1.0
  9
$DISPSILH
 70
     0
  9
$DIMSCALE
 40
1.0
  9
$DIMASZ
 40
0.18
  9
$DIMEXO
 40
0.0625
  9
$DIMDLI
 40
0.38
  9
$DIMRND
 40
0.0
  9
$DIMDLE
 40
0.0
  9
$DIMEXE
 40
0.18
  9
$DIMTP
 40
0.0
  9
$DIMTM
 40
0.0
  9
$DIMTXT
 40
0.18
  9
$DIMCEN
 40
0.09
  9
$DIMTSZ
 40
0.0
  9
$DIMTOL
 70
     0
  9
$DIMLIM
 70
     0
  9
$DIMTIH
 70
     1
  9
$DIMTOH
 70
     1
  9
$DIMSE1
 70
     0
  9
$DIMSE2
 70
     0
  9
$DIMTAD
 70
     0
  9
$DIMZIN
 70
     0
  9
$DIMBLK
  1

  9
$DIMASO
 70
     1
  9
$DIMSHO
 70
     1
  9
$DIMPOST
  1

  9
$DIMAPOST
  1

  9
$DIMALT
 70
     0
  9
$DIMALTD
 70
     2
  9
$DIMALTF
 40
25.4
  9
$DIMLFAC
 40
1.0
  9
$DIMTOFL
 70
     0
  9
$DIMTVP
 40
0.0
  9
$DIMTIX
 70
     0
  9
$DIMSOXD
 70
     0
  9
$DIMSAH
 70
     0
  9
$DIMBLK1
  1

  9
$DIMBLK2
  1

  9
$DIMSTYLE
  2
Standard
  9
$DIMCLRD
 70
     0
  9
$DIMCLRE
 70
     0
  9
$DIMCLRT
 70
     0
  9
$DIMTFAC
 40
1.0
  9
$DIMGAP
 40
0.09
  9
$DIMJUST
 70
     0
  9
$DIMSD1
 70
     0
  9
$DIMSD2
 70
     0
  9
$DIMTOLJ
 70
     1
  9
$DIMTZIN
 70
     0
  9
$DIMALTZ
 70
     0
  9
$DIMALTTZ
 70
     0
  9
$DIMUPT
 70
     0
  9
$DIMDEC
 70
     4
  9
$DIMTDEC
 70
     4
  9
$DIMALTU
 70
     2
  9
$DIMALTTD
 70
     2
  9
$DIMTXSTY
  7
Standard
  9
$DIMAUNIT
 70
     0
  9
$DIMADEC
 70
     0
  9
$DIMALTRND
 40
0.0
  9
$DIMAZIN
 70
     0
  9
$DIMDSEP
 70
    46
  9
$DIMATFIT
 70
     3
  9
$DIMFRAC
 70
     0
  9
$DIMLDRBLK
  1

  9
$DIMLUNIT
 70
     2
  9
$DIMLWD
 70
    -2
  9
$DIMLWE
 70
    -2
  9
$DIMTMOVE
 70
     0
  9
$DIMFXL
 40
1.0
  9
$DIMFXLON
 70
     0
  9
$DIMJOGANG
 40
0.7853981633974483
  9
$DIMTFILL
 70
     0
  9
$DIMTFILLCLR
 70
     0
  9
$DIMARCSYM
 70
     0
  9
$DIMLTYPE
  6

  9
$DIMLTEX1
  6

  9
$DIMLTEX2
  6

  9
$DIMTXTDIRECTION
 70
     0
  9
$LUNITS
 70
     2
  9
$LUPREC
 70
     4
  9
$SKETCHINC
 40
0.1
  9
$FILLETRAD
 40
0.0
  9
$AUNITS
 70
     0
  9
$AUPREC
 70
     0
  9
$MENU
  1
.
  9
$ELEVATION
 40
0.0
  9
$PELEVATION
 40
0.0
  9
$THICKNESS
 40
0.0
  9
$LIMCHECK
 70
     0
  9
$CHAMFERA
 40
0.0
  9
$CHAMFERB
 40
0.0
  9
$CHAMFERC
 40
0.0
  9
$CHAMFERD
 40
0.0
  9
$SKPOLY
 70
     0
  9
$TDCREATE
 40
2452643.438384271
  9
$TDUCREATE
 40
2452643.063384271
  9
$TDUPDATE
 40
2456756.731516308
  9
$TDUUPDATE
 40
2456756.356516308
  9
$TDINDWG
 40
0.0047839931
  9
$TDUSRTIMER
 40
2456756.355934687
  9
$USRTIMER
 70
     1
  9
$ANGBASE
 50
0.0
  9
$ANGDIR
 70
     0
  9
$PDMODE
 70
     0
  9
$PDSIZE
 40
0.0
  9
$PLINEWID
 40
0.0
  9
$SPLFRAME
 70
     0
  9
$SPLINETYPE
 70
     6
  9
$SPLINESEGS
 70
     8
  9
$HANDSEED
  5
50B
  9
$SURFTAB1
 70
     6
  9
$SURFTAB2
 70
     6
  9
$SURFTYPE
 70
     6
  9
$SURFU
 70
     6
  9
$SURFV
 70
     6
  9
$UCSBASE
  2

  9
$UCSNAME
  2

  9
$UCSORG
 10
0.0
 20
0.0
 30
0.0
  9
$UCSXDIR
 10
1.0
 20
0.0
 30
0.0
  9
$UCSYDIR
 10
0.0
 20
1.0
 30
0.0
  9
$UCSORTHOREF
  2

  9
$UCSORTHOVIEW
 70
     0
  9
$UCSORGTOP
 10
0.0
 20
0.0
 30
0.0
  9
$UCSORGBOTTOM
 10
0.0
 20
0.0
 30
0.0
  9
$UCSORGLEFT
 10
0.0
 20
0.0
 30
0.0
  9
$UCSORGRIGHT
 10
0.0
 20
0.0
 30
0.0
  9
$UCSORGFRONT
 10
0.0
 20
0.0
 30
0.0
  9
$UCSORGBACK
 10
0.0
 20
0.0
 30
0.0
  9
$PUCSBASE
  2

  9
$PUCSNAME
  2

  9
$PUCSORG
 10
0.0
 20
0.0
 30
0.0
  9
$PUCSXDIR
 10
1.0
 20
0.0
 30
0.0
  9
$PUCSYDIR
 10
0.0
 20
1.0
 30
0.0
  9
$PUCSORTHOREF
  2

  9
$PUCSORTHOVIEW
 70
     0
  9
$PUCSORGTOP
 10
0.0
 20
0.0
 30
0.0
  9
$PUCSORGBOTTOM
 10
0.0
 20
0.0
 30
0.0
  9
$PUCSORGLEFT
 10
0.0
 20
0.0
 30
0.0
  9
$PUCSORGRIGHT
 10
0.0
 20
0.0
 30
0.0
  9
$PUCSORGFRONT
 10
0.0
 20
0.0
 30
0.0
  9
$PUCSORGBACK
 10
0.0
 20
0.0
 30
0.0
  9
$USERI1
 70
     0
  9
$USERI2
 70
     0
  9
$USERI3
 70
     0
  9
$USERI4
 70
     0
  9
$USERI5
 70
     0
  9
$USERR1
 40
0.0
  9
$USERR2
 40
0.0
  9
$USERR3
 40
0.0
  9
$USERR4
 40
0.0
  9
$USERR5
 40
0.0
  9
$WORLDVIEW
 70
     1
  9
$SHADEDGE
 70
     3
  9
$SHADEDIF
 70
    70
  9
$TILEMODE
 70
     1
  9
$MAXACTVP
 70
    64
  9
$PINSBASE
 10
0.0
 20
0.0
 30
0.0
  9
$PLIMCHECK
 70
     0
  9
$PEXTMIN
 10
0.0
 20
0.0
 30
0.0
  9
$PEXTMAX
 10
0.0
 20
0.0
 30
0.0
  9
$PLIMMIN
 10
-0.5694444444444445
 20
-0.25
  9
$PLIMMAX
 10
11.125
 20
8.013888888888891
  9
$UNITMODE
 70
     0
  9
$VISRETAIN
 70
     1
  9
$PLINEGEN
 70
     0
  9
$PSLTSCALE
 70
     1
  9
$TREEDEPTH
 70
  3020
  9
$CMLSTYLE
  2
Standard
  9
$CMLJUST
 70
     0
  9
$CMLSCALE
 40
1.0
  9
$PROXYGRAPHICS
 70
     1
  9
$MEASUREMENT
 70
     0
  9
$CELWEIGHT
370
    -1
  9
$ENDCAPS
280
     0
  9
$JOINSTYLE
280
     0
  9
$LWDISPLAY
290
     0
  9
$INSUNITS
 70
     1
  9
$HYPERLINKBASE
  1

  9
$STYLESHEET
  1

  9
$XEDIT
290
     1
  9
$CEPSNTYPE
380
     0
  9
$PSTYLEMODE
290
     1
  9
$FINGERPRINTGUID
  2
{FDEAD576-A652-11D2-9A35-0060089B3A3F}
  9
$VERSIONGUID
  2
{FBC2AE19-5C5C-49EC-81BC-71B1A3362A02}
  9
$EXTNAMES
290
     1
  9
$PSVPSCALE
 40
0.0
  9
$OLESTARTUP
290
     0
  9
$SORTENTS
280
   127
  9
$INDEXCTL
280
     0
  9
$HIDETEXT
280
     1
  9
$XCLIPFRAME
280
     0
  9
$HALOGAP
280
     0
  9
$OBSCOLOR
 70
   257
  9
$OBSLTYPE
280
     0
  9
$INTERSECTIONDISPLAY
280
     0
  9
$INTERSECTIONCOLOR
 70
   257
  9
$DIMASSOC
280
     2
  9
$PROJECTNAME
  1

  9
$CAMERADISPLAY
290
     0
  9
$LENSLENGTH
 40
50.0
  9
$CAMERAHEIGHT
 40
0.0
  9
$STEPSPERSEC
 40
2.0
  9
$STEPSIZE
 40
6.0
  9
$3DDWFPREC
 40
2.0
  9
$PSOLWIDTH
 40
0.25
  9
$PSOLHEIGHT
 40
4.0
  9
$LOFTANG1
 40
1.570796326794897
  9
$LOFTANG2
 40
1.570796326794897
  9
$LOFTMAG1
 40
0.0
  9
$LOFTMAG2
 40
0.0
  9
$LOFTPARAM
 70
     7
  9
$LOFTNORMALS
280
     1
  9
$LATITUDE
 40
37.795
  9
$LONGITUDE
 40
-122.394
  9
$NORTHDIRECTION
 40
0.0
  9
$TIMEZONE
 70
 -8000
  9
$LIGHTGLYPHDISPLAY
280
     1
  9
$TILEMODELIGHTSYNCH
280
     1
  9
$CMATERIAL
347
96
  9
$SOLIDHIST
280
     1
  9
$SHOWHIST
280
     1
  9
$DWFFRAME
280
     2
  9
$DGNFRAME
280
     0
  9
$REALWORLDSCALE
290
     1
  9
$INTERFERECOLOR
 62
     1
  9
$CSHADOW
280
     0
  9
$SHADOWPLANELOCATION
 40
0.0
  0
ENDSEC
  0
SECTION
  2
CLASSES
  0
CLASS
  1
ACDBDICTIONARYWDFLT
  2
AcDbDictionaryWithDefault
  3
ObjectDBX Classes
 90
        0
 91
        5
280
     0
281
     0
  0
CLASS
  1
ACDBPLACEHOLDER
  2
AcDbPlaceHolder
  3
ObjectDBX Classes
 90
        0
 91
        1
280
     0
281
     0
  0
CLASS
  1
LAYOUT
  2
AcDbLayout
  3
ObjectDBX Classes
 90
        0
 91
        1
280
     0
281
     0
  0
CLASS
  1
DICTIONARYVAR
  2
AcDbDictionaryVar
  3
ObjectDBX Classes
 90
        0
 91
        4
280
     0
281
     0
  0
CLASS
  1
TABLESTYLE
  2
AcDbTableStyle
  3
ObjectDBX Classes
 90
     4095
 91
        5
280
     0
281
     0
  0
CLASS
  1
MATERIAL
  2
AcDbMaterial
  3
ObjectDBX Classes
 90
     1153
 91
        5
280
     0
281
     0
  0
CLASS
  1
VISUALSTYLE
  2
AcDbVisualStyle
  3
ObjectDBX Classes
 90
     4095
 91
        5
280
     0
281
     0
  0
CLASS
  1
SCALE
  2
AcDbScale
  3
ObjectDBX Classes
 90
     1153
 91
        5
280
     0
281
     0
  0
CLASS
  1
CELLSTYLEMAP
  2
AcDbCellStyleMap
  3
ObjectDBX Classes
 90
     1152
 91
        4
280
     0
281
     0
  0
CLASS
  1
RASTERVARIABLES
  2
AcDbRasterVariables
  3
ISM
 90
        0
 91
        5
280
     0
281
     0
  0
CLASS
  1
SUN
  2
AcDbSun
  3
SCENEOE
 90
     1153
 91
        5
280
     0
281
     0
  0
CLASS
  1
DIMASSOC
  2
AcDbDimAssoc
  3
"AcDbDimAssoc|Product Desc:     AcDim ARX App For Dimension|Company:          Autodesk, Inc.|WEB Address:      www.autodesk.com"
 90
        0
 91
        4
280
     0
281
     0
  0
ENDSEC
  0
SECTION
  2
TABLES
  0
TABLE
  2
VPORT
  5
8
330
0
100
AcDbSymbolTable
 70
     1
  0
VPORT
  5
94
330
8
100
AcDbSymbolTableRecord
100
AcDbViewportTableRecord
  2
*Active
 70
     0
 10
0.0
 20
0.0
 11
1.0
 21
1.0
 12
194.6991343755162
 22
115.1387605249587
 13
0.0
 23
0.0
 14
0.5
 24
0.5
 15
0.5
 25
0.5
 16
0.0
 26
0.0
 36
1.0
 17
-27.66959356597965
 27
-19.53870295786203
 37
0.0
 40
230.3633107443697
 41
1.102362204724409
 42
50.0
 43
0.0
 44
0.0
 50
0.0
 51
0.0
 71
    16
 72
  1000
 73
     1
 74
     3
 75
     0
 76
     0
 77
     0
 78
     0
281
     0
 65
     1
110
0.0
120
0.0
130
0.0
111
1.0
121
0.0
131
0.0
112
0.0
122
1.0
132
0.0
 79
     0
146
0.0
348
9F
 60
     2
 61
     5
292
     1
282
     1
141
0.0
142
0.0
 63
   250
421
  3355443
361
ED
  0
ENDTAB
  0
TABLE
  2
LTYPE
  5
5
330
0
100
AcDbSymbolTable
 70
     2
  0
LTYPE
  5
14
330
5
100
AcDbSymbolTableRecord
100
AcDbLinetypeTableRecord
  2
ByBlock
 70
     0
  3

 72
    65
 73
     0
 40
0.0
  0
LTYPE
  5
15
330
5
100
AcDbSymbolTableRecord
100
AcDbLinetypeTableRecord
  2
ByLayer
 70
     0
  3

 72
    65
 73
     0
 40
0.0
  0
LTYPE
  5
16
330
5
100
AcDbSymbolTableRecord
100
AcDbLinetypeTableRecord
  2
Continuous
 70
     0
  3
Solid line
 72
    65
 73
     0
 40
0.0
  0
LTYPE
  5
12A
330
5
100
AcDbSymbolTableRecord
100
AcDbLinetypeTableRecord
  2
CENTER
 70
     0
  3
Center ____ _ ____ _ ____ _ ____ _ ____ _ ____
 72
    65
 73
     4
 40
50.8
 49
31.75
 74
     0
 49
-6.35
 74
     0
 49
6.35
 74
     0
 49
-6.35
 74
     0
  0
ENDTAB
  0
TABLE
  2
LAYER
  5
2
330
0
100
AcDbSymbolTable
 70
     5
  0
LAYER
  5
10
330
2
100
AcDbSymbolTableRecord
100
AcDbLayerTableRecord
  2
0
 70
     0
 62
     7
  6
Continuous
370
    -3
390
F
347
98
348
0
  0
LAYER
  5
125
330
2
100
AcDbSymbolTableRecord
100
AcDbLayerTableRecord
  2
Defpoints
 70
     0
 62
     7
  6
Continuous
290
     0
370
    -3
390
F
347
98
348
0
  0
LAYER
  5
126
102
{ACAD_XDICTIONARY
360
127
102
}
330
2
100
AcDbSymbolTableRecord
100
AcDbLayerTableRecord
  2
中心線
 70
     0
 62
     7
  6
CENTER
370
    15
390
F
347
98
348
0
  0
LAYER
  5
12B
102
{ACAD_XDICTIONARY
360
12C
102
}
330
2
100
AcDbSymbolTableRecord
100
AcDbLayerTableRecord
  2
実線
 70
     0
 62
     7
  6
Continuous
370
    25
390
F
347
98
348
0
  0
LAYER
  5
12E
102
{ACAD_XDICTIONARY
360
12F
102
}
330
2
100
AcDbSymbolTableRecord
100
AcDbLayerTableRecord
  2
文字・寸法線
 70
     0
 62
     7
  6
Continuous
370
    13
390
F
347
98
348
0
  0
ENDTAB
  0
TABLE
  2
STYLE
  5
3
330
0
100
AcDbSymbolTable
 70
     1
  0
STYLE
  5
11
330
3
100
AcDbSymbolTableRecord
100
AcDbTextStyleTableRecord
  2
Standard
 70
     0
 40
0.0
 41
1.0
 50
0.0
 71
     0
 42
0.2
  3
arial.ttf
  4

1001
ACAD
1000
Arial
1071
        0
  0
ENDTAB
  0
TABLE
  2
VIEW
  5
6
330
0
100
AcDbSymbolTable
 70
     0
  0
ENDTAB
  0
TABLE
  2
UCS
  5
7
330
0
100
AcDbSymbolTable
 70
     0
  0
ENDTAB
  0
TABLE
  2
APPID
  5
9
330
0
100
AcDbSymbolTable
 70
     3
  0
APPID
  5
12
330
9
100
AcDbSymbolTableRecord
100
AcDbRegAppTableRecord
  2
ACAD
 70
     0
  0
APPID
  5
353
330
9
100
AcDbSymbolTableRecord
100
AcDbRegAppTableRecord
  2
ACAD_PSEXT
 70
     0
  0
APPID
  5
354
330
9
100
AcDbSymbolTableRecord
100
AcDbRegAppTableRecord
  2
ACAD_NAV_VCDISPLAY
 70
     0
  0
ENDTAB
  0
TABLE
  2
DIMSTYLE
  5
A
330
0
100
AcDbSymbolTable
 70
     2
100
AcDbDimStyleTable
  0
DIMSTYLE
105
27
330
A
100
AcDbSymbolTableRecord
100
AcDbDimStyleTableRecord
  2
Standard
 70
     0
178
     0
340
11
  0
DIMSTYLE
105
131
102
{ACAD_REACTORS
330
4B0
330
4B3
330
4B6
330
4C2
330
4C5
102
}
330
A
100
AcDbSymbolTableRecord
100
AcDbDimStyleTableRecord
  2
ISO-25
 70
     0
 41
2.5
 42
0.625
 43
3.75
 44
0.5
 73
     0
 74
     0
 77
     1
 78
     8
140
3.0
141
2.5
143
0.03937007874016
147
0.625
171
     3
172
     1
178
     0
271
     2
272
     2
274
     3
283
     0
284
     8
340
11
  0
ENDTAB
  0
TABLE
  2
BLOCK_RECORD
  5
1
330
0
100
AcDbSymbolTable
 70
    21
  0
BLOCK_RECORD
  5
1F
330
1
100
AcDbSymbolTableRecord
100
AcDbBlockTableRecord
  2
*Model_Space
340
22
 70
     0
280
     1
281
     0
  0
BLOCK_RECORD
  5
58
330
1
100
AcDbSymbolTableRecord
100
AcDbBlockTableRecord
  2
*Paper_Space
340
59
 70
     0
280
     1
281
     0
  0
BLOCK_RECORD
  5
15C
330
1
100
AcDbSymbolTableRecord
100
AcDbBlockTableRecord
  2
*D0
340
0
 70
     0
280
     1
281
     0
  0
BLOCK_RECORD
  5
16B
330
1
100
AcDbSymbolTableRecord
100
AcDbBlockTableRecord
  2
*D1
340
0
 70
     0
280
     1
281
     0
  0
BLOCK_RECORD
  5
17A
330
1
100
AcDbSymbolTableRecord
100
AcDbBlockTableRecord
  2
*D2
340
0
 70
     0
280
     1
281
     0
  0
BLOCK_RECORD
  5
28B
330
1
100
AcDbSymbolTableRecord
100
AcDbBlockTableRecord
  2
*D3
340
0
 70
     0
280
     1
281
     0
  0
BLOCK_RECORD
  5
297
330
1
100
AcDbSymbolTableRecord
100
AcDbBlockTableRecord
  2
*D4
340
0
 70
     0
280
     1
281
     0
  0
BLOCK_RECORD
  5
2A3
330
1
100
AcDbSymbolTableRecord
100
AcDbBlockTableRecord
  2
*D5
340
0
 70
     0
280
     1
281
     0
  0
BLOCK_RECORD
  5
2C1
330
1
100
AcDbSymbolTableRecord
100
AcDbBlockTableRecord
  2
*D6
340
0
 70
     0
280
     1
281
     0
  0
BLOCK_RECORD
  5
2D1
330
1
100
AcDbSymbolTableRecord
100
AcDbBlockTableRecord
  2
*D7
340
0
 70
     0
280
     1
281
     0
  0
BLOCK_RECORD
  5
2E1
330
1
100
AcDbSymbolTableRecord
100
AcDbBlockTableRecord
  2
*D8
340
0
 70
     0
280
     1
281
     0
  0
BLOCK_RECORD
  5
2F1
330
1
100
AcDbSymbolTableRecord
100
AcDbBlockTableRecord
  2
*D9
340
0
 70
     0
280
     1
281
     0
  0
BLOCK_RECORD
  5
301
330
1
100
AcDbSymbolTableRecord
100
AcDbBlockTableRecord
  2
_DOT
340
0
 70
     0
280
     1
281
     0
  0
BLOCK_RECORD
  5
3E8
330
1
100
AcDbSymbolTableRecord
100
AcDbBlockTableRecord
  2
*D11
340
0
 70
     0
280
     1
281
     0
  0
BLOCK_RECORD
  5
3F7
330
1
100
AcDbSymbolTableRecord
100
AcDbBlockTableRecord
  2
*D12
340
0
 70
     0
280
     1
281
     0
  0
BLOCK_RECORD
  5
406
330
1
100
AcDbSymbolTableRecord
100
AcDbBlockTableRecord
  2
*D13
340
0
 70
     0
280
     1
281
     0
  0
BLOCK_RECORD
  5
41E
330
1
100
AcDbSymbolTableRecord
100
AcDbBlockTableRecord
  2
*D14
340
0
 70
     0
280
     1
281
     0
  0
BLOCK_RECORD
  5
42D
330
1
100
AcDbSymbolTableRecord
100
AcDbBlockTableRecord
  2
*D15
340
0
 70
     0
280
     1
281
     0
  0
BLOCK_RECORD
  5
4C9
330
1
100
AcDbSymbolTableRecord
100
AcDbBlockTableRecord
  2
*D16
340
0
 70
     0
280
     1
281
     0
  0
BLOCK_RECORD
  5
4D5
330
1
100
AcDbSymbolTableRecord
100
AcDbBlockTableRecord
  2
*D17
340
0
 70
     0
280
     1
281
     0
  0
BLOCK_RECORD
  5
4E1
330
1
100
AcDbSymbolTableRecord
100
AcDbBlockTableRecord
  2
*D18
340
0
 70
     0
280
     1
281
     0
  0
BLOCK_RECORD
  5
4ED
330
1
100
AcDbSymbolTableRecord
100
AcDbBlockTableRecord
  2
*D19
340
0
 70
     0
280
     1
281
     0
  0
BLOCK_RECORD
  5
4F9
330
1
100
AcDbSymbolTableRecord
100
AcDbBlockTableRecord
  2
*D20
340
0
 70
     0
280
     1
281
     0
  0
ENDTAB
  0
ENDSEC
  0
SECTION
  2
BLOCKS
  0
BLOCK
  5
20
330
1F
100
AcDbEntity
  8
0
100
AcDbBlockBegin
  2
*Model_Space
 70
     0
 10
0.0
 20
0.0
 30
0.0
  3
*Model_Space
  1
*Model_Space
  0
ENDBLK
  5
21
330
1F
100
AcDbEntity
  8
0
100
AcDbBlockEnd
  0
BLOCK
  5
5A
330
58
100
AcDbEntity
 67
     1
  8
0
100
AcDbBlockBegin
  2
*Paper_Space
 70
     0
 10
0.0
 20
0.0
 30
0.0
  3
*Paper_Space
  1
*Paper_Space
  0
ENDBLK
  5
5B
330
58
100
AcDbEntity
 67
     1
  8
0
100
AcDbBlockEnd
  0
BLOCK
  5
15D
330
15C
100
AcDbEntity
  8
0
 48
0.5
370
    25
100
AcDbBlockBegin
  2
*D0
 70
     1
 10
0.0
 20
0.0
 30
0.0
  3
*D0
  1
*D2
  0
LINE
  5
15E
330
15C
100
AcDbEntity
  8
文字・寸法線
 62
     0
 48
0.5
370
    -2
100
AcDbLine
 10
211.3085608366446
 20
52.99072334482156
 30
0.0
 11
203.6826938254571
 21
52.99072334482156
 31
0.0
  0
LINE
  5
15F
330
15C
100
AcDbEntity
  8
文字・寸法線
 62
     0
 48
0.5
370
    -2
100
AcDbLine
 10
212.8492881470838
 20
44.79072334482163
 30
0.0
 11
203.6826938254571
 21
44.79072334482163
 31
0.0
  0
LINE
  5
160
330
15C
100
AcDbEntity
  8
文字・寸法線
 62
     0
 48
0.5
370
    -2
100
AcDbLine
 10
204.1826938254571
 20
50.49072334482156
 30
0.0
 11
204.1826938254571
 21
47.29072334482163
 31
0.0
  0
SOLID
  5
161
330
15C
100
AcDbEntity
  8
文字・寸法線
 62
     0
100
AcDbTrace
 10
204.5993604921238
 20
50.49072334482156
 30
0.0
 11
203.7660271587905
 21
50.49072334482156
 31
0.0
 12
204.1826938254571
 22
52.99072334482156
 32
0.0
 13
204.1826938254571
 23
52.99072334482156
 33
0.0
  0
SOLID
  5
162
330
15C
100
AcDbEntity
  8
文字・寸法線
 62
     0
100
AcDbTrace
 10
203.7660271587905
 20
47.29072334482163
 30
0.0
 11
204.5993604921238
 21
47.29072334482163
 31
0.0
 12
204.1826938254571
 22
44.79072334482163
 32
0.0
 13
204.1826938254571
 23
44.79072334482163
 33
0.0
  0
MTEXT
  5
163
330
15C
100
AcDbEntity
  8
文字・寸法線
 62
     0
370
    25
100
AcDbMText
 10
202.0576938254571
 20
48.89072334482159
 30
0.0
 40
3.0
 41
0.0
 46
0.0
 71
     5
 72
     1
  1
T
 11
0.0
 21
1.0
 31
0.0
 73
     1
 44
1.0
  0
POINT
  5
164
330
15C
100
AcDbEntity
  8
Defpoints
 62
     0
100
AcDbPoint
 10
211.9335608366446
 20
52.99072334482156
 30
0.0
  0
POINT
  5
165
330
15C
100
AcDbEntity
  8
Defpoints
 62
     0
100
AcDbPoint
 10
213.4742881470838
 20
44.79072334482163
 30
0.0
  0
POINT
  5
166
330
15C
100
AcDbEntity
  8
Defpoints
 62
     0
100
AcDbPoint
 10
204.1826938254571
 20
44.79072334482163
 30
0.0
  0
ENDBLK
  5
167
330
15C
100
AcDbEntity
  8
0
 48
0.5
370
    25
100
AcDbBlockEnd
  0
BLOCK
  5
16C
330
16B
100
AcDbEntity
  8
0
 48
0.5
370
    25
100
AcDbBlockBegin
  2
*D1
 70
     1
 10
0.0
 20
0.0
 30
0.0
  3
*D1
  1
*D3
  0
LINE
  5
16D
330
16B
100
AcDbEntity
  8
文字・寸法線
 62
     0
 48
0.5
370
    -2
100
AcDbLine
 10
228.4335608366446
 20
45.16572334482163
 30
0.0
 11
228.4335608366446
 21
34.0267776586241
 31
0.0
  0
LINE
  5
16E
330
16B
100
AcDbEntity
  8
文字・寸法線
 62
     0
 48
0.5
370
    -2
100
AcDbLine
 10
278.4335608366446
 20
45.16572334482163
 30
0.0
 11
278.4335608366446
 21
34.0267776586241
 31
0.0
  0
LINE
  5
16F
330
16B
100
AcDbEntity
  8
文字・寸法線
 62
     0
 48
0.5
370
    -2
100
AcDbLine
 10
230.9335608366446
 20
34.5267776586241
 30
0.0
 11
275.9335608366446
 21
34.5267776586241
 31
0.0
  0
SOLID
  5
170
330
16B
100
AcDbEntity
  8
文字・寸法線
 62
     0
100
AcDbTrace
 10
230.9335608366446
 20
34.94344432529076
 30
0.0
 11
230.9335608366446
 21
34.11011099195743
 31
0.0
 12
228.4335608366446
 22
34.5267776586241
 32
0.0
 13
228.4335608366446
 23
34.5267776586241
 33
0.0
  0
SOLID
  5
171
330
16B
100
AcDbEntity
  8
文字・寸法線
 62
     0
100
AcDbTrace
 10
275.9335608366446
 20
34.11011099195743
 30
0.0
 11
275.9335608366446
 21
34.94344432529076
 31
0.0
 12
278.4335608366446
 22
34.5267776586241
 32
0.0
 13
278.4335608366446
 23
34.5267776586241
 33
0.0
  0
MTEXT
  5
172
330
16B
100
AcDbEntity
  8
文字・寸法線
 62
     0
370
    25
100
AcDbMText
 10
253.4335608366446
 20
36.73363304743719
 30
0.0
 40
3.0
 41
0.0
 46
0.0
 71
     5
 72
     1
  1
%%cB
 73
     1
 44
1.0
  0
POINT
  5
173
330
16B
100
AcDbEntity
  8
Defpoints
 62
     0
100
AcDbPoint
 10
228.4335608366446
 20
45.79072334482163
 30
0.0
  0
POINT
  5
174
330
16B
100
AcDbEntity
  8
Defpoints
 62
     0
100
AcDbPoint
 10
278.4335608366446
 20
45.79072334482163
 30
0.0
  0
POINT
  5
175
330
16B
100
AcDbEntity
  8
Defpoints
 62
     0
100
AcDbPoint
 10
278.4335608366446
 20
34.5267776586241
 30
0.0
  0
ENDBLK
  5
176
330
16B
100
AcDbEntity
  8
0
 48
0.5
370
    25
100
AcDbBlockEnd
  0
BLOCK
  5
17B
330
17A
100
AcDbEntity
  8
0
 48
0.5
370
    25
100
AcDbBlockBegin
  2
*D2
 70
     1
 10
0.0
 20
0.0
 30
0.0
  3
*D2
  1
*D4
  0
LINE
  5
17C
330
17A
100
AcDbEntity
  8
文字・寸法線
 62
     0
 48
0.5
370
    -2
100
AcDbLine
 10
225.9335608366446
 20
53.61572334482156
 30
0.0
 11
225.9335608366446
 21
64.04633181385071
 31
0.0
  0
LINE
  5
17D
330
17A
100
AcDbEntity
  8
文字・寸法線
 62
     0
 48
0.5
370
    -2
100
AcDbLine
 10
280.9335608366446
 20
53.61572334482156
 30
0.0
 11
280.9335608366446
 21
64.04633181385071
 31
0.0
  0
LINE
  5
17E
330
17A
100
AcDbEntity
  8
文字・寸法線
 62
     0
 48
0.5
370
    -2
100
AcDbLine
 10
228.4335608366446
 20
63.54633181385071
 30
0.0
 11
278.4335608366446
 21
63.54633181385071
 31
0.0
  0
SOLID
  5
17F
330
17A
100
AcDbEntity
  8
文字・寸法線
 62
     0
100
AcDbTrace
 10
228.4335608366446
 20
63.96299848051738
 30
0.0
 11
228.4335608366446
 21
63.12966514718405
 31
0.0
 12
225.9335608366446
 22
63.54633181385071
 32
0.0
 13
225.9335608366446
 23
63.54633181385071
 33
0.0
  0
SOLID
  5
180
330
17A
100
AcDbEntity
  8
文字・寸法線
 62
     0
100
AcDbTrace
 10
278.4335608366446
 20
63.12966514718405
 30
0.0
 11
278.4335608366446
 21
63.96299848051738
 31
0.0
 12
280.9335608366446
 22
63.54633181385071
 32
0.0
 13
280.9335608366446
 23
63.54633181385071
 33
0.0
  0
MTEXT
  5
181
330
17A
100
AcDbEntity
  8
文字・寸法線
 62
     0
370
    25
100
AcDbMText
 10
253.4335608366446
 20
65.7224914318589
 30
0.0
 40
3.0
 41
0.0
 46
0.0
 71
     5
 72
     1
  1
C
 73
     1
 44
1.0
  0
POINT
  5
182
330
17A
100
AcDbEntity
  8
Defpoints
 62
     0
100
AcDbPoint
 10
225.9335608366446
 20
52.99072334482156
 30
0.0
  0
POINT
  5
183
330
17A
100
AcDbEntity
  8
Defpoints
 62
     0
100
AcDbPoint
 10
280.9335608366446
 20
52.99072334482156
 30
0.0
  0
POINT
  5
184
330
17A
100
AcDbEntity
  8
Defpoints
 62
     0
100
AcDbPoint
 10
280.9335608366446
 20
63.54633181385071
 30
0.0
  0
ENDBLK
  5
185
330
17A
100
AcDbEntity
  8
0
 48
0.5
370
    25
100
AcDbBlockEnd
  0
BLOCK
  5
28C
330
28B
100
AcDbEntity
  8
0
100
AcDbBlockBegin
  2
*D3
 70
     1
 10
0.0
 20
0.0
 30
0.0
  3
*D3
  1
*D5
  0
LINE
  5
28E
330
28B
100
AcDbEntity
  8
文字・寸法線
 62
     0
 48
0.5
370
    -2
100
AcDbLine
 10
181.8198476028461
 20
103.1723162910909
 30
0.0
 11
174.1939805916586
 21
103.1723162910909
 31
0.0
  0
LINE
  5
28F
330
28B
100
AcDbEntity
  8
文字・寸法線
 62
     0
 48
0.5
370
    -2
100
AcDbLine
 10
183.3605749132853
 20
94.97231629109092
 30
0.0
 11
174.1939805916586
 21
94.97231629109092
 31
0.0
  0
LINE
  5
290
330
28B
100
AcDbEntity
  8
文字・寸法線
 62
     0
 48
0.5
370
    -2
100
AcDbLine
 10
174.6939805916586
 20
100.6723162910909
 30
0.0
 11
174.6939805916586
 21
97.47231629109092
 31
0.0
  0
SOLID
  5
291
330
28B
100
AcDbEntity
  8
文字・寸法線
 62
     0
100
AcDbTrace
 10
175.1106472583253
 20
100.6723162910909
 30
0.0
 11
174.277313924992
 21
100.6723162910909
 31
0.0
 12
174.6939805916586
 22
103.1723162910909
 32
0.0
 13
174.6939805916586
 23
103.1723162910909
 33
0.0
  0
SOLID
  5
292
330
28B
100
AcDbEntity
  8
文字・寸法線
 62
     0
100
AcDbTrace
 10
174.277313924992
 20
97.47231629109092
 30
0.0
 11
175.1106472583253
 21
97.47231629109092
 31
0.0
 12
174.6939805916586
 22
94.97231629109092
 32
0.0
 13
174.6939805916586
 23
94.97231629109092
 33
0.0
  0
MTEXT
  5
293
330
28B
100
AcDbEntity
  8
文字・寸法線
 62
     0
370
    25
100
AcDbMText
 10
172.5689805916586
 20
99.07231629109089
 30
0.0
 40
3.0
 41
0.0
 46
0.0
 71
     5
 72
     1
  1
T
 11
0.0
 21
1.0
 31
0.0
 73
     1
 44
1.0
  0
POINT
  5
294
330
28B
100
AcDbEntity
  8
Defpoints
 62
     0
100
AcDbPoint
 10
182.4448476028461
 20
103.1723162910909
 30
0.0
  0
POINT
  5
295
330
28B
100
AcDbEntity
  8
Defpoints
 62
     0
100
AcDbPoint
 10
183.9855749132853
 20
94.97231629109092
 30
0.0
  0
POINT
  5
296
330
28B
100
AcDbEntity
  8
Defpoints
 62
     0
100
AcDbPoint
 10
174.6939805916586
 20
94.97231629109092
 30
0.0
  0
ENDBLK
  5
28D
330
28B
100
AcDbEntity
  8
0
100
AcDbBlockEnd
  0
BLOCK
  5
298
330
297
100
AcDbEntity
  8
0
100
AcDbBlockBegin
  2
*D4
 70
     1
 10
0.0
 20
0.0
 30
0.0
  3
*D4
  1
*D6
  0
LINE
  5
29A
330
297
100
AcDbEntity
  8
文字・寸法線
 62
     0
 48
0.5
370
    -2
100
AcDbLine
 10
198.9448476028461
 20
95.34731629109092
 30
0.0
 11
198.9448476028461
 21
84.20837060489339
 31
0.0
  0
LINE
  5
29B
330
297
100
AcDbEntity
  8
文字・寸法線
 62
     0
 48
0.5
370
    -2
100
AcDbLine
 10
248.9448476028461
 20
95.34731629109092
 30
0.0
 11
248.9448476028461
 21
84.20837060489339
 31
0.0
  0
LINE
  5
29C
330
297
100
AcDbEntity
  8
文字・寸法線
 62
     0
 48
0.5
370
    -2
100
AcDbLine
 10
201.4448476028461
 20
84.70837060489339
 30
0.0
 11
246.4448476028461
 21
84.70837060489339
 31
0.0
  0
SOLID
  5
29D
330
297
100
AcDbEntity
  8
文字・寸法線
 62
     0
100
AcDbTrace
 10
201.4448476028461
 20
85.12503727156006
 30
0.0
 11
201.4448476028461
 21
84.29170393822672
 31
0.0
 12
198.9448476028461
 22
84.70837060489339
 32
0.0
 13
198.9448476028461
 23
84.70837060489339
 33
0.0
  0
SOLID
  5
29E
330
297
100
AcDbEntity
  8
文字・寸法線
 62
     0
100
AcDbTrace
 10
246.4448476028461
 20
84.29170393822672
 30
0.0
 11
246.4448476028461
 21
85.12503727156006
 31
0.0
 12
248.9448476028461
 22
84.70837060489339
 32
0.0
 13
248.9448476028461
 23
84.70837060489339
 33
0.0
  0
MTEXT
  5
29F
330
297
100
AcDbEntity
  8
文字・寸法線
 62
     0
370
    25
100
AcDbMText
 10
223.9448476028461
 20
86.91522599370649
 30
0.0
 40
3.0
 41
0.0
 46
0.0
 71
     5
 72
     1
  1
%%cB
 73
     1
 44
1.0
  0
POINT
  5
2A0
330
297
100
AcDbEntity
  8
Defpoints
 62
     0
100
AcDbPoint
 10
198.9448476028461
 20
95.97231629109092
 30
0.0
  0
POINT
  5
2A1
330
297
100
AcDbEntity
  8
Defpoints
 62
     0
100
AcDbPoint
 10
248.9448476028461
 20
95.97231629109092
 30
0.0
  0
POINT
  5
2A2
330
297
100
AcDbEntity
  8
Defpoints
 62
     0
100
AcDbPoint
 10
248.9448476028461
 20
84.70837060489339
 30
0.0
  0
ENDBLK
  5
299
330
297
100
AcDbEntity
  8
0
100
AcDbBlockEnd
  0
BLOCK
  5
2A4
330
2A3
100
AcDbEntity
  8
0
100
AcDbBlockBegin
  2
*D5
 70
     1
 10
0.0
 20
0.0
 30
0.0
  3
*D5
  1
*D7
  0
LINE
  5
2A6
330
2A3
100
AcDbEntity
  8
文字・寸法線
 62
     0
 48
0.5
370
    -2
100
AcDbLine
 10
196.4448476028461
 20
103.7973162910909
 30
0.0
 11
196.4448476028461
 21
114.22792476012
 31
0.0
  0
LINE
  5
2A7
330
2A3
100
AcDbEntity
  8
文字・寸法線
 62
     0
 48
0.5
370
    -2
100
AcDbLine
 10
251.4448476028461
 20
103.7973162910909
 30
0.0
 11
251.4448476028461
 21
114.22792476012
 31
0.0
  0
LINE
  5
2A8
330
2A3
100
AcDbEntity
  8
文字・寸法線
 62
     0
 48
0.5
370
    -2
100
AcDbLine
 10
198.9448476028461
 20
113.72792476012
 30
0.0
 11
248.9448476028461
 21
113.72792476012
 31
0.0
  0
SOLID
  5
2A9
330
2A3
100
AcDbEntity
  8
文字・寸法線
 62
     0
100
AcDbTrace
 10
198.9448476028461
 20
114.1445914267867
 30
0.0
 11
198.9448476028461
 21
113.3112580934533
 31
0.0
 12
196.4448476028461
 22
113.72792476012
 32
0.0
 13
196.4448476028461
 23
113.72792476012
 33
0.0
  0
SOLID
  5
2AA
330
2A3
100
AcDbEntity
  8
文字・寸法線
 62
     0
100
AcDbTrace
 10
248.9448476028461
 20
113.3112580934533
 30
0.0
 11
248.9448476028461
 21
114.1445914267867
 31
0.0
 12
251.4448476028461
 22
113.72792476012
 32
0.0
 13
251.4448476028461
 23
113.72792476012
 33
0.0
  0
MTEXT
  5
2AB
330
2A3
100
AcDbEntity
  8
文字・寸法線
 62
     0
370
    25
100
AcDbMText
 10
223.9448476028461
 20
115.9040843781282
 30
0.0
 40
3.0
 41
0.0
 46
0.0
 71
     5
 72
     1
  1
C
 73
     1
 44
1.0
  0
POINT
  5
2AC
330
2A3
100
AcDbEntity
  8
Defpoints
 62
     0
100
AcDbPoint
 10
196.4448476028461
 20
103.1723162910909
 30
0.0
  0
POINT
  5
2AD
330
2A3
100
AcDbEntity
  8
Defpoints
 62
     0
100
AcDbPoint
 10
251.4448476028461
 20
103.1723162910909
 30
0.0
  0
POINT
  5
2AE
330
2A3
100
AcDbEntity
  8
Defpoints
 62
     0
100
AcDbPoint
 10
251.4448476028461
 20
113.72792476012
 30
0.0
  0
ENDBLK
  5
2A5
330
2A3
100
AcDbEntity
  8
0
100
AcDbBlockEnd
  0
BLOCK
  5
2C2
330
2C1
100
AcDbEntity
  8
0
100
AcDbBlockBegin
  2
*D6
 70
     1
 10
0.0
 20
0.0
 30
0.0
  3
*D6
  1
*D6
  0
LINE
  5
2C4
330
2C1
100
AcDbEntity
  8
0
 62
     0
370
    -2
100
AcDbLine
 10
52.82174132699632
 20
95.43426224389657
 30
0.0
 11
52.82174132699632
 21
17.57301813032561
 31
0.0
  0
LINE
  5
2C5
330
2C1
100
AcDbEntity
  8
0
 62
     0
370
    -2
100
AcDbLine
 10
135.8217413269963
 20
95.43426224389657
 30
0.0
 11
135.8217413269963
 21
17.57301813032561
 31
0.0
  0
LINE
  5
2C6
330
2C1
100
AcDbEntity
  8
0
 62
     0
370
    -2
100
AcDbLine
 10
54.82174132699632
 20
18.57301813032561
 30
0.0
 11
133.8217413269963
 21
18.57301813032561
 31
0.0
  0
SOLID
  5
2C7
330
2C1
100
AcDbEntity
  8
0
 62
     0
100
AcDbTrace
 10
54.82174132699632
 20
18.90635146365894
 30
0.0
 11
54.82174132699632
 21
18.23968479699228
 31
0.0
 12
52.82174132699632
 22
18.57301813032561
 32
0.0
 13
52.82174132699632
 23
18.57301813032561
 33
0.0
  0
SOLID
  5
2C8
330
2C1
100
AcDbEntity
  8
0
 62
     0
100
AcDbTrace
 10
133.8217413269963
 20
18.23968479699228
 30
0.0
 11
133.8217413269963
 21
18.90635146365894
 31
0.0
 12
135.8217413269963
 22
18.57301813032561
 32
0.0
 13
135.8217413269963
 23
18.57301813032561
 33
0.0
  0
MTEXT
  5
2C9
330
2C1
100
AcDbEntity
  8
0
 62
     0
100
AcDbMText
 10
94.3217413269963
 20
21.30551813032561
 30
0.0
 40
5.0
 41
0.0
 46
0.0
 71
     5
 72
     1
  1
\A1;%%c83.0
 73
     1
 44
1.0
  0
POINT
  5
2CA
330
2C1
100
AcDbEntity
  8
Defpoints
 62
     0
100
AcDbPoint
 10
52.82174132699632
 20
96.43426224389657
 30
0.0
  0
POINT
  5
2CB
330
2C1
100
AcDbEntity
  8
Defpoints
 62
     0
100
AcDbPoint
 10
135.8217413269963
 20
96.43426224389657
 30
0.0
  0
POINT
  5
2CC
330
2C1
100
AcDbEntity
  8
Defpoints
 62
     0
100
AcDbPoint
 10
135.8217413269963
 20
18.57301813032561
 30
0.0
  0
ENDBLK
  5
2C3
330
2C1
100
AcDbEntity
  8
0
100
AcDbBlockEnd
  0
BLOCK
  5
2D2
330
2D1
100
AcDbEntity
  8
0
100
AcDbBlockBegin
  2
*D7
 70
     1
 10
0.0
 20
0.0
 30
0.0
  3
*D7
  1
*D7
  0
LINE
  5
2D4
330
2D1
100
AcDbEntity
  8
0
 62
     0
370
    -2
100
AcDbLine
 10
198.9448476028461
 20
95.90981629109092
 30
0.0
 11
198.9448476028461
 21
58.98601438308865
 31
0.0
  0
LINE
  5
2D5
330
2D1
100
AcDbEntity
  8
0
 62
     0
370
    -2
100
AcDbLine
 10
248.9448476028461
 20
95.90981629109092
 30
0.0
 11
248.9448476028461
 21
58.98601438308865
 31
0.0
  0
LINE
  5
2D6
330
2D1
100
AcDbEntity
  8
0
 62
     0
370
    -2
100
AcDbLine
 10
200.9448476028461
 20
59.16601438308865
 30
0.0
 11
246.9448476028461
 21
59.16601438308865
 31
0.0
  0
SOLID
  5
2D7
330
2D1
100
AcDbEntity
  8
0
 62
     0
100
AcDbTrace
 10
200.9448476028461
 20
59.49934771642199
 30
0.0
 11
200.9448476028461
 21
58.83268104975532
 31
0.0
 12
198.9448476028461
 22
59.16601438308865
 32
0.0
 13
198.9448476028461
 23
59.16601438308865
 33
0.0
  0
SOLID
  5
2D8
330
2D1
100
AcDbEntity
  8
0
 62
     0
100
AcDbTrace
 10
246.9448476028461
 20
58.83268104975532
 30
0.0
 11
246.9448476028461
 21
59.49934771642199
 31
0.0
 12
248.9448476028461
 22
59.16601438308865
 32
0.0
 13
248.9448476028461
 23
59.16601438308865
 33
0.0
  0
MTEXT
  5
2D9
330
2D1
100
AcDbEntity
  8
0
 62
     0
100
AcDbMText
 10
223.9448476028461
 20
61.80851438308866
 30
0.0
 40
5.0
 41
0.0
 46
0.0
 71
     5
 72
     1
  1
\A1;50.0
 73
     1
 44
1.0
  0
POINT
  5
2DA
330
2D1
100
AcDbEntity
  8
Defpoints
 62
     0
100
AcDbPoint
 10
198.9448476028461
 20
95.97231629109092
 30
0.0
  0
POINT
  5
2DB
330
2D1
100
AcDbEntity
  8
Defpoints
 62
     0
100
AcDbPoint
 10
248.9448476028461
 20
95.97231629109092
 30
0.0
  0
POINT
  5
2DC
330
2D1
100
AcDbEntity
  8
Defpoints
 62
     0
100
AcDbPoint
 10
248.9448476028461
 20
59.16601438308865
 30
0.0
  0
ENDBLK
  5
2D3
330
2D1
100
AcDbEntity
  8
0
100
AcDbBlockEnd
  0
BLOCK
  5
2E2
330
2E1
100
AcDbEntity
  8
0
100
AcDbBlockBegin
  2
*D8
 70
     1
 10
0.0
 20
0.0
 30
0.0
  3
*D8
  1
*D8
  0
LINE
  5
2E4
330
2E1
100
AcDbEntity
  8
0
 62
     0
370
    -2
100
AcDbLine
 10
196.4448476028461
 20
102.9756083931394
 30
0.0
 11
196.4448476028461
 21
135.8291597617702
 31
0.0
  0
LINE
  5
2E5
330
2E1
100
AcDbEntity
  8
0
 62
     0
370
    -2
100
AcDbLine
 10
251.4448476028461
 20
103.2348162910909
 30
0.0
 11
251.4448476028461
 21
135.8291597617702
 31
0.0
  0
LINE
  5
2E6
330
2E1
100
AcDbEntity
  8
0
 62
     0
370
    -2
100
AcDbLine
 10
198.4448476028461
 20
135.6491597617702
 30
0.0
 11
249.4448476028461
 21
135.6491597617702
 31
0.0
  0
SOLID
  5
2E7
330
2E1
100
AcDbEntity
  8
0
 62
     0
100
AcDbTrace
 10
198.4448476028461
 20
135.9824930951035
 30
0.0
 11
198.4448476028461
 21
135.3158264284368
 31
0.0
 12
196.4448476028461
 22
135.6491597617702
 32
0.0
 13
196.4448476028461
 23
135.6491597617702
 33
0.0
  0
SOLID
  5
2E8
330
2E1
100
AcDbEntity
  8
0
 62
     0
100
AcDbTrace
 10
249.4448476028461
 20
135.3158264284368
 30
0.0
 11
249.4448476028461
 21
135.9824930951035
 31
0.0
 12
251.4448476028461
 22
135.6491597617702
 32
0.0
 13
251.4448476028461
 23
135.6491597617702
 33
0.0
  0
MTEXT
  5
2E9
330
2E1
100
AcDbEntity
  8
0
 62
     0
100
AcDbMText
 10
223.9448476028461
 20
138.2916597617702
 30
0.0
 40
5.0
 41
0.0
 46
0.0
 71
     5
 72
     1
  1
\A1;55.0
 73
     1
 44
1.0
  0
POINT
  5
2EA
330
2E1
100
AcDbEntity
  8
Defpoints
 62
     0
100
AcDbPoint
 10
196.4448476028461
 20
102.9131083931394
 30
0.0
  0
POINT
  5
2EB
330
2E1
100
AcDbEntity
  8
Defpoints
 62
     0
100
AcDbPoint
 10
251.4448476028461
 20
103.1723162910909
 30
0.0
  0
POINT
  5
2EC
330
2E1
100
AcDbEntity
  8
Defpoints
 62
     0
100
AcDbPoint
 10
251.4448476028461
 20
135.6491597617702
 30
0.0
  0
ENDBLK
  5
2E3
330
2E1
100
AcDbEntity
  8
0
100
AcDbBlockEnd
  0
BLOCK
  5
2F2
330
2F1
100
AcDbEntity
  8
0
100
AcDbBlockBegin
  2
*D9
 70
     1
 10
0.0
 20
0.0
 30
0.0
  3
*D9
  1
*D9
  0
LINE
  5
2F4
330
2F1
100
AcDbEntity
  8
0
 62
     0
370
    -2
100
AcDbLine
 10
182.3823476028461
 20
103.1723162910909
 30
0.0
 11
165.4123193776543
 21
103.1723162910909
 31
0.0
  0
LINE
  5
2F5
330
2F1
100
AcDbEntity
  8
0
 62
     0
370
    -2
100
AcDbLine
 10
182.3823476028461
 20
95.97231629109092
 30
0.0
 11
165.4123193776543
 21
95.97231629109092
 31
0.0
  0
LINE
  5
2F6
330
2F1
100
AcDbEntity
  8
0
 62
     0
370
    -2
100
AcDbLine
 10
165.5923193776543
 20
101.1723162910909
 30
0.0
 11
165.5923193776543
 21
97.97231629109092
 31
0.0
  0
SOLID
  5
2F7
330
2F1
100
AcDbEntity
  8
0
 62
     0
100
AcDbTrace
 10
165.9256527109876
 20
101.1723162910909
 30
0.0
 11
165.2589860443209
 21
101.1723162910909
 31
0.0
 12
165.5923193776543
 22
103.1723162910909
 32
0.0
 13
165.5923193776543
 23
103.1723162910909
 33
0.0
  0
SOLID
  5
2F8
330
2F1
100
AcDbEntity
  8
0
 62
     0
100
AcDbTrace
 10
165.2589860443209
 20
97.97231629109092
 30
0.0
 11
165.9256527109876
 21
97.97231629109092
 31
0.0
 12
165.5923193776543
 22
95.97231629109092
 32
0.0
 13
165.5923193776543
 23
95.97231629109092
 33
0.0
  0
MTEXT
  5
2F9
330
2F1
100
AcDbEntity
  8
0
 62
     0
100
AcDbMText
 10
161.0023193776543
 20
99.57231629109091
 30
0.0
 40
5.0
 41
0.0
 46
0.0
 71
     5
 72
     1
  1
\A1;7.2
 73
     1
 44
1.0
  0
POINT
  5
2FA
330
2F1
100
AcDbEntity
  8
Defpoints
 62
     0
100
AcDbPoint
 10
182.4448476028461
 20
103.1723162910909
 30
0.0
  0
POINT
  5
2FB
330
2F1
100
AcDbEntity
  8
Defpoints
 62
     0
100
AcDbPoint
 10
182.4448476028461
 20
95.97231629109092
 30
0.0
  0
POINT
  5
2FC
330
2F1
100
AcDbEntity
  8
Defpoints
 62
     0
100
AcDbPoint
 10
165.5923193776543
 20
95.97231629109092
 30
0.0
  0
ENDBLK
  5
2F3
330
2F1
100
AcDbEntity
  8
0
100
AcDbBlockEnd
  0
BLOCK
  5
302
330
301
100
AcDbEntity
  8
0
100
AcDbBlockBegin
  2
_DOT
 70
     0
 10
0.0
 20
0.0
 30
0.0
  3
_DOT
  1
_DOT
  0
POLYLINE
  5
304
330
301
100
AcDbEntity
  8
0
  6
ByBlock
 62
     0
100
AcDb2dPolyline
 66
     1
 10
0.0
 20
0.0
 30
0.0
 70
     1
 40
0.5
 41
0.5
  0
VERTEX
  5
306
330
304
100
AcDbEntity
  8
0
  6
ByBlock
 62
     0
100
AcDbVertex
100
AcDb2dVertex
 10
-0.25
 20
0.0
 30
0.0
 42
1.0
  0
VERTEX
  5
307
330
304
100
AcDbEntity
  8
0
  6
ByBlock
 62
     0
100
AcDbVertex
100
AcDb2dVertex
 10
0.25
 20
0.0
 30
0.0
 42
1.0
  0
SEQEND
  5
308
330
304
100
AcDbEntity
  8
0
  6
ByBlock
 62
     0
  0
LINE
  5
305
330
301
100
AcDbEntity
  8
0
  6
ByBlock
 62
     0
370
    -2
100
AcDbLine
 10
-0.5
 20
0.0
 30
0.0
 11
-1.0
 21
0.0
 31
0.0
  0
ENDBLK
  5
303
330
301
100
AcDbEntity
  8
0
100
AcDbBlockEnd
  0
BLOCK
  5
3E9
330
3E8
100
AcDbEntity
  8
0
 48
0.5
370
    25
100
AcDbBlockBegin
  2
*D11
 70
     1
 10
0.0
 20
0.0
 30
0.0
  3
*D11
  1
*D12
  0
LINE
  5
3EA
330
3E8
100
AcDbEntity
  8
文字・寸法線
 62
     0
 48
0.5
370
    -2
100
AcDbLine
 10
173.8862964301416
 20
79.58741932930525
 30
0.0
 11
173.8862964301416
 21
90.0180277983344
 31
0.0
  0
LINE
  5
3EB
330
3E8
100
AcDbEntity
  8
文字・寸法線
 62
     0
 48
0.5
370
    -2
100
AcDbLine
 10
228.8862964301416
 20
79.58741932930525
 30
0.0
 11
228.8862964301416
 21
90.0180277983344
 31
0.0
  0
LINE
  5
3EC
330
3E8
100
AcDbEntity
  8
文字・寸法線
 62
     0
 48
0.5
370
    -2
100
AcDbLine
 10
176.3862964301416
 20
89.5180277983344
 30
0.0
 11
226.3862964301416
 21
89.5180277983344
 31
0.0
  0
SOLID
  5
3ED
330
3E8
100
AcDbEntity
  8
文字・寸法線
 62
     0
100
AcDbTrace
 10
176.3862964301416
 20
89.93469446500107
 30
0.0
 11
176.3862964301416
 21
89.10136113166773
 31
0.0
 12
173.8862964301416
 22
89.5180277983344
 32
0.0
 13
173.8862964301416
 23
89.5180277983344
 33
0.0
  0
SOLID
  5
3EE
330
3E8
100
AcDbEntity
  8
文字・寸法線
 62
     0
100
AcDbTrace
 10
226.3862964301416
 20
89.10136113166773
 30
0.0
 11
226.3862964301416
 21
89.93469446500107
 31
0.0
 12
228.8862964301416
 22
89.5180277983344
 32
0.0
 13
228.8862964301416
 23
89.5180277983344
 33
0.0
  0
MTEXT
  5
3EF
330
3E8
100
AcDbEntity
  8
文字・寸法線
 62
     0
370
    25
100
AcDbMText
 10
201.3862964301416
 20
91.6685277983344
 30
0.0
 40
3.0
 41
0.0
 46
0.0
 71
     5
 72
     1
  1
55
 73
     1
 44
1.0
  0
POINT
  5
3F0
330
3E8
100
AcDbEntity
  8
Defpoints
 62
     0
100
AcDbPoint
 10
173.8862964301416
 20
78.96241932930525
 30
0.0
  0
POINT
  5
3F1
330
3E8
100
AcDbEntity
  8
Defpoints
 62
     0
100
AcDbPoint
 10
228.8862964301416
 20
78.96241932930525
 30
0.0
  0
POINT
  5
3F2
330
3E8
100
AcDbEntity
  8
Defpoints
 62
     0
100
AcDbPoint
 10
228.8862964301416
 20
89.5180277983344
 30
0.0
  0
ENDBLK
  5
3F3
330
3E8
100
AcDbEntity
  8
0
 48
0.5
370
    25
100
AcDbBlockEnd
  0
BLOCK
  5
3F8
330
3F7
100
AcDbEntity
  8
0
 48
0.5
370
    25
100
AcDbBlockBegin
  2
*D12
 70
     1
 10
0.0
 20
0.0
 30
0.0
  3
*D12
  1
*D13
  0
LINE
  5
3F9
330
3F7
100
AcDbEntity
  8
文字・寸法線
 62
     0
 48
0.5
370
    -2
100
AcDbLine
 10
176.3862964301416
 20
71.13741932930532
 30
0.0
 11
176.3862964301416
 21
59.99847364310779
 31
0.0
  0
LINE
  5
3FA
330
3F7
100
AcDbEntity
  8
文字・寸法線
 62
     0
 48
0.5
370
    -2
100
AcDbLine
 10
226.3862964301416
 20
71.13741932930532
 30
0.0
 11
226.3862964301416
 21
59.99847364310779
 31
0.0
  0
LINE
  5
3FB
330
3F7
100
AcDbEntity
  8
文字・寸法線
 62
     0
 48
0.5
370
    -2
100
AcDbLine
 10
178.8862964301416
 20
60.49847364310779
 30
0.0
 11
223.8862964301416
 21
60.49847364310779
 31
0.0
  0
SOLID
  5
3FC
330
3F7
100
AcDbEntity
  8
文字・寸法線
 62
     0
100
AcDbTrace
 10
178.8862964301416
 20
60.91514030977445
 30
0.0
 11
178.8862964301416
 21
60.08180697644112
 31
0.0
 12
176.3862964301416
 22
60.49847364310779
 32
0.0
 13
176.3862964301416
 23
60.49847364310779
 33
0.0
  0
SOLID
  5
3FD
330
3F7
100
AcDbEntity
  8
文字・寸法線
 62
     0
100
AcDbTrace
 10
223.8862964301416
 20
60.08180697644112
 30
0.0
 11
223.8862964301416
 21
60.91514030977445
 31
0.0
 12
226.3862964301416
 22
60.49847364310779
 32
0.0
 13
226.3862964301416
 23
60.49847364310779
 33
0.0
  0
MTEXT
  5
3FE
330
3F7
100
AcDbEntity
  8
文字・寸法線
 62
     0
370
    25
100
AcDbMText
 10
201.3862964301416
 20
62.70897364310779
 30
0.0
 40
3.0
 41
0.0
 46
0.0
 71
     5
 72
     1
  1
%%c50
 73
     1
 44
1.0
  0
POINT
  5
3FF
330
3F7
100
AcDbEntity
  8
Defpoints
 62
     0
100
AcDbPoint
 10
176.3862964301416
 20
71.76241932930532
 30
0.0
  0
POINT
  5
400
330
3F7
100
AcDbEntity
  8
Defpoints
 62
     0
100
AcDbPoint
 10
226.3862964301416
 20
71.76241932930532
 30
0.0
  0
POINT
  5
401
330
3F7
100
AcDbEntity
  8
Defpoints
 62
     0
100
AcDbPoint
 10
226.3862964301416
 20
60.49847364310779
 30
0.0
  0
ENDBLK
  5
402
330
3F7
100
AcDbEntity
  8
0
 48
0.5
370
    25
100
AcDbBlockEnd
  0
BLOCK
  5
407
330
406
100
AcDbEntity
  8
0
 48
0.5
370
    25
100
AcDbBlockBegin
  2
*D13
 70
     1
 10
0.0
 20
0.0
 30
0.0
  3
*D13
  1
*D14
  0
LINE
  5
408
330
406
100
AcDbEntity
  8
文字・寸法線
 62
     0
 48
0.5
370
    -2
100
AcDbLine
 10
159.2612964301416
 20
78.96241932930525
 30
0.0
 11
151.6354294189541
 21
78.96241932930525
 31
0.0
  0
LINE
  5
409
330
406
100
AcDbEntity
  8
文字・寸法線
 62
     0
 48
0.5
370
    -2
100
AcDbLine
 10
160.8020237405808
 20
70.76241932930532
 30
0.0
 11
151.6354294189541
 21
70.76241932930532
 31
0.0
  0
LINE
  5
40A
330
406
100
AcDbEntity
  8
文字・寸法線
 62
     0
 48
0.5
370
    -2
100
AcDbLine
 10
152.1354294189541
 20
76.46241932930525
 30
0.0
 11
152.1354294189541
 21
73.26241932930532
 31
0.0
  0
SOLID
  5
40B
330
406
100
AcDbEntity
  8
文字・寸法線
 62
     0
100
AcDbTrace
 10
152.5520960856208
 20
76.46241932930525
 30
0.0
 11
151.7187627522875
 21
76.46241932930525
 31
0.0
 12
152.1354294189541
 22
78.96241932930525
 32
0.0
 13
152.1354294189541
 23
78.96241932930525
 33
0.0
  0
SOLID
  5
40C
330
406
100
AcDbEntity
  8
文字・寸法線
 62
     0
100
AcDbTrace
 10
151.7187627522875
 20
73.26241932930532
 30
0.0
 11
152.5520960856208
 21
73.26241932930532
 31
0.0
 12
152.1354294189541
 22
70.76241932930532
 32
0.0
 13
152.1354294189541
 23
70.76241932930532
 33
0.0
  0
MTEXT
  5
40D
330
406
100
AcDbEntity
  8
文字・寸法線
 62
     0
370
    25
100
AcDbMText
 10
149.9789294189541
 20
74.86241932930528
 30
0.0
 40
3.0
 41
0.0
 46
0.0
 71
     5
 72
     1
  1
8.2
 11
0.0
 21
1.0
 31
0.0
 73
     1
 44
1.0
  0
POINT
  5
40E
330
406
100
AcDbEntity
  8
Defpoints
 62
     0
100
AcDbPoint
 10
159.8862964301416
 20
78.96241932930525
 30
0.0
  0
POINT
  5
40F
330
406
100
AcDbEntity
  8
Defpoints
 62
     0
100
AcDbPoint
 10
161.4270237405808
 20
70.76241932930532
 30
0.0
  0
POINT
  5
410
330
406
100
AcDbEntity
  8
Defpoints
 62
     0
100
AcDbPoint
 10
152.1354294189541
 20
70.76241932930532
 30
0.0
  0
ENDBLK
  5
411
330
406
100
AcDbEntity
  8
0
 48
0.5
370
    25
100
AcDbBlockEnd
  0
BLOCK
  5
41F
330
41E
100
AcDbEntity
  8
0
 62
     1
 48
0.5
370
    25
100
AcDbBlockBegin
  2
*D14
 70
     1
 10
0.0
 20
0.0
 30
0.0
  3
*D14
  1
*D15
  0
LINE
  5
420
330
41E
100
AcDbEntity
  8
文字・寸法線
 62
     0
 48
0.5
370
    -2
100
AcDbLine
 10
162.8862964301416
 20
74.63741932930532
 30
0.0
 11
162.8862964301416
 21
48.12138012541891
 31
0.0
  0
LINE
  5
421
330
41E
100
AcDbEntity
  8
文字・寸法線
 62
     0
 48
0.5
370
    -2
100
AcDbLine
 10
239.8862964301416
 20
74.63741932930532
 30
0.0
 11
239.8862964301416
 21
48.12138012541891
 31
0.0
  0
LINE
  5
422
330
41E
100
AcDbEntity
  8
文字・寸法線
 62
     0
 48
0.5
370
    -2
100
AcDbLine
 10
165.3862964301416
 20
48.62138012541891
 30
0.0
 11
237.3862964301416
 21
48.62138012541891
 31
0.0
  0
SOLID
  5
423
330
41E
100
AcDbEntity
  8
文字・寸法線
 62
     0
100
AcDbTrace
 10
165.3862964301416
 20
49.03804679208557
 30
0.0
 11
165.3862964301416
 21
48.20471345875225
 31
0.0
 12
162.8862964301416
 22
48.62138012541891
 32
0.0
 13
162.8862964301416
 23
48.62138012541891
 33
0.0
  0
SOLID
  5
424
330
41E
100
AcDbEntity
  8
文字・寸法線
 62
     0
100
AcDbTrace
 10
237.3862964301416
 20
48.20471345875225
 30
0.0
 11
237.3862964301416
 21
49.03804679208557
 31
0.0
 12
239.8862964301416
 22
48.62138012541891
 32
0.0
 13
239.8862964301416
 23
48.62138012541891
 33
0.0
  0
MTEXT
  5
425
330
41E
100
AcDbEntity
  8
文字・寸法線
 62
     0
370
    25
100
AcDbMText
 10
201.3862964301416
 20
51.16188012541891
 30
0.0
 40
3.0
 41
0.0
 46
0.0
 71
     5
 72
     1
  1
φ77
 73
     1
 44
1.0
  0
POINT
  5
426
330
41E
100
AcDbEntity
  8
Defpoints
 62
     0
100
AcDbPoint
 10
162.8862964301416
 20
75.26241932930532
 30
0.0
  0
POINT
  5
427
330
41E
100
AcDbEntity
  8
Defpoints
 62
     0
100
AcDbPoint
 10
239.8862964301416
 20
75.26241932930532
 30
0.0
  0
POINT
  5
428
330
41E
100
AcDbEntity
  8
Defpoints
 62
     0
100
AcDbPoint
 10
239.8862964301416
 20
48.62138012541891
 30
0.0
  0
ENDBLK
  5
429
330
41E
100
AcDbEntity
  8
0
 62
     1
 48
0.5
370
    25
100
AcDbBlockEnd
  0
BLOCK
  5
42E
330
42D
100
AcDbEntity
  8
0
 48
0.5
370
    25
100
AcDbBlockBegin
  2
*D15
 70
     1
 10
0.0
 20
0.0
 30
0.0
  3
*D15
  1
*D16
  0
LINE
  5
42F
330
42D
100
AcDbEntity
  8
実線
 62
     0
 48
0.5
370
    -2
100
AcDbLine
 10
5.015847770757318
 20
74.15449771073224
 30
0.0
 11
5.015847770757318
 21
0.0
 31
0.0
  0
LINE
  5
430
330
42D
100
AcDbEntity
  8
実線
 62
     0
 48
0.5
370
    -2
100
AcDbLine
 10
88.01584777075732
 20
74.15449771073224
 30
0.0
 11
88.01584777075732
 21
0.0
 31
0.0
  0
LINE
  5
431
330
42D
100
AcDbEntity
  8
実線
 62
     0
 48
0.5
370
    -2
100
AcDbLine
 10
7.515847770757318
 20
0.5
 30
0.0
 11
85.51584777075732
 21
0.5
 31
0.0
  0
SOLID
  5
432
330
42D
100
AcDbEntity
  8
実線
 62
     0
100
AcDbTrace
 10
7.515847770757318
 20
0.9166666666666667
 30
0.0
 11
7.515847770757318
 21
0.0833333333333333
 31
0.0
 12
5.015847770757318
 22
0.5
 32
0.0
 13
5.015847770757318
 23
0.5
 33
0.0
  0
SOLID
  5
433
330
42D
100
AcDbEntity
  8
実線
 62
     0
100
AcDbTrace
 10
85.51584777075732
 20
0.0833333333333333
 30
0.0
 11
85.51584777075732
 21
0.9166666666666667
 31
0.0
 12
88.01584777075732
 22
0.5
 32
0.0
 13
88.01584777075732
 23
0.5
 33
0.0
  0
MTEXT
  5
434
330
42D
100
AcDbEntity
  8
実線
 62
     0
370
    25
100
AcDbMText
 10
46.51584777075732
 20
3.0465
 30
0.0
 40
3.0
 41
0.0
 46
0.0
 71
     5
 72
     1
  1
φ83
 73
     1
 44
1.0
  0
POINT
  5
435
330
42D
100
AcDbEntity
  8
Defpoints
 62
     0
100
AcDbPoint
 10
5.015847770757318
 20
74.77949771073224
 30
0.0
  0
POINT
  5
436
330
42D
100
AcDbEntity
  8
Defpoints
 62
     0
100
AcDbPoint
 10
88.01584777075732
 20
74.77949771073224
 30
0.0
  0
POINT
  5
437
330
42D
100
AcDbEntity
  8
Defpoints
 62
     0
100
AcDbPoint
 10
88.01584777075732
 20
0.5
 30
0.0
  0
ENDBLK
  5
438
330
42D
100
AcDbEntity
  8
0
 48
0.5
370
    25
100
AcDbBlockEnd
  0
BLOCK
  5
4CA
330
4C9
100
AcDbEntity
  8
0
100
AcDbBlockBegin
  2
*D16
 70
     1
 10
0.0
 20
0.0
 30
0.0
  3
*D16
  1
*D17
  0
LINE
  5
4CC
330
4C9
100
AcDbEntity
  8
文字・寸法線
 62
     0
 48
0.5
370
    -2
100
AcDbLine
 10
222.5117992015844
 20
98.88929453555282
 30
0.0
 11
222.5117992015844
 21
109.319903004582
 31
0.0
  0
LINE
  5
4CD
330
4C9
100
AcDbEntity
  8
文字・寸法線
 62
     0
 48
0.5
370
    -2
100
AcDbLine
 10
277.5117992015844
 20
98.88929453555282
 30
0.0
 11
277.5117992015844
 21
109.319903004582
 31
0.0
  0
LINE
  5
4CE
330
4C9
100
AcDbEntity
  8
文字・寸法線
 62
     0
 48
0.5
370
    -2
100
AcDbLine
 10
225.0117992015844
 20
108.819903004582
 30
0.0
 11
275.0117992015844
 21
108.819903004582
 31
0.0
  0
SOLID
  5
4CF
330
4C9
100
AcDbEntity
  8
文字・寸法線
 62
     0
100
AcDbTrace
 10
225.0117992015844
 20
109.2365696712486
 30
0.0
 11
225.0117992015844
 21
108.4032363379153
 31
0.0
 12
222.5117992015844
 22
108.819903004582
 32
0.0
 13
222.5117992015844
 23
108.819903004582
 33
0.0
  0
SOLID
  5
4D0
330
4C9
100
AcDbEntity
  8
文字・寸法線
 62
     0
100
AcDbTrace
 10
275.0117992015844
 20
108.4032363379153
 30
0.0
 11
275.0117992015844
 21
109.2365696712486
 31
0.0
 12
277.5117992015844
 22
108.819903004582
 32
0.0
 13
277.5117992015844
 23
108.819903004582
 33
0.0
  0
MTEXT
  5
4D1
330
4C9
100
AcDbEntity
  8
文字・寸法線
 62
     0
370
    25
100
AcDbMText
 10
250.0117992015844
 20
110.970403004582
 30
0.0
 40
3.0
 41
0.0
 46
0.0
 71
     5
 72
     1
  1
55
 73
     1
 44
1.0
  0
POINT
  5
4D2
330
4C9
100
AcDbEntity
  8
Defpoints
 62
     0
100
AcDbPoint
 10
222.5117992015844
 20
98.26429453555282
 30
0.0
  0
POINT
  5
4D3
330
4C9
100
AcDbEntity
  8
Defpoints
 62
     0
100
AcDbPoint
 10
277.5117992015844
 20
98.26429453555282
 30
0.0
  0
POINT
  5
4D4
330
4C9
100
AcDbEntity
  8
Defpoints
 62
     0
100
AcDbPoint
 10
277.5117992015844
 20
108.819903004582
 30
0.0
  0
ENDBLK
  5
4CB
330
4C9
100
AcDbEntity
  8
0
100
AcDbBlockEnd
  0
BLOCK
  5
4D6
330
4D5
100
AcDbEntity
  8
0
100
AcDbBlockBegin
  2
*D17
 70
     1
 10
0.0
 20
0.0
 30
0.0
  3
*D17
  1
*D18
  0
LINE
  5
4D8
330
4D5
100
AcDbEntity
  8
文字・寸法線
 62
     0
 48
0.5
370
    -2
100
AcDbLine
 10
225.0117992015844
 20
90.43929453555289
 30
0.0
 11
225.0117992015844
 21
79.30034884935536
 31
0.0
  0
LINE
  5
4D9
330
4D5
100
AcDbEntity
  8
文字・寸法線
 62
     0
 48
0.5
370
    -2
100
AcDbLine
 10
275.0117992015844
 20
90.43929453555289
 30
0.0
 11
275.0117992015844
 21
79.30034884935536
 31
0.0
  0
LINE
  5
4DA
330
4D5
100
AcDbEntity
  8
文字・寸法線
 62
     0
 48
0.5
370
    -2
100
AcDbLine
 10
227.5117992015844
 20
79.80034884935536
 30
0.0
 11
272.5117992015844
 21
79.80034884935536
 31
0.0
  0
SOLID
  5
4DB
330
4D5
100
AcDbEntity
  8
文字・寸法線
 62
     0
100
AcDbTrace
 10
227.5117992015844
 20
80.21701551602203
 30
0.0
 11
227.5117992015844
 21
79.38368218268869
 31
0.0
 12
225.0117992015844
 22
79.80034884935536
 32
0.0
 13
225.0117992015844
 23
79.80034884935536
 33
0.0
  0
SOLID
  5
4DC
330
4D5
100
AcDbEntity
  8
文字・寸法線
 62
     0
100
AcDbTrace
 10
272.5117992015844
 20
79.38368218268869
 30
0.0
 11
272.5117992015844
 21
80.21701551602203
 31
0.0
 12
275.0117992015844
 22
79.80034884935536
 32
0.0
 13
275.0117992015844
 23
79.80034884935536
 33
0.0
  0
MTEXT
  5
4DD
330
4D5
100
AcDbEntity
  8
文字・寸法線
 62
     0
370
    25
100
AcDbMText
 10
250.0117992015844
 20
82.01084884935536
 30
0.0
 40
3.0
 41
0.0
 46
0.0
 71
     5
 72
     1
  1
%%c50
 73
     1
 44
1.0
  0
POINT
  5
4DE
330
4D5
100
AcDbEntity
  8
Defpoints
 62
     0
100
AcDbPoint
 10
225.0117992015844
 20
91.06429453555289
 30
0.0
  0
POINT
  5
4DF
330
4D5
100
AcDbEntity
  8
Defpoints
 62
     0
100
AcDbPoint
 10
275.0117992015844
 20
91.06429453555289
 30
0.0
  0
POINT
  5
4E0
330
4D5
100
AcDbEntity
  8
Defpoints
 62
     0
100
AcDbPoint
 10
275.0117992015844
 20
79.80034884935536
 30
0.0
  0
ENDBLK
  5
4D7
330
4D5
100
AcDbEntity
  8
0
100
AcDbBlockEnd
  0
BLOCK
  5
4E2
330
4E1
100
AcDbEntity
  8
0
100
AcDbBlockBegin
  2
*D18
 70
     1
 10
0.0
 20
0.0
 30
0.0
  3
*D18
  1
*D19
  0
LINE
  5
4E4
330
4E1
100
AcDbEntity
  8
文字・寸法線
 62
     0
 48
0.5
370
    -2
100
AcDbLine
 10
207.8867992015844
 20
98.26429453555282
 30
0.0
 11
200.260932190397
 21
98.26429453555282
 31
0.0
  0
LINE
  5
4E5
330
4E1
100
AcDbEntity
  8
文字・寸法線
 62
     0
 48
0.5
370
    -2
100
AcDbLine
 10
209.4275265120237
 20
90.06429453555289
 30
0.0
 11
200.260932190397
 21
90.06429453555289
 31
0.0
  0
LINE
  5
4E6
330
4E1
100
AcDbEntity
  8
文字・寸法線
 62
     0
 48
0.5
370
    -2
100
AcDbLine
 10
200.760932190397
 20
95.76429453555282
 30
0.0
 11
200.760932190397
 21
92.56429453555289
 31
0.0
  0
SOLID
  5
4E7
330
4E1
100
AcDbEntity
  8
文字・寸法線
 62
     0
100
AcDbTrace
 10
201.1775988570636
 20
95.76429453555282
 30
0.0
 11
200.3442655237303
 21
95.76429453555282
 31
0.0
 12
200.760932190397
 22
98.26429453555282
 32
0.0
 13
200.760932190397
 23
98.26429453555282
 33
0.0
  0
SOLID
  5
4E8
330
4E1
100
AcDbEntity
  8
文字・寸法線
 62
     0
100
AcDbTrace
 10
200.3442655237303
 20
92.56429453555289
 30
0.0
 11
201.1775988570636
 21
92.56429453555289
 31
0.0
 12
200.760932190397
 22
90.06429453555289
 32
0.0
 13
200.760932190397
 23
90.06429453555289
 33
0.0
  0
MTEXT
  5
4E9
330
4E1
100
AcDbEntity
  8
文字・寸法線
 62
     0
370
    25
100
AcDbMText
 10
198.604432190397
 20
94.16429453555286
 30
0.0
 40
3.0
 41
0.0
 46
0.0
 71
     5
 72
     1
  1
8.2
 11
0.0
 21
1.0
 31
0.0
 73
     1
 44
1.0
  0
POINT
  5
4EA
330
4E1
100
AcDbEntity
  8
Defpoints
 62
     0
100
AcDbPoint
 10
208.5117992015844
 20
98.26429453555282
 30
0.0
  0
POINT
  5
4EB
330
4E1
100
AcDbEntity
  8
Defpoints
 62
     0
100
AcDbPoint
 10
210.0525265120237
 20
90.06429453555289
 30
0.0
  0
POINT
  5
4EC
330
4E1
100
AcDbEntity
  8
Defpoints
 62
     0
100
AcDbPoint
 10
200.760932190397
 20
90.06429453555289
 30
0.0
  0
ENDBLK
  5
4E3
330
4E1
100
AcDbEntity
  8
0
100
AcDbBlockEnd
  0
BLOCK
  5
4EE
330
4ED
100
AcDbEntity
  8
0
100
AcDbBlockBegin
  2
*D19
 70
     1
 10
0.0
 20
0.0
 30
0.0
  3
*D19
  1
*D20
  0
LINE
  5
4F0
330
4ED
100
AcDbEntity
  8
文字・寸法線
 62
     0
 48
0.5
370
    -2
100
AcDbLine
 10
211.5117992015844
 20
93.93929453555289
 30
0.0
 11
211.5117992015844
 21
67.42325533166648
 31
0.0
  0
LINE
  5
4F1
330
4ED
100
AcDbEntity
  8
文字・寸法線
 62
     0
 48
0.5
370
    -2
100
AcDbLine
 10
288.5117992015844
 20
93.93929453555289
 30
0.0
 11
288.5117992015844
 21
67.42325533166648
 31
0.0
  0
LINE
  5
4F2
330
4ED
100
AcDbEntity
  8
文字・寸法線
 62
     0
 48
0.5
370
    -2
100
AcDbLine
 10
214.0117992015844
 20
67.92325533166648
 30
0.0
 11
286.0117992015844
 21
67.92325533166648
 31
0.0
  0
SOLID
  5
4F3
330
4ED
100
AcDbEntity
  8
文字・寸法線
 62
     0
100
AcDbTrace
 10
214.0117992015844
 20
68.33992199833315
 30
0.0
 11
214.0117992015844
 21
67.50658866499981
 31
0.0
 12
211.5117992015844
 22
67.92325533166648
 32
0.0
 13
211.5117992015844
 23
67.92325533166648
 33
0.0
  0
SOLID
  5
4F4
330
4ED
100
AcDbEntity
  8
文字・寸法線
 62
     0
100
AcDbTrace
 10
286.0117992015844
 20
67.50658866499981
 30
0.0
 11
286.0117992015844
 21
68.33992199833315
 31
0.0
 12
288.5117992015844
 22
67.92325533166648
 32
0.0
 13
288.5117992015844
 23
67.92325533166648
 33
0.0
  0
MTEXT
  5
4F5
330
4ED
100
AcDbEntity
  8
文字・寸法線
 62
     0
370
    25
100
AcDbMText
 10
250.0117992015844
 20
70.12775533166648
 30
0.0
 40
3.0
 41
0.0
 46
0.0
 71
     5
 72
     1
  1
%%c77
 73
     1
 44
1.0
  0
POINT
  5
4F6
330
4ED
100
AcDbEntity
  8
Defpoints
 62
     0
100
AcDbPoint
 10
211.5117992015844
 20
94.56429453555289
 30
0.0
  0
POINT
  5
4F7
330
4ED
100
AcDbEntity
  8
Defpoints
 62
     0
100
AcDbPoint
 10
288.5117992015844
 20
94.56429453555289
 30
0.0
  0
POINT
  5
4F8
330
4ED
100
AcDbEntity
  8
Defpoints
 62
     0
100
AcDbPoint
 10
288.5117992015844
 20
67.92325533166648
 30
0.0
  0
ENDBLK
  5
4EF
330
4ED
100
AcDbEntity
  8
0
100
AcDbBlockEnd
  0
BLOCK
  5
4FA
330
4F9
100
AcDbEntity
  8
0
100
AcDbBlockBegin
  2
*D20
 70
     1
 10
0.0
 20
0.0
 30
0.0
  3
*D20
  1
*D21
  0
LINE
  5
4FC
330
4F9
100
AcDbEntity
  8
実線
 62
     0
 48
0.5
370
    -2
100
AcDbLine
 10
53.64135054220017
 20
93.45637291697982
 30
0.0
 11
53.64135054220017
 21
19.30187520624757
 31
0.0
  0
LINE
  5
4FD
330
4F9
100
AcDbEntity
  8
実線
 62
     0
 48
0.5
370
    -2
100
AcDbLine
 10
136.6413505422002
 20
93.45637291697982
 30
0.0
 11
136.6413505422002
 21
19.30187520624757
 31
0.0
  0
LINE
  5
4FE
330
4F9
100
AcDbEntity
  8
実線
 62
     0
 48
0.5
370
    -2
100
AcDbLine
 10
56.14135054220017
 20
19.80187520624757
 30
0.0
 11
134.1413505422002
 21
19.80187520624757
 31
0.0
  0
SOLID
  5
4FF
330
4F9
100
AcDbEntity
  8
実線
 62
     0
100
AcDbTrace
 10
56.14135054220017
 20
20.21854187291424
 30
0.0
 11
56.14135054220017
 21
19.3852085395809
 31
0.0
 12
53.64135054220017
 22
19.80187520624757
 32
0.0
 13
53.64135054220017
 23
19.80187520624757
 33
0.0
  0
SOLID
  5
500
330
4F9
100
AcDbEntity
  8
実線
 62
     0
100
AcDbTrace
 10
134.1413505422002
 20
19.3852085395809
 30
0.0
 11
134.1413505422002
 21
20.21854187291424
 31
0.0
 12
136.6413505422002
 22
19.80187520624757
 32
0.0
 13
136.6413505422002
 23
19.80187520624757
 33
0.0
  0
MTEXT
  5
501
330
4F9
100
AcDbEntity
  8
実線
 62
     0
370
    25
100
AcDbMText
 10
95.14135054220019
 20
22.01237520624757
 30
0.0
 40
3.0
 41
0.0
 46
0.0
 71
     5
 72
     1
  1
%%c83
 73
     1
 44
1.0
  0
POINT
  5
502
330
4F9
100
AcDbEntity
  8
Defpoints
 62
     0
100
AcDbPoint
 10
53.64135054220017
 20
94.08137291697982
 30
0.0
  0
POINT
  5
503
330
4F9
100
AcDbEntity
  8
Defpoints
 62
     0
100
AcDbPoint
 10
136.6413505422002
 20
94.08137291697982
 30
0.0
  0
POINT
  5
504
330
4F9
100
AcDbEntity
  8
Defpoints
 62
     0
100
AcDbPoint
 10
136.6413505422002
 20
19.80187520624757
 30
0.0
  0
ENDBLK
  5
4FB
330
4F9
100
AcDbEntity
  8
0
100
AcDbBlockEnd
  0
ENDSEC
  0
SECTION
  2
ENTITIES
  0
MTEXT
  5
339
330
1F
100
AcDbEntity
  8
文字・寸法線
 62
     0
100
AcDbMText
 10
65.1792824174887
 20
165.8982399279457
 30
0.0
 40
6.0
 41
0.0
 46
6.0
 71
     9
 72
     1
  1
{\fＭＳ ゴシック|b0|i0|c0|p0;S-B 33}
 73
     1
 44
1.0
1001
ACAD
1000
ACAD_MTEXT_DEFINED_HEIGHT_BEGIN
1070
    46
1040
6.0
1000
ACAD_MTEXT_DEFINED_HEIGHT_END
  0
LINE
  5
43D
330
1F
100
AcDbEntity
  8
実線
100
AcDbLine
 10
281.3136135669463
 20
98.26429453555282
 30
0.0
 11
282.4604862290253
 21
96.76429453555282
 31
0.0
  0
LINE
  5
43E
330
1F
100
AcDbEntity
  8
実線
100
AcDbLine
 10
216.7099848362227
 20
98.26429453555282
 30
0.0
 11
215.563112174144
 21
96.76429453555282
 31
0.0
  0
LINE
  5
43F
330
1F
100
AcDbEntity
  8
実線
100
AcDbLine
 10
217.7099848362232
 20
98.26429453555282
 30
0.0
 11
216.5631121741442
 21
96.76429453555282
 31
0.0
  0
LINE
  5
440
330
1F
100
AcDbEntity
  8
実線
100
AcDbLine
 10
218.7099848362223
 20
98.26429453555282
 30
0.0
 11
217.5631121741435
 21
96.76429453555282
 31
0.0
  0
LINE
  5
441
330
1F
100
AcDbEntity
  8
実線
100
AcDbLine
 10
283.3136135669461
 20
98.26429453555282
 30
0.0
 11
284.4604862290248
 21
96.76429453555282
 31
0.0
  0
LINE
  5
442
330
1F
100
AcDbEntity
  8
実線
100
AcDbLine
 10
282.3136135669456
 20
98.26429453555282
 30
0.0
 11
283.4604862290246
 21
96.76429453555282
 31
0.0
  0
LINE
  5
443
330
1F
100
AcDbEntity
  8
実線
100
AcDbLine
 10
255.3594123246112
 20
98.26429453555282
 30
0.0
 11
256.5062849866902
 21
96.76429453555282
 31
0.0
  0
LINE
  5
444
330
1F
100
AcDbEntity
  8
実線
100
AcDbLine
 10
243.3280086870236
 20
98.26429453555282
 30
0.0
 11
244.4748813491026
 21
96.76429453555282
 31
0.0
  0
LINE
  5
445
330
1F
100
AcDbEntity
  8
実線
370
    25
100
AcDbLine
 10
291.5117992015844
 20
91.06429453555289
 30
0.0
 11
291.5117992015844
 21
98.26429453555282
 31
0.0
  0
LINE
  5
446
330
1F
100
AcDbEntity
  8
実線
100
AcDbLine
 10
290.313613566944
 20
98.26429453555282
 30
0.0
 11
291.5117992015844
 21
96.69718206405774
 31
0.0
  0
LINE
  5
447
330
1F
100
AcDbEntity
  8
実線
100
AcDbLine
 10
289.3136135669436
 20
98.26429453555282
 30
0.0
 11
291.5117992015844
 21
95.3892774905181
 31
0.0
  0
LINE
  5
448
330
1F
100
AcDbEntity
  8
実線
100
AcDbLine
 10
288.3136135669445
 20
98.26429453555282
 30
0.0
 11
291.5117992015844
 21
94.08137291697982
 31
0.0
  0
LINE
  5
449
330
1F
100
AcDbEntity
  8
実線
100
AcDbLine
 10
283.1425661334049
 20
94.56429453555289
 30
0.0
 11
285.8186023449225
 21
91.06429453555289
 31
0.0
  0
LINE
  5
44A
330
1F
100
AcDbEntity
  8
実線
100
AcDbLine
 10
288.1425661334047
 20
94.56429453555289
 30
0.0
 11
290.8186023449221
 21
91.06429453555289
 31
0.0
  0
LINE
  5
44B
330
1F
100
AcDbEntity
  8
実線
100
AcDbLine
 10
287.1425661334054
 20
94.56429453555289
 30
0.0
 11
289.8186023449227
 21
91.06429453555289
 31
0.0
  0
LINE
  5
44C
330
1F
100
AcDbEntity
  8
実線
100
AcDbLine
 10
286.1425661334051
 20
94.56429453555289
 30
0.0
 11
288.8186023449225
 21
91.06429453555289
 31
0.0
  0
LINE
  5
44D
330
1F
100
AcDbEntity
  8
実線
100
AcDbLine
 10
285.1425661334051
 20
94.56429453555289
 30
0.0
 11
287.8186023449225
 21
91.06429453555289
 31
0.0
  0
LINE
  5
44E
330
1F
100
AcDbEntity
  8
実線
100
AcDbLine
 10
284.1425661334044
 20
94.56429453555289
 30
0.0
 11
286.8186023449221
 21
91.06429453555289
 31
0.0
  0
LINE
  5
44F
330
1F
100
AcDbEntity
  8
実線
100
AcDbLine
 10
288.5117992015844
 20
96.69718206405774
 30
0.0
 11
291.5117992015844
 21
92.77346834343994
 31
0.0
  0
LINE
  5
450
330
1F
100
AcDbEntity
  8
実線
100
AcDbLine
 10
288.5117992015844
 20
95.38927749051832
 30
0.0
 11
291.5117992015844
 21
91.46556376990053
 31
0.0
  0
LINE
  5
451
330
1F
100
AcDbEntity
  8
実線
370
    25
100
AcDbLine
 10
208.5117992015844
 20
91.06429453555289
 30
0.0
 11
208.5117992015844
 21
98.26429453555282
 31
0.0
  0
LINE
  5
452
330
1F
100
AcDbEntity
  8
実線
370
    25
100
AcDbLine
 10
288.5117992015844
 20
94.56429453555289
 30
0.0
 11
288.5117992015844
 21
96.76429453555282
 31
0.0
  0
LINE
  5
453
330
1F
100
AcDbEntity
  8
実線
370
    25
100
AcDbLine
 10
277.5117992015844
 20
96.76429453555282
 30
0.0
 11
288.5117992015844
 21
96.76429453555282
 31
0.0
  0
LINE
  5
454
330
1F
100
AcDbEntity
  8
実線
100
AcDbLine
 10
279.1425661334049
 20
94.56429453555289
 30
0.0
 11
281.8186023449225
 21
91.06429453555289
 31
0.0
  0
LINE
  5
455
330
1F
100
AcDbEntity
  8
実線
100
AcDbLine
 10
280.1425661334056
 20
94.56429453555289
 30
0.0
 11
282.818602344923
 21
91.06429453555289
 31
0.0
  0
LINE
  5
456
330
1F
100
AcDbEntity
  8
実線
100
AcDbLine
 10
281.1425661334056
 20
94.56429453555289
 30
0.0
 11
284.4900682707309
 21
90.18608118021284
 31
0.0
  0
LINE
  5
457
330
1F
100
AcDbEntity
  8
実線
100
AcDbLine
 10
282.1425661334058
 20
94.56429453555289
 30
0.0
 11
284.9871876479765
 21
90.84380104665807
 31
0.0
  0
LINE
  5
458
330
1F
100
AcDbEntity
  8
実線
100
AcDbLine
 10
278.1425661334054
 20
94.56429453555289
 30
0.0
 11
280.818602344923
 21
91.06429453555289
 31
0.0
  0
LINE
  5
459
330
1F
100
AcDbEntity
  8
実線
100
AcDbLine
 10
276.1425661334049
 20
94.56429453555289
 30
0.0
 11
279.5813334965912
 21
90.06671497390481
 31
0.0
  0
LINE
  5
45A
330
1F
100
AcDbEntity
  8
実線
100
AcDbLine
 10
277.1425661334044
 20
94.56429453555289
 30
0.0
 11
280.2944880849998
 21
90.44188139962317
 31
0.0
  0
LINE
  5
45B
330
1F
100
AcDbEntity
  8
実線
100
AcDbLine
 10
286.3136135669449
 20
98.26429453555282
 30
0.0
 11
287.4604862290237
 21
96.76429453555282
 31
0.0
  0
LINE
  5
45C
330
1F
100
AcDbEntity
  8
実線
100
AcDbLine
 10
287.313613566944
 20
98.26429453555282
 30
0.0
 11
288.460486229023
 21
96.76429453555282
 31
0.0
  0
LINE
  5
45D
330
1F
100
AcDbEntity
  8
実線
100
AcDbLine
 10
285.3136135669445
 20
98.26429453555282
 30
0.0
 11
286.4604862290234
 21
96.76429453555282
 31
0.0
  0
LINE
  5
45E
330
1F
100
AcDbEntity
  8
実線
100
AcDbLine
 10
284.3136135669454
 20
98.26429453555282
 30
0.0
 11
285.4604862290241
 21
96.76429453555282
 31
0.0
  0
LINE
  5
45F
330
1F
100
AcDbEntity
  8
実線
100
AcDbLine
 10
215.7099848362234
 20
98.26429453555282
 30
0.0
 11
214.5631121741447
 21
96.76429453555282
 31
0.0
  0
LINE
  5
460
330
1F
100
AcDbEntity
  8
実線
100
AcDbLine
 10
214.7099848362243
 20
98.26429453555282
 30
0.0
 11
213.5631121741453
 21
96.76429453555282
 31
0.0
  0
LINE
  5
461
330
1F
100
AcDbEntity
  8
実線
100
AcDbLine
 10
212.7099848362248
 20
98.26429453555282
 30
0.0
 11
211.5631121741458
 21
96.76429453555282
 31
0.0
  0
LINE
  5
462
330
1F
100
AcDbEntity
  8
実線
100
AcDbLine
 10
213.7099848362239
 20
98.26429453555282
 30
0.0
 11
212.5631121741451
 21
96.76429453555282
 31
0.0
  0
LINE
  5
463
330
1F
100
AcDbEntity
  8
実線
100
AcDbLine
 10
222.8810322697643
 20
94.56429453555289
 30
0.0
 11
219.729110318169
 21
90.44188139962323
 31
0.0
  0
LINE
  5
464
330
1F
100
AcDbEntity
  8
実線
100
AcDbLine
 10
223.8810322697639
 20
94.56429453555289
 30
0.0
 11
220.4422649065775
 21
90.06671497390481
 31
0.0
  0
LINE
  5
465
330
1F
100
AcDbEntity
  8
実線
100
AcDbLine
 10
221.8810322697634
 20
94.56429453555289
 30
0.0
 11
219.2049960582458
 21
91.06429453555289
 31
0.0
  0
LINE
  5
466
330
1F
100
AcDbEntity
  8
実線
100
AcDbLine
 10
217.881032269763
 20
94.56429453555289
 30
0.0
 11
215.0364107551925
 21
90.8438010466583
 31
0.0
  0
LINE
  5
467
330
1F
100
AcDbEntity
  8
実線
100
AcDbLine
 10
218.8810322697632
 20
94.56429453555289
 30
0.0
 11
215.5335301324378
 21
90.18608118021284
 31
0.0
  0
LINE
  5
468
330
1F
100
AcDbEntity
  8
実線
100
AcDbLine
 10
219.8810322697632
 20
94.56429453555289
 30
0.0
 11
217.2049960582458
 21
91.06429453555289
 31
0.0
  0
LINE
  5
469
330
1F
100
AcDbEntity
  8
実線
100
AcDbLine
 10
220.8810322697639
 20
94.56429453555289
 30
0.0
 11
218.2049960582463
 21
91.06429453555289
 31
0.0
  0
LINE
  5
46A
330
1F
100
AcDbEntity
  8
実線
370
    25
100
AcDbLine
 10
222.5117992015844
 20
96.76429453555282
 30
0.0
 11
211.5117992015844
 21
96.76429453555282
 31
0.0
  0
LINE
  5
46B
102
{ACAD_REACTORS
330
4B8
102
}
330
1F
100
AcDbEntity
  8
実線
370
    25
100
AcDbLine
 10
291.5117992015844
 20
98.26429453555282
 30
0.0
 11
208.5117992015844
 21
98.26429453555282
 31
0.0
  0
LINE
  5
46C
330
1F
100
AcDbEntity
  8
実線
370
    25
100
AcDbLine
 10
211.5117992015844
 20
94.56429453555289
 30
0.0
 11
211.5117992015844
 21
96.76429453555282
 31
0.0
  0
LINE
  5
46D
102
{ACAD_REACTORS
330
4C4
102
}
330
1F
100
AcDbEntity
  8
実線
370
    25
100
AcDbLine
 10
288.5117992015844
 20
94.56429453555289
 30
0.0
 11
211.5117992015844
 21
94.56429453555289
 31
0.0
  0
LINE
  5
46E
330
1F
100
AcDbEntity
  8
実線
100
AcDbLine
 10
211.5117992015844
 20
95.38927749051832
 30
0.0
 11
208.5117992015844
 21
91.46556376990053
 31
0.0
  0
LINE
  5
46F
330
1F
100
AcDbEntity
  8
実線
100
AcDbLine
 10
211.5117992015844
 20
96.69718206405774
 30
0.0
 11
208.5117992015844
 21
92.77346834343994
 31
0.0
  0
LINE
  5
470
330
1F
100
AcDbEntity
  8
実線
100
AcDbLine
 10
215.8810322697643
 20
94.56429453555289
 30
0.0
 11
213.2049960582467
 21
91.06429453555289
 31
0.0
  0
LINE
  5
471
330
1F
100
AcDbEntity
  8
実線
100
AcDbLine
 10
214.8810322697637
 20
94.56429453555289
 30
0.0
 11
212.2049960582463
 21
91.06429453555289
 31
0.0
  0
LINE
  5
472
330
1F
100
AcDbEntity
  8
実線
100
AcDbLine
 10
213.8810322697637
 20
94.56429453555289
 30
0.0
 11
211.2049960582463
 21
91.06429453555289
 31
0.0
  0
LINE
  5
473
330
1F
100
AcDbEntity
  8
実線
100
AcDbLine
 10
212.8810322697634
 20
94.56429453555289
 30
0.0
 11
210.2049960582461
 21
91.06429453555289
 31
0.0
  0
LINE
  5
474
330
1F
100
AcDbEntity
  8
実線
100
AcDbLine
 10
211.8810322697641
 20
94.56429453555289
 30
0.0
 11
209.2049960582467
 21
91.06429453555289
 31
0.0
  0
LINE
  5
475
330
1F
100
AcDbEntity
  8
実線
100
AcDbLine
 10
216.8810322697639
 20
94.56429453555289
 30
0.0
 11
214.2049960582463
 21
91.06429453555289
 31
0.0
  0
LINE
  5
476
330
1F
100
AcDbEntity
  8
実線
100
AcDbLine
 10
211.7099848362243
 20
98.26429453555282
 30
0.0
 11
208.5117992015844
 21
94.08137291697982
 31
0.0
  0
LINE
  5
477
330
1F
100
AcDbEntity
  8
実線
100
AcDbLine
 10
210.7099848362252
 20
98.26429453555282
 30
0.0
 11
208.5117992015844
 21
95.3892774905181
 31
0.0
  0
LINE
  5
478
330
1F
100
AcDbEntity
  8
実線
100
AcDbLine
 10
209.7099848362248
 20
98.26429453555282
 30
0.0
 11
208.5117992015844
 21
96.69718206405774
 31
0.0
  0
LINE
  5
479
330
1F
100
AcDbEntity
  8
中心線
 48
0.5
370
    25
100
AcDbLine
 10
250.0117992015844
 20
86.33452903029841
 30
0.0
 11
250.0117992015844
 21
102.0654258128204
 31
0.0
  0
LINE
  5
47A
102
{ACAD_REACTORS
330
4C7
102
}
330
1F
100
AcDbEntity
  8
中心線
 48
0.5
370
    25
100
AcDbLine
 10
48.62550277144285
 20
94.08137291697982
 30
0.0
 11
142.3454477464725
 21
94.08137291697982
 31
0.0
  0
LINE
  5
47B
330
1F
100
AcDbEntity
  8
中心線
 48
0.5
370
    25
100
AcDbLine
 10
95.11325614461137
 20
47.82870361935254
 30
0.0
 11
95.16877642477428
 21
139.2334454209435
 31
0.0
  0
LINE
  5
47C
330
1F
100
AcDbEntity
  8
実線
370
    25
100
AcDbLine
 10
261.0117992015844
 20
96.76429453555282
 30
0.0
 11
239.0117992015844
 21
96.76429453555282
 31
0.0
  0
LINE
  5
47D
330
1F
100
AcDbEntity
  8
実線
100
AcDbLine
 10
251.3280086870202
 20
98.26429453555282
 30
0.0
 11
252.474881349099
 21
96.76429453555282
 31
0.0
  0
LINE
  5
47E
330
1F
100
AcDbEntity
  8
実線
100
AcDbLine
 10
252.3280086870193
 20
98.26429453555282
 30
0.0
 11
253.4748813490983
 21
96.76429453555282
 31
0.0
  0
LINE
  5
47F
330
1F
100
AcDbEntity
  8
実線
100
AcDbLine
 10
254.3280086870189
 20
98.26429453555282
 30
0.0
 11
255.4748813490978
 21
96.76429453555282
 31
0.0
  0
LINE
  5
480
330
1F
100
AcDbEntity
  8
実線
100
AcDbLine
 10
253.3280086870198
 20
98.26429453555282
 30
0.0
 11
254.4748813490985
 21
96.76429453555282
 31
0.0
  0
LINE
  5
481
330
1F
100
AcDbEntity
  8
実線
100
AcDbLine
 10
250.3280086870211
 20
98.26429453555282
 30
0.0
 11
251.4748813490999
 21
96.76429453555282
 31
0.0
  0
LINE
  5
482
330
1F
100
AcDbEntity
  8
実線
100
AcDbLine
 10
249.3280086870207
 20
98.26429453555282
 30
0.0
 11
250.4748813490997
 21
96.76429453555282
 31
0.0
  0
LINE
  5
483
330
1F
100
AcDbEntity
  8
実線
100
AcDbLine
 10
248.3280086870216
 20
98.26429453555282
 30
0.0
 11
249.4748813491003
 21
96.76429453555282
 31
0.0
  0
LINE
  5
484
330
1F
100
AcDbEntity
  8
実線
100
AcDbLine
 10
247.3280086870225
 20
98.26429453555282
 30
0.0
 11
248.4748813491013
 21
96.76429453555282
 31
0.0
  0
LINE
  5
485
330
1F
100
AcDbEntity
  8
実線
100
AcDbLine
 10
246.3280086870234
 20
98.26429453555282
 30
0.0
 11
247.4748813491022
 21
96.76429453555282
 31
0.0
  0
LINE
  5
486
330
1F
100
AcDbEntity
  8
実線
100
AcDbLine
 10
245.328008687023
 20
98.26429453555282
 30
0.0
 11
246.4748813491019
 21
96.76429453555282
 31
0.0
  0
LINE
  5
487
330
1F
100
AcDbEntity
  8
実線
100
AcDbLine
 10
244.3280086870239
 20
98.26429453555282
 30
0.0
 11
245.4748813491026
 21
96.76429453555282
 31
0.0
  0
ARC
  5
488
330
1F
100
AcDbEntity
  8
実線
 48
0.5
370
    25
100
AcDbCircle
 10
95.1097378182881
 20
94.08137291697982
 30
0.0
 40
38.5
100
AcDbArc
 50
196.4739488581157
 51
253.5382951554127
  0
CIRCLE
  5
489
102
{ACAD_REACTORS
330
4C7
102
}
330
1F
100
AcDbEntity
  8
実線
 48
0.5
370
    25
100
AcDbCircle
 10
95.14135054220017
 20
94.08137291697982
 30
0.0
 40
41.5
  0
CIRCLE
  5
48A
330
1F
100
AcDbEntity
  8
実線
 48
0.5
370
    25
100
AcDbCircle
 10
95.14135054220017
 20
94.08137291697982
 30
0.0
 40
25.0
  0
ARC
  5
48B
330
1F
100
AcDbEntity
  8
実線
 48
0.5
370
    25
100
AcDbCircle
 10
56.6097378182881
 20
94.08137291697982
 30
0.0
 40
11.03160765086955
100
AcDbArc
 50
278.2369744290629
 51
81.76302557093715
  0
ARC
  5
48C
330
1F
100
AcDbEntity
  8
実線
 48
0.5
370
    25
100
AcDbCircle
 10
95.11796520468536
 20
55.58137379606926
 30
0.0
 40
11.03160765086955
100
AcDbArc
 50
8.24921844257741
 51
171.7752695844656
  0
ARC
  5
48D
330
1F
100
AcDbEntity
  8
実線
 48
0.5
370
    25
100
AcDbCircle
 10
133.6097378182881
 20
94.08137291697982
 30
0.0
 40
11.03160765086955
100
AcDbArc
 50
98.23697442905808
 51
261.7630255709419
  0
ARC
  5
48E
330
1F
100
AcDbEntity
  8
実線
 48
0.5
370
    25
100
AcDbCircle
 10
95.1097378182881
 20
132.5813729169798
 30
0.0
 40
11.03160765086955
100
AcDbArc
 50
188.2369744290482
 51
351.7630255709518
  0
ARC
  5
48F
330
1F
100
AcDbEntity
  8
実線
 48
0.5
370
    25
100
AcDbCircle
 10
95.1097378182881
 20
94.08137291697982
 30
0.0
 40
38.5
100
AcDbArc
 50
286.48619287163
 51
343.526051141889
  0
ARC
  5
490
330
1F
100
AcDbEntity
  8
実線
 48
0.5
370
    25
100
AcDbCircle
 10
95.1097378182881
 20
94.08137291697982
 30
0.0
 40
38.5
100
AcDbArc
 50
16.47394885811096
 51
73.52605114189899
  0
ARC
  5
491
330
1F
100
AcDbEntity
  8
実線
 48
0.5
370
    25
100
AcDbCircle
 10
95.1097378182881
 20
94.08137291697982
 30
0.0
 40
38.5
100
AcDbArc
 50
106.473948858101
 51
163.5260511418843
  0
LINE
  5
492
102
{ACAD_REACTORS
330
4B2
102
}
330
1F
100
AcDbEntity
  8
実線
 48
0.5
370
    25
100
AcDbLine
 10
222.5117992015844
 20
96.76429453555282
 30
0.0
 11
222.5117992015844
 21
98.26429453555282
 31
0.0
  0
LINE
  5
493
102
{ACAD_REACTORS
330
4B2
102
}
330
1F
100
AcDbEntity
  8
実線
 48
0.5
370
    25
100
AcDbLine
 10
277.5117992015844
 20
96.76429453555282
 30
0.0
 11
277.5117992015844
 21
98.26429453555282
 31
0.0
  0
LINE
  5
494
102
{ACAD_REACTORS
330
4B5
102
}
330
1F
100
AcDbEntity
  8
実線
 48
0.5
370
    25
100
AcDbLine
 10
275.0117992015844
 20
91.06429453555289
 30
0.0
 11
275.0117992015844
 21
94.56429453555289
 31
0.0
  0
LINE
  5
495
102
{ACAD_REACTORS
330
4B5
102
}
330
1F
100
AcDbEntity
  8
実線
 48
0.5
370
    25
100
AcDbLine
 10
225.0117992015844
 20
91.06429453555289
 30
0.0
 11
225.0117992015844
 21
94.56429453555289
 31
0.0
  0
LINE
  5
496
330
1F
100
AcDbEntity
  8
実線
100
AcDbLine
 10
219.7099848362225
 20
98.26429453555282
 30
0.0
 11
218.5631121741438
 21
96.76429453555282
 31
0.0
  0
LINE
  5
497
330
1F
100
AcDbEntity
  8
実線
100
AcDbLine
 10
222.5117992015844
 20
98.00508663760137
 30
0.0
 11
221.5631121741426
 21
96.76429453555282
 31
0.0
  0
LINE
  5
498
330
1F
100
AcDbEntity
  8
実線
100
AcDbLine
 10
221.7099848362223
 20
98.26429453555282
 30
0.0
 11
220.5631121741433
 21
96.76429453555282
 31
0.0
  0
LINE
  5
499
330
1F
100
AcDbEntity
  8
実線
100
AcDbLine
 10
220.7099848362218
 20
98.26429453555282
 30
0.0
 11
219.5631121741431
 21
96.76429453555282
 31
0.0
  0
LINE
  5
49A
330
1F
100
AcDbEntity
  8
実線
100
AcDbLine
 10
224.8810322697634
 20
94.56429453555289
 30
0.0
 11
222.2049960582458
 21
91.06429453555289
 31
0.0
  0
LINE
  5
49B
330
1F
100
AcDbEntity
  8
実線
100
AcDbLine
 10
225.0117992015844
 20
92.11951605667052
 30
0.0
 11
224.2049960582463
 21
91.06429453555289
 31
0.0
  0
LINE
  5
49C
330
1F
100
AcDbEntity
  8
実線
100
AcDbLine
 10
225.0117992015844
 20
93.42742063020897
 30
0.0
 11
223.2049960582467
 21
91.06429453555289
 31
0.0
  0
LINE
  5
49D
330
1F
100
AcDbEntity
  8
実線
100
AcDbLine
 10
280.3136135669472
 20
98.26429453555282
 30
0.0
 11
281.4604862290259
 21
96.76429453555282
 31
0.0
  0
LINE
  5
49E
330
1F
100
AcDbEntity
  8
実線
100
AcDbLine
 10
278.3136135669474
 20
98.26429453555282
 30
0.0
 11
279.4604862290264
 21
96.76429453555282
 31
0.0
  0
LINE
  5
49F
330
1F
100
AcDbEntity
  8
実線
100
AcDbLine
 10
279.3136135669479
 20
98.26429453555282
 30
0.0
 11
280.4604862290266
 21
96.76429453555282
 31
0.0
  0
LINE
  5
4A0
330
1F
100
AcDbEntity
  8
実線
100
AcDbLine
 10
277.5117992015844
 20
98.00508663760228
 30
0.0
 11
278.4604862290271
 21
96.76429453555282
 31
0.0
  0
LINE
  5
4A1
330
1F
100
AcDbEntity
  8
実線
100
AcDbLine
 10
275.0117992015844
 20
93.42742063020897
 30
0.0
 11
276.8186023449221
 21
91.06429453555289
 31
0.0
  0
LINE
  5
4A2
330
1F
100
AcDbEntity
  8
実線
100
AcDbLine
 10
275.0117992015844
 20
92.11951605667052
 30
0.0
 11
275.8186023449225
 21
91.06429453555289
 31
0.0
  0
LINE
  5
4A3
330
1F
100
AcDbEntity
  8
実線
100
AcDbLine
 10
275.1425661334054
 20
94.56429453555289
 30
0.0
 11
277.818602344923
 21
91.06429453555289
 31
0.0
  0
LINE
  5
4A4
330
1F
100
AcDbEntity
  8
実線
 48
0.5
370
    25
100
AcDbLine
 10
261.0117992015844
 20
96.76429453555282
 30
0.0
 11
261.0117992015844
 21
98.26429453555282
 31
0.0
  0
LINE
  5
4A5
330
1F
100
AcDbEntity
  8
実線
 48
0.5
370
    25
100
AcDbLine
 10
239.0117992015844
 20
96.76429453555282
 30
0.0
 11
239.0117992015844
 21
98.26429453555282
 31
0.0
  0
LINE
  5
4A6
330
1F
100
AcDbEntity
  8
実線
100
AcDbLine
 10
240.3280086870252
 20
98.26429453555282
 30
0.0
 11
241.474881349104
 21
96.76429453555282
 31
0.0
  0
LINE
  5
4A7
330
1F
100
AcDbEntity
  8
実線
100
AcDbLine
 10
241.3280086870243
 20
98.26429453555282
 30
0.0
 11
242.4748813491033
 21
96.76429453555282
 31
0.0
  0
LINE
  5
4A8
330
1F
100
AcDbEntity
  8
実線
100
AcDbLine
 10
242.3280086870248
 20
98.26429453555282
 30
0.0
 11
243.4748813491035
 21
96.76429453555282
 31
0.0
  0
LINE
  5
4A9
330
1F
100
AcDbEntity
  8
実線
100
AcDbLine
 10
239.328008687025
 20
98.26429453555282
 30
0.0
 11
240.474881349104
 21
96.76429453555282
 31
0.0
  0
LINE
  5
4AA
330
1F
100
AcDbEntity
  8
実線
100
AcDbLine
 10
239.0117992015844
 20
97.36996179421884
 30
0.0
 11
239.4748813491047
 21
96.76429453555282
 31
0.0
  0
LINE
  5
4AB
330
1F
100
AcDbEntity
  8
実線
100
AcDbLine
 10
258.35941232461
 20
98.26429453555282
 30
0.0
 11
259.5062849866888
 21
96.76429453555282
 31
0.0
  0
LINE
  5
4AC
330
1F
100
AcDbEntity
  8
実線
100
AcDbLine
 10
259.3594123246091
 20
98.26429453555282
 30
0.0
 11
260.5062849866881
 21
96.76429453555282
 31
0.0
  0
LINE
  5
4AD
330
1F
100
AcDbEntity
  8
実線
100
AcDbLine
 10
257.3594123246096
 20
98.26429453555282
 30
0.0
 11
258.5062849866886
 21
96.76429453555282
 31
0.0
  0
LINE
  5
4AE
330
1F
100
AcDbEntity
  8
実線
100
AcDbLine
 10
256.3594123246105
 20
98.26429453555282
 30
0.0
 11
257.5062849866893
 21
96.76429453555282
 31
0.0
  0
LINE
  5
4AF
330
1F
100
AcDbEntity
  8
実線
100
AcDbLine
 10
260.3908159622015
 20
98.26429453555282
 30
0.0
 11
261.0117992015844
 21
97.45210771667284
 31
0.0
  0
DIMENSION
  5
4B0
102
{ACAD_REACTORS
330
4B2
102
}
102
{ACAD_XDICTIONARY
360
4B1
102
}
330
1F
100
AcDbEntity
  8
文字・寸法線
 48
0.5
370
    25
100
AcDbDimension
280
     0
  2
*D16
 10
277.5117992015844
 20
108.819903004582
 30
0.0
 11
250.0117992015844
 21
110.970403004582
 31
0.0
 70
    32
 71
     5
 42
54.99999999999997
 73
     0
 74
     0
 75
     0
  3
ISO-25
100
AcDbAlignedDimension
 13
222.5117992015844
 23
98.26429453555282
 33
0.0
 14
277.5117992015844
 24
98.26429453555282
 34
0.0
100
AcDbRotatedDimension
  0
DIMENSION
  5
4B3
102
{ACAD_REACTORS
330
4B5
102
}
102
{ACAD_XDICTIONARY
360
4B4
102
}
330
1F
100
AcDbEntity
  8
文字・寸法線
 48
0.5
370
    25
100
AcDbDimension
280
     0
  2
*D17
 10
275.0117992015844
 20
79.80034884935536
 30
0.0
 11
250.0117992015844
 21
82.01084884935536
 31
0.0
 70
    32
  1
%%c<>
 71
     5
 42
49.99999999999997
 73
     0
 74
     0
 75
     0
  3
ISO-25
100
AcDbAlignedDimension
 13
225.0117992015844
 23
91.06429453555289
 33
0.0
 14
275.0117992015844
 24
91.06429453555289
 34
0.0
100
AcDbRotatedDimension
  0
DIMENSION
  5
4B6
102
{ACAD_REACTORS
330
4B8
102
}
102
{ACAD_XDICTIONARY
360
4B7
102
}
330
1F
100
AcDbEntity
  8
文字・寸法線
 48
0.5
370
    25
100
AcDbDimension
280
     0
  2
*D18
 10
200.760932190397
 20
90.06429453555289
 30
0.0
 11
198.604432190397
 21
94.16429453555286
 31
0.0
 70
    32
  1
8.2
 71
     5
 42
8.199999999999932
 73
     0
 74
     0
 75
     0
  3
ISO-25
100
AcDbAlignedDimension
 13
208.5117992015844
 23
98.26429453555282
 33
0.0
 14
210.0525265120237
 24
90.06429453555289
 34
0.0
 50
90.0
100
AcDbRotatedDimension
  0
LINE
  5
4B9
102
{ACAD_REACTORS
330
4B8
102
}
330
1F
100
AcDbEntity
  8
実線
370
    25
100
AcDbLine
 10
208.5117992015844
 20
91.06429453555289
 30
0.0
 11
215.0117992015846
 21
91.06429453555289
 31
0.0
  0
ARC
  5
4BA
330
1F
100
AcDbEntity
  8
実線
 48
0.5
370
    25
100
AcDbCircle
 10
279.5117992015844
 20
91.06429453555289
 30
0.0
 40
1.0
100
AcDbArc
 50
180.0
 51
0.0
  0
ARC
  5
4BB
330
1F
100
AcDbEntity
  8
実線
 48
0.5
370
    25
100
AcDbCircle
 10
284.0117992015844
 20
91.06429453555289
 30
0.0
 40
1.0
100
AcDbArc
 50
180.0
 51
0.0
  0
ARC
  5
4BC
330
1F
100
AcDbEntity
  8
実線
 48
0.5
370
    25
100
AcDbCircle
 10
216.0117992015846
 20
91.06429453555289
 30
0.0
 40
1.0
100
AcDbArc
 50
180.0
 51
0.0
  0
ARC
  5
4BD
330
1F
100
AcDbEntity
  8
実線
 48
0.5
370
    25
100
AcDbCircle
 10
220.5117992015846
 20
91.06429453555289
 30
0.0
 40
1.0
100
AcDbArc
 50
180.0
 51
0.0
  0
LINE
  5
4BE
330
1F
100
AcDbEntity
  8
実線
370
    25
100
AcDbLine
 10
217.0117992015846
 20
91.06429453555289
 30
0.0
 11
219.5117992015846
 21
91.06429453555289
 31
0.0
  0
LINE
  5
4BF
330
1F
100
AcDbEntity
  8
実線
370
    25
100
AcDbLine
 10
221.5117992015846
 20
91.06429453555289
 30
0.0
 11
278.5117992015844
 21
91.06429453555289
 31
0.0
  0
LINE
  5
4C0
330
1F
100
AcDbEntity
  8
実線
370
    25
100
AcDbLine
 10
285.0117992015844
 20
91.06429453555289
 30
0.0
 11
291.5117992015844
 21
91.06429453555289
 31
0.0
  0
LINE
  5
4C1
330
1F
100
AcDbEntity
  8
実線
370
    25
100
AcDbLine
 10
280.5117992015844
 20
91.06429453555289
 30
0.0
 11
283.0117992015844
 21
91.06429453555289
 31
0.0
  0
DIMENSION
  5
4C2
102
{ACAD_REACTORS
330
4C4
102
}
102
{ACAD_XDICTIONARY
360
4C3
102
}
330
1F
100
AcDbEntity
  8
文字・寸法線
 48
0.5
370
    25
100
AcDbDimension
280
     0
  2
*D19
 10
288.5117992015844
 20
67.92325533166648
 30
0.0
 11
250.0117992015844
 21
70.12775533166648
 31
0.0
 70
    32
  1
%%c<>
 71
     5
 42
76.99999999999997
 73
     0
 74
     0
 75
     0
  3
ISO-25
100
AcDbAlignedDimension
 13
211.5117992015844
 23
94.56429453555289
 33
0.0
 14
288.5117992015844
 24
94.56429453555289
 34
0.0
100
AcDbRotatedDimension
  0
DIMENSION
  5
4C5
102
{ACAD_REACTORS
330
4C7
102
}
102
{ACAD_XDICTIONARY
360
4C6
102
}
330
1F
100
AcDbEntity
  8
実線
 48
0.5
370
    25
100
AcDbDimension
280
     0
  2
*D20
 10
136.6413505422002
 20
19.80187520624757
 30
0.0
 11
95.14135054220019
 21
22.01237520624757
 31
0.0
 70
    32
  1
%%c<>
 71
     5
 42
83.00000000000003
 73
     0
 74
     0
 75
     0
  3
ISO-25
100
AcDbAlignedDimension
 13
53.64135054220017
 23
94.08137291697982
 33
0.0
 14
136.6413505422002
 24
94.08137291697982
 34
0.0
100
AcDbRotatedDimension
  0
VIEWPORT
  5
2B5
330
58
100
AcDbEntity
 67
     1
  8
0
100
AcDbViewport
 10
5.437499999999999
 20
3.881944444444445
 30
0.0
 40
13.05
 41
9.316666666666666
 68
     1
 69
     1
 12
5.437499999999999
 22
3.881944444444445
 13
0.0
 23
0.0
 14
0.5
 24
0.5
 15
0.0
 25
0.0
 16
0.0
 26
0.0
 36
1.0
 17
0.0
 27
0.0
 37
0.0
 42
50.0
 43
0.0
 44
0.0
 45
9.316666666666666
 50
0.0
 51
0.0
 72
   100
 90
   557152
  1

281
     0
 71
     1
 74
     0
110
0.0
120
0.0
130
0.0
111
1.0
121
0.0
131
0.0
112
0.0
122
1.0
132
0.0
 79
     0
146
0.0
170
     0
 61
     5
348
9F
292
     1
282
     1
141
0.0
142
0.0
 63
   256
361
2B7
  0
VIEWPORT
  5
2B6
330
58
100
AcDbEntity
 67
     1
  8
0
100
AcDbViewport
 10
5.437499999999999
 20
3.881944444444445
 30
0.0
 40
8.7
 41
6.211111111111112
 68
     2
 69
     2
 12
152.1505002824645
 22
95.88396384706475
 13
0.0
 23
0.0
 14
0.5
 24
0.5
 15
0.0
 25
0.0
 16
0.0
 26
0.0
 36
1.0
 17
0.0
 27
0.0
 37
0.0
 42
50.0
 43
0.0
 44
0.0
 45
165.0017138062201
 50
0.0
 51
0.0
 72
   100
 90
   557152
  1

281
     0
 71
     1
 74
     0
110
0.0
120
0.0
130
0.0
111
1.0
121
0.0
131
0.0
112
0.0
122
1.0
132
0.0
 79
     0
146
0.0
170
     0
 61
     5
348
9F
292
     1
282
     1
141
0.0
142
0.0
 63
   256
  0
ENDSEC
  0
SECTION
  2
OBJECTS
  0
DICTIONARY
  5
C
330
0
100
AcDbDictionary
281
     1
  3
ACAD_COLOR
350
73
  3
ACAD_DETAILVIEWSTYLE
350
122
  3
ACAD_GROUP
350
D
  3
ACAD_IMAGE_VARS
350
DC
  3
ACAD_LAYOUT
350
1A
  3
ACAD_MATERIAL
350
72
  3
ACAD_MLEADERSTYLE
350
B5
  3
ACAD_MLINESTYLE
350
17
  3
ACAD_PLOTSETTINGS
350
19
  3
ACAD_PLOTSTYLENAME
350
E
  3
ACAD_SCALELIST
350
B6
  3
ACAD_SECTIONVIEWSTYLE
350
123
  3
ACAD_TABLESTYLE
350
86
  3
ACAD_VISUALSTYLE
350
99
  3
ACDB_RECOMPOSE_DATA
350
50A
  3
AcDbVariableDictionary
350
66
  3
APPDATA
350
E1
  0
SUN
  5
ED
330
94
100
AcDbSun
 90
        1
290
     0
 63
     7
421
 16777215
 40
1.0
291
     1
 91
  2455826
 92
 54000000
292
     0
 70
     2
 71
   256
280
     1
  0
DICTIONARY
  5
127
330
126
100
AcDbDictionary
280
     1
281
     1
  3
ADSK_XREC_LAYER_RECONCILED
360
128
  0
DICTIONARY
  5
12C
330
12B
100
AcDbDictionary
280
     1
281
     1
  3
ADSK_XREC_LAYER_RECONCILED
360
12D
  0
DICTIONARY
  5
12F
330
12E
100
AcDbDictionary
280
     1
281
     1
  3
ADSK_XREC_LAYER_RECONCILED
360
130
  0
DICTIONARY
  5
4B1
330
4B0
100
AcDbDictionary
280
     1
281
     1
  3
ACAD_DIMASSOC
360
4B2
  0
DICTIONARY
  5
4B4
330
4B3
100
AcDbDictionary
280
     1
281
     1
  3
ACAD_DIMASSOC
360
4B5
  0
DICTIONARY
  5
4B7
330
4B6
100
AcDbDictionary
280
     1
281
     1
  3
ACAD_DIMASSOC
360
4B8
  0
DICTIONARY
  5
4C3
330
4C2
100
AcDbDictionary
280
     1
281
     1
  3
ACAD_DIMASSOC
360
4C4
  0
DICTIONARY
  5
4C6
330
4C5
100
AcDbDictionary
280
     1
281
     1
  3
ACAD_DIMASSOC
360
4C7
  0
SUN
  5
2B7
330
2B5
100
AcDbSun
 90
        1
290
     0
 63
     7
421
 16777215
 40
1.0
291
     1
 91
  2455826
 92
 54000000
292
     0
 70
     2
 71
   256
280
     1
  0
DICTIONARY
  5
73
102
{ACAD_REACTORS
330
C
102
}
330
C
100
AcDbDictionary
281
     1
  0
DICTIONARY
  5
122
102
{ACAD_REACTORS
330
C
102
}
330
C
100
AcDbDictionary
281
     1
  0
DICTIONARY
  5
D
102
{ACAD_REACTORS
330
C
102
}
330
C
100
AcDbDictionary
281
     1
  0
RASTERVARIABLES
  5
DC
102
{ACAD_REACTORS
330
C
102
}
330
C
100
AcDbRasterVariables
 90
        0
 70
     1
 71
     1
 72
     5
  0
DICTIONARY
  5
1A
102
{ACAD_REACTORS
330
C
102
}
330
C
100
AcDbDictionary
281
     1
  3
Model
350
22
  3
Sheet1
350
59
  0
DICTIONARY
  5
72
102
{ACAD_REACTORS
330
C
102
}
330
C
100
AcDbDictionary
281
     1
  3
ByBlock
350
E2
  3
ByLayer
350
96
  3
Global
350
98
  0
DICTIONARY
  5
B5
102
{ACAD_REACTORS
330
C
102
}
330
C
100
AcDbDictionary
281
     1
  0
DICTIONARY
  5
17
102
{ACAD_REACTORS
330
C
102
}
330
C
100
AcDbDictionary
281
     1
  3
Standard
350
18
  0
DICTIONARY
  5
19
102
{ACAD_REACTORS
330
C
102
}
330
C
100
AcDbDictionary
281
     1
  0
ACDBDICTIONARYWDFLT
  5
E
102
{ACAD_REACTORS
330
C
102
}
330
C
100
AcDbDictionary
281
     1
  3
Normal
350
F
100
AcDbDictionaryWithDefault
340
F
  0
DICTIONARY
  5
B6
102
{ACAD_REACTORS
330
C
102
}
330
C
100
AcDbDictionary
281
     1
  3
A0
350
B7
  3
A1
350
B8
  3
A2
350
B9
  3
A3
350
BA
  3
A4
350
BB
  3
A5
350
BC
  3
A6
350
BD
  3
A7
350
BE
  3
A8
350
BF
  3
A9
350
C0
  3
B0
350
C1
  3
B1
350
C2
  3
B2
350
C3
  3
B3
350
C4
  3
B4
350
C5
  3
B5
350
C6
  3
B6
350
C7
  3
B7
350
C8
  3
B8
350
C9
  3
B9
350
CA
  3
C0
350
CB
  3
C1
350
CC
  3
C2
350
CD
  3
C3
350
CE
  3
C4
350
CF
  3
C5
350
D0
  3
C6
350
D1
  3
C7
350
D2
  3
C8
350
D3
  3
C9
350
D4
  3
D0
350
D5
  3
D1
350
D6
  3
D2
350
D7
  0
DICTIONARY
  5
123
102
{ACAD_REACTORS
330
C
102
}
330
C
100
AcDbDictionary
281
     1
  0
DICTIONARY
  5
86
102
{ACAD_REACTORS
330
C
102
}
330
C
100
AcDbDictionary
281
     1
  3
Standard
350
87
  0
DICTIONARY
  5
99
102
{ACAD_REACTORS
330
C
102
}
330
C
100
AcDbDictionary
281
     1
  3
2dWireframe
350
9F
  3
3D Hidden
350
A1
  3
3dWireframe
350
A0
  3
Basic
350
9E
  3
Brighten
350
A5
  3
ColorChange
350
A9
  3
Conceptual
350
A2
  3
Dim
350
A4
  3
EdgeColorOff
350
E7
  3
Facepattern
350
A8
  3
Flat
350
9A
  3
FlatWithEdges
350
9B
  3
Gouraud
350
9C
  3
GouraudWithEdges
350
9D
  3
Hidden
350
E4
  3
JitterOff
350
E5
  3
Linepattern
350
A7
  3
OverhangOff
350
E6
  3
Realistic
350
A3
  3
Shaded
350
EC
  3
Shaded with edges
350
EB
  3
Shades of Gray
350
E8
  3
Sketchy
350
E9
  3
Thicken
350
A6
  3
Wireframe
350
E3
  3
X-Ray
350
EA
  0
XRECORD
  5
50A
102
{ACAD_REACTORS
330
C
102
}
330
C
100
AcDbXrecord
280
     1
 90
        1
330
87
  0
DICTIONARY
  5
66
102
{ACAD_REACTORS
330
C
102
}
330
C
100
AcDbDictionary
281
     1
  3
CANNOSCALE
350
D8
  3
CTABLESTYLE
350
89
  3
DIMASSOC
350
67
  3
HIDETEXT
350
6B
  3
LIGHTSINBLOCKS
350
DF
  3
XCLIPFRAME
350
E0
  0
DICTIONARY
  5
E1
102
{ACAD_REACTORS
330
C
102
}
330
C
100
AcDbDictionary
281
     1
  0
XRECORD
  5
128
102
{ACAD_REACTORS
330
127
102
}
330
127
100
AcDbXrecord
280
     1
290
     1
  0
XRECORD
  5
12D
102
{ACAD_REACTORS
330
12C
102
}
330
12C
100
AcDbXrecord
280
     1
290
     1
  0
XRECORD
  5
130
102
{ACAD_REACTORS
330
12F
102
}
330
12F
100
AcDbXrecord
280
     1
290
     1
  0
DIMASSOC
  5
4B2
102
{ACAD_REACTORS
330
4B1
102
}
330
4B1
100
AcDbDimAssoc
330
4B0
 90
        3
 70
     0
 71
     0
  1
AcDbOsnapPointRef
 72
     1
331
492
 73
     2
 91
        0
 40
1.0
 10
0.0
 20
0.0
 30
2.000000000000000E+50
 75
     0
  1
AcDbOsnapPointRef
 72
     1
331
493
 73
     2
 91
        0
 40
1.0
 10
0.0
 20
0.0
 30
2.000000000000000E+50
 75
     0
  0
DIMASSOC
  5
4B5
102
{ACAD_REACTORS
330
4B4
102
}
330
4B4
100
AcDbDimAssoc
330
4B3
 90
        3
 70
     0
 71
     0
  1
AcDbOsnapPointRef
 72
    13
331
495
 73
     2
 91
        0
 40
0.0
 10
0.0
 20
0.0
 30
2.000000000000000E+50
 75
     0
  1
AcDbOsnapPointRef
 72
    13
331
494
 73
     2
 91
        0
 40
0.0
 10
0.0
 20
0.0
 30
2.000000000000000E+50
 75
     0
  0
DIMASSOC
  5
4B8
102
{ACAD_REACTORS
330
4B7
102
}
330
4B7
100
AcDbDimAssoc
330
4B6
 90
        1
 70
     0
 71
     0
  1
AcDbOsnapPointRef
 72
     1
331
46B
 73
     2
 91
        0
 40
1.0
 10
0.0
 20
0.0
 30
2.000000000000000E+50
 75
     0
  0
DIMASSOC
  5
4C4
102
{ACAD_REACTORS
330
4C3
102
}
330
4C3
100
AcDbDimAssoc
330
4C2
 90
        3
 70
     0
 71
     0
  1
AcDbOsnapPointRef
 72
     1
331
46D
 73
     2
 91
        0
 40
1.0
 10
0.0
 20
0.0
 30
2.000000000000000E+50
 75
     0
  1
AcDbOsnapPointRef
 72
    13
331
46D
 73
     2
 91
        0
 40
0.0
 10
0.0
 20
0.0
 30
2.000000000000000E+50
 75
     0
  0
DIMASSOC
  5
4C7
102
{ACAD_REACTORS
330
4C6
102
}
330
4C6
100
AcDbDimAssoc
330
4C5
 90
        3
 70
     0
 71
     0
  1
AcDbOsnapPointRef
 72
     6
331
47A
 73
     2
 91
        0
 40
0.053519533884636
 10
0.0
 20
0.0
 30
0.0
332
489
 74
     2
 92
        0
 75
     0
  1
AcDbOsnapPointRef
 72
     6
331
47A
 73
     2
 91
        0
 40
0.9391367845361828
 10
0.0
 20
0.0
 30
0.0
332
489
 74
     2
 92
        0
 75
     0
  0
LAYOUT
  5
22
102
{ACAD_REACTORS
330
1A
102
}
330
1A
100
AcDbPlotSettings
  1

  2
none_device
  4
ANSI_A_(8.50_x_11.00_Inches)
  6

 40
6.35
 41
19.05
 42
6.35
 43
19.05
 44
215.9
 45
279.4
 46
11.11250000000003
 47
0.0000000000000142
 48
0.0
 49
0.0
140
0.0
141
0.0
142
1.0
143
1.263157894736842
 70
 11444
 72
     0
 73
     1
 74
     1
  7
monochrome.ctb
 75
     0
 76
     0
 77
     2
 78
   300
147
0.7916666666666665
148
-702.8076765758875
149
-496.2830551296954
100
AcDbLayout
  1
Model
 70
     1
 71
     0
 10
0.0
 20
0.0
 11
12.0
 21
9.0
 12
0.0
 22
0.0
 32
0.0
 14
42.5472824174887
 24
19.30187520624757
 34
0.0
 15
291.5117992015844
 25
171.8982399279457
 35
0.0
146
0.0
 13
0.0
 23
0.0
 33
0.0
 16
1.0
 26
0.0
 36
0.0
 17
0.0
 27
1.0
 37
0.0
 76
     0
330
1F
331
94
  0
LAYOUT
  5
59
102
{ACAD_REACTORS
330
1A
102
}
330
1A
100
AcDbPlotSettings
  1

  2
None
  4
iso-a4
  6

 40
6.35
 41
6.35
 42
6.35
 43
14.46388888888889
 44
209.9027777777778
 45
297.0388888888888
 46
0.0
 47
0.0
 48
0.0
 49
0.0
140
0.0
141
0.0
142
1.0
143
1.0
 70
   688
 72
     0
 73
     1
 74
     5
  7

 75
    16
 76
     0
 77
     2
 78
   300
147
1.0
148
0.0
149
0.0
100
AcDbLayout
  1
Sheet1
 70
     1
 71
     1
 10
0.0
 20
0.0
 11
11.125
 21
8.01388888888889
 12
0.0
 22
0.0
 32
0.0
 14
0.0
 24
0.0
 34
0.0
 15
0.0
 25
0.0
 35
0.0
146
0.0
 13
0.0
 23
0.0
 33
0.0
 16
1.0
 26
0.0
 36
0.0
 17
0.0
 27
1.0
 37
0.0
 76
     0
330
58
331
2B5
  0
MATERIAL
  5
E2
102
{ACAD_REACTORS
330
72
102
}
330
72
100
AcDbMaterial
  1
ByBlock
 72
     1
 94
      127
  0
MATERIAL
  5
96
102
{ACAD_REACTORS
330
72
102
}
330
72
100
AcDbMaterial
  1
ByLayer
 72
     1
 94
       63
  0
MATERIAL
  5
98
102
{ACAD_REACTORS
330
72
102
}
330
72
100
AcDbMaterial
  1
Global
 72
     1
 94
       63
  0
MLINESTYLE
  5
18
102
{ACAD_REACTORS
330
17
102
}
330
17
100
AcDbMlineStyle
  2
STANDARD
 70
     0
  3

 62
   256
 51
90.0
 52
90.0
 71
     2
 49
0.5
 62
   256
  6
BYLAYER
 49
-0.5
 62
   256
  6
BYLAYER
  0
ACDBPLACEHOLDER
  5
F
102
{ACAD_REACTORS
330
E
102
}
330
E
  0
SCALE
  5
B7
102
{ACAD_REACTORS
330
B6
102
}
330
B6
100
AcDbScale
 70
     0
300
1:1
140
1.0
141
1.0
290
     1
  0
SCALE
  5
B8
102
{ACAD_REACTORS
330
B6
102
}
330
B6
100
AcDbScale
 70
     0
300
1:2
140
1.0
141
2.0
290
     0
  0
SCALE
  5
B9
102
{ACAD_REACTORS
330
B6
102
}
330
B6
100
AcDbScale
 70
     0
300
1:4
140
1.0
141
4.0
290
     0
  0
SCALE
  5
BA
102
{ACAD_REACTORS
330
B6
102
}
330
B6
100
AcDbScale
 70
     0
300
1:5
140
1.0
141
5.0
290
     0
  0
SCALE
  5
BB
102
{ACAD_REACTORS
330
B6
102
}
330
B6
100
AcDbScale
 70
     0
300
1:8
140
1.0
141
8.0
290
     0
  0
SCALE
  5
BC
102
{ACAD_REACTORS
330
B6
102
}
330
B6
100
AcDbScale
 70
     0
300
1:10
140
1.0
141
10.0
290
     0
  0
SCALE
  5
BD
102
{ACAD_REACTORS
330
B6
102
}
330
B6
100
AcDbScale
 70
     0
300
1:16
140
1.0
141
16.0
290
     0
  0
SCALE
  5
BE
102
{ACAD_REACTORS
330
B6
102
}
330
B6
100
AcDbScale
 70
     0
300
1:20
140
1.0
141
20.0
290
     0
  0
SCALE
  5
BF
102
{ACAD_REACTORS
330
B6
102
}
330
B6
100
AcDbScale
 70
     0
300
1:30
140
1.0
141
30.0
290
     0
  0
SCALE
  5
C0
102
{ACAD_REACTORS
330
B6
102
}
330
B6
100
AcDbScale
 70
     0
300
1:40
140
1.0
141
40.0
290
     0
  0
SCALE
  5
C1
102
{ACAD_REACTORS
330
B6
102
}
330
B6
100
AcDbScale
 70
     0
300
1:50
140
1.0
141
50.0
290
     0
  0
SCALE
  5
C2
102
{ACAD_REACTORS
330
B6
102
}
330
B6
100
AcDbScale
 70
     0
300
1:100
140
1.0
141
100.0
290
     0
  0
SCALE
  5
C3
102
{ACAD_REACTORS
330
B6
102
}
330
B6
100
AcDbScale
 70
     0
300
2:1
140
2.0
141
1.0
290
     0
  0
SCALE
  5
C4
102
{ACAD_REACTORS
330
B6
102
}
330
B6
100
AcDbScale
 70
     0
300
4:1
140
4.0
141
1.0
290
     0
  0
SCALE
  5
C5
102
{ACAD_REACTORS
330
B6
102
}
330
B6
100
AcDbScale
 70
     0
300
8:1
140
8.0
141
1.0
290
     0
  0
SCALE
  5
C6
102
{ACAD_REACTORS
330
B6
102
}
330
B6
100
AcDbScale
 70
     0
300
10:1
140
10.0
141
1.0
290
     0
  0
SCALE
  5
C7
102
{ACAD_REACTORS
330
B6
102
}
330
B6
100
AcDbScale
 70
     0
300
100:1
140
100.0
141
1.0
290
     0
  0
SCALE
  5
C8
102
{ACAD_REACTORS
330
B6
102
}
330
B6
100
AcDbScale
 70
     0
300
1/128" = 1'-0"
140
0.0078125
141
12.0
290
     0
  0
SCALE
  5
C9
102
{ACAD_REACTORS
330
B6
102
}
330
B6
100
AcDbScale
 70
     0
300
1/64" = 1'-0"
140
0.015625
141
12.0
290
     0
  0
SCALE
  5
CA
102
{ACAD_REACTORS
330
B6
102
}
330
B6
100
AcDbScale
 70
     0
300
1/32" = 1'-0"
140
0.03125
141
12.0
290
     0
  0
SCALE
  5
CB
102
{ACAD_REACTORS
330
B6
102
}
330
B6
100
AcDbScale
 70
     0
300
1/16" = 1'-0"
140
0.0625
141
12.0
290
     0
  0
SCALE
  5
CC
102
{ACAD_REACTORS
330
B6
102
}
330
B6
100
AcDbScale
 70
     0
300
3/32" = 1'-0"
140
0.09375
141
12.0
290
     0
  0
SCALE
  5
CD
102
{ACAD_REACTORS
330
B6
102
}
330
B6
100
AcDbScale
 70
     0
300
1/8" = 1'-0"
140
0.125
141
12.0
290
     0
  0
SCALE
  5
CE
102
{ACAD_REACTORS
330
B6
102
}
330
B6
100
AcDbScale
 70
     0
300
3/16" = 1'-0"
140
0.1875
141
12.0
290
     0
  0
SCALE
  5
CF
102
{ACAD_REACTORS
330
B6
102
}
330
B6
100
AcDbScale
 70
     0
300
1/4" = 1'-0"
140
0.25
141
12.0
290
     0
  0
SCALE
  5
D0
102
{ACAD_REACTORS
330
B6
102
}
330
B6
100
AcDbScale
 70
     0
300
3/8" = 1'-0"
140
0.375
141
12.0
290
     0
  0
SCALE
  5
D1
102
{ACAD_REACTORS
330
B6
102
}
330
B6
100
AcDbScale
 70
     0
300
1/2" = 1'-0"
140
0.5
141
12.0
290
     0
  0
SCALE
  5
D2
102
{ACAD_REACTORS
330
B6
102
}
330
B6
100
AcDbScale
 70
     0
300
3/4" = 1'-0"
140
0.75
141
12.0
290
     0
  0
SCALE
  5
D3
102
{ACAD_REACTORS
330
B6
102
}
330
B6
100
AcDbScale
 70
     0
300
1" = 1'-0"
140
1.0
141
12.0
290
     0
  0
SCALE
  5
D4
102
{ACAD_REACTORS
330
B6
102
}
330
B6
100
AcDbScale
 70
     0
300
1-1/2" = 1'-0"
140
1.5
141
12.0
290
     0
  0
SCALE
  5
D5
102
{ACAD_REACTORS
330
B6
102
}
330
B6
100
AcDbScale
 70
     0
300
3" = 1'-0"
140
3.0
141
12.0
290
     0
  0
SCALE
  5
D6
102
{ACAD_REACTORS
330
B6
102
}
330
B6
100
AcDbScale
 70
     0
300
6" = 1'-0"
140
6.0
141
12.0
290
     0
  0
SCALE
  5
D7
102
{ACAD_REACTORS
330
B6
102
}
330
B6
100
AcDbScale
 70
     0
300
1'-0" = 1'-0"
140
12.0
141
12.0
290
     0
  0
TABLESTYLE
  5
87
102
{ACAD_REACTORS
330
86
102
}
102
{ACAD_XDICTIONARY
360
508
102
}
330
86
100
AcDbTableStyle
  3
Standard
 70
     0
 71
     0
 40
0.06
 41
0.06
280
     0
281
     0
  7
Standard
140
0.18
170
     2
 62
     0
 63
   257
283
     0
 90
      512
 91
        0
  1

274
    -2
284
     1
 64
     0
275
    -2
285
     1
 65
     0
276
    -2
286
     1
 66
     0
277
    -2
287
     1
 67
     0
278
    -2
288
     1
 68
     0
279
    -2
289
     1
 69
     0
  7
Standard
140
0.25
170
     5
 62
     0
 63
   257
283
     0
 90
      512
 91
        0
  1

274
    -2
284
     1
 64
     0
275
    -2
285
     1
 65
     0
276
    -2
286
     1
 66
     0
277
    -2
287
     1
 67
     0
278
    -2
288
     1
 68
     0
279
    -2
289
     1
 69
     0
  7
Standard
140
0.18
170
     5
 62
     0
 63
   257
283
     0
 90
      512
 91
        0
  1

274
    -2
284
     1
 64
     0
275
    -2
285
     1
 65
     0
276
    -2
286
     1
 66
     0
277
    -2
287
     1
 67
     0
278
    -2
288
     1
 68
     0
279
    -2
289
     1
 69
     0
  0
VISUALSTYLE
  5
9F
102
{ACAD_REACTORS
330
99
102
}
330
99
100
AcDbVisualStyle
  2
2dWireframe
 70
     4
177
     3
291
     0
 70
    58
 90
        0
176
     1
 90
        2
176
     1
 90
        1
176
     1
 90
        0
176
     1
 40
-0.6
176
     1
 40
-30.0
176
     1
 62
     7
420
 16777215
176
     1
 90
        1
176
     1
 90
        4
176
     1
 62
     7
176
     1
 62
   257
176
     1
 90
        1
176
     1
 90
        1
176
     1
 40
1.0
176
     1
 90
        0
176
     1
 62
   257
176
     1
 40
1.0
176
     1
 90
        1
176
     1
 90
        6
176
     1
 90
        2
176
     1
 62
     7
176
     1
 90
        5
176
     1
 90
        0
176
     1
 90
        0
176
     1
290
     0
176
     1
 90
        1
176
     1
 40
0.0
176
     1
 90
        0
176
     1
290
     1
176
     1
290
     1
176
     1
290
     0
176
     1
290
     0
176
     1
290
     0
176
     1
290
     0
176
     1
290
     0
176
     1
290
     0
176
     1
290
     0
176
     1
 90
       50
176
     1
 40
0.0
176
     1
 40
1.0
176
     1
 90
        0
176
     1
 62
    18
420
        0
176
     1
 90
       50
176
     1
 90
        3
176
     1
 62
     5
420
      255
176
     1
290
     0
176
     1
 90
       50
176
     1
 90
       50
176
     1
 90
       50
176
     1
290
     0
176
     1
 90
       50
176
     1
 62
   256
176
     0
 40
1.0
176
     0
 90
        2
176
     1
  1
strokes_ogs.tif
176
     1
290
     0
176
     1
 40
1.0
176
     1
 40
1.0
176
     1
  0
VISUALSTYLE
  5
A1
102
{ACAD_REACTORS
330
99
102
}
330
99
100
AcDbVisualStyle
  2
3D Hidden
 70
     6
177
     3
291
     0
 70
    58
 90
        1
176
     1
 90
        2
176
     1
 90
        2
176
     1
 90
        0
176
     1
 40
-0.6
176
     1
 40
-30.0
176
     1
 62
     7
420
 16777215
176
     1
 90
        2
176
     1
 90
        2
176
     1
 62
     7
176
     1
 62
   257
176
     1
 90
        2
176
     1
 90
        1
176
     1
 40
40.0
176
     1
 90
        0
176
     1
 62
   257
176
     1
 40
1.0
176
     1
 90
        1
176
     1
 90
        6
176
     1
 90
        2
176
     1
 62
     7
176
     1
 90
        3
176
     1
 90
        0
176
     1
 90
        0
176
     1
290
     0
176
     1
 90
        1
176
     1
 40
0.0
176
     1
 90
        0
176
     1
290
     0
176
     1
290
     1
176
     1
290
     1
176
     1
290
     0
176
     1
290
     0
176
     1
290
     0
176
     1
290
     0
176
     1
290
     0
176
     1
290
     0
176
     1
 90
       50
176
     1
 40
0.0
176
     1
 40
1.0
176
     1
 90
        0
176
     1
 62
    18
420
        0
176
     1
 90
       50
176
     1
 90
        3
176
     1
 62
     5
420
      255
176
     1
290
     0
176
     1
 90
       50
176
     1
 90
       50
176
     1
 90
       50
176
     1
290
     0
176
     1
 90
       50
176
     1
 62
   256
176
     0
 40
1.0
176
     0
 90
        2
176
     1
  1
strokes_ogs.tif
176
     1
290
     0
176
     1
 40
1.0
176
     1
 40
1.0
176
     1
  0
VISUALSTYLE
  5
A0
102
{ACAD_REACTORS
330
99
102
}
330
99
100
AcDbVisualStyle
  2
3dWireframe
 70
     5
177
     3
291
     0
 70
    58
 90
        0
176
     1
 90
        2
176
     1
 90
        1
176
     1
 90
        0
176
     1
 40
-0.6
176
     1
 40
-30.0
176
     1
 62
     7
420
 16777215
176
     1
 90
        1
176
     1
 90
        4
176
     1
 62
     7
176
     1
 62
   257
176
     1
 90
        1
176
     1
 90
        1
176
     1
 40
1.0
176
     1
 90
        0
176
     1
 62
   257
176
     1
 40
1.0
176
     1
 90
        1
176
     1
 90
        6
176
     1
 90
        2
176
     1
 62
     7
176
     1
 90
        5
176
     1
 90
        0
176
     1
 90
        0
176
     1
290
     0
176
     1
 90
        1
176
     1
 40
0.0
176
     1
 90
        0
176
     1
290
     0
176
     1
290
     1
176
     1
290
     1
176
     1
290
     0
176
     1
290
     0
176
     1
290
     0
176
     1
290
     0
176
     1
290
     0
176
     1
290
     0
176
     1
 90
       50
176
     1
 40
0.0
176
     1
 40
1.0
176
     1
 90
        0
176
     1
 62
    18
420
        0
176
     1
 90
       50
176
     1
 90
        3
176
     1
 62
     5
420
      255
176
     1
290
     0
176
     1
 90
       50
176
     1
 90
       50
176
     1
 90
       50
176
     1
290
     0
176
     1
 90
       50
176
     1
 62
   256
176
     0
 40
1.0
176
     0
 90
        2
176
     1
  1
strokes_ogs.tif
176
     1
290
     0
176
     1
 40
1.0
176
     1
 40
1.0
176
     1
  0
VISUALSTYLE
  5
9E
102
{ACAD_REACTORS
330
99
102
}
330
99
100
AcDbVisualStyle
  2
Basic
 70
     7
177
     3
291
     1
 70
    58
 90
        1
176
     1
 90
        0
176
     1
 90
        1
176
     1
 90
        0
176
     1
 40
-0.6
176
     1
 40
-30.0
176
     1
 62
     7
420
 16777215
176
     1
 90
        0
176
     1
 90
        4
176
     1
 62
     7
176
     1
 62
   257
176
     1
 90
        1
176
     1
 90
        1
176
     1
 40
1.0
176
     1
 90
        8
176
     1
 62
     7
176
     1
 40
1.0
176
     1
 90
        1
176
     1
 90
        6
176
     1
 90
        2
176
     1
 62
     7
176
     1
 90
        5
176
     1
 90
        0
176
     1
 90
        0
176
     1
290
     0
176
     1
 90
        1
176
     1
 40
0.0
176
     1
 90
        0
176
     1
290
     0
176
     1
290
     1
176
     1
290
     1
176
     1
290
     0
176
     1
290
     0
176
     1
290
     0
176
     1
290
     0
176
     1
290
     0
176
     1
290
     0
176
     1
 90
       50
176
     1
 40
0.0
176
     1
 40
1.0
176
     1
 90
        0
176
     1
 62
    18
420
        0
176
     1
 90
       50
176
     1
 90
        3
176
     1
 62
     5
420
      255
176
     1
290
     0
176
     1
 90
       50
176
     1
 90
       50
176
     1
 90
       50
176
     1
290
     0
176
     1
 90
       50
176
     1
 62
   256
176
     0
 40
1.0
176
     0
 90
        2
176
     1
  1
strokes_ogs.tif
176
     1
290
     0
176
     1
 40
1.0
176
     1
 40
1.0
176
     1
  0
VISUALSTYLE
  5
A5
102
{ACAD_REACTORS
330
99
102
}
330
99
100
AcDbVisualStyle
  2
Brighten
 70
    12
177
     3
291
     1
 70
    58
 90
        2
176
     1
 90
        2
176
     1
 90
        1
176
     1
 90
        0
176
     1
 40
-0.6
176
     1
 40
-30.0
176
     1
 62
     7
420
 16777215
176
     1
 90
        1
176
     1
 90
        4
176
     1
 62
     7
176
     1
 62
   257
176
     1
 90
        1
176
     1
 90
        1
176
     1
 40
1.0
176
     1
 90
        8
176
     1
 62
     7
176
     1
 40
1.0
176
     1
 90
        1
176
     1
 90
        6
176
     1
 90
        2
176
     1
 62
     7
176
     1
 90
        5
176
     1
 90
        0
176
     1
 90
        0
176
     1
290
     0
176
     1
 90
        1
176
     1
 40
50.0
176
     1
 90
        0
176
     1
290
     0
176
     1
290
     1
176
     1
290
     1
176
     1
290
     0
176
     1
290
     0
176
     1
290
     0
176
     1
290
     0
176
     1
290
     0
176
     1
290
     0
176
     1
 90
       50
176
     1
 40
0.0
176
     1
 40
1.0
176
     1
 90
        0
176
     1
 62
    18
420
        0
176
     1
 90
       50
176
     1
 90
        3
176
     1
 62
     5
420
      255
176
     1
290
     0
176
     1
 90
       50
176
     1
 90
       50
176
     1
 90
       50
176
     1
290
     0
176
     1
 90
       50
176
     1
 62
   256
176
     0
 40
1.0
176
     0
 90
        2
176
     1
  1
strokes_ogs.tif
176
     1
290
     0
176
     1
 40
1.0
176
     1
 40
1.0
176
     1
  0
VISUALSTYLE
  5
A9
102
{ACAD_REACTORS
330
99
102
}
330
99
100
AcDbVisualStyle
  2
ColorChange
 70
    16
177
     3
291
     1
 70
    58
 90
        2
176
     1
 90
        2
176
     1
 90
        3
176
     1
 90
        0
176
     1
 40
-0.6
176
     1
 40
-30.0
176
     1
 62
     8
420
  8421504
176
     1
 90
        1
176
     1
 90
        4
176
     1
 62
     7
176
     1
 62
   257
176
     1
 90
        1
176
     1
 90
        1
176
     1
 40
1.0
176
     1
 90
        8
176
     1
 62
     8
420
  8421504
176
     1
 40
1.0
176
     1
 90
        1
176
     1
 90
        6
176
     1
 90
        2
176
     1
 62
     7
176
     1
 90
        5
176
     1
 90
        0
176
     1
 90
        0
176
     1
290
     0
176
     1
 90
        1
176
     1
 40
0.0
176
     1
 90
        0
176
     1
290
     0
176
     1
290
     1
176
     1
290
     1
176
     1
290
     0
176
     1
290
     0
176
     1
290
     0
176
     1
290
     0
176
     1
290
     0
176
     1
290
     0
176
     1
 90
       50
176
     1
 40
0.0
176
     1
 40
1.0
176
     1
 90
        0
176
     1
 62
    18
420
        0
176
     1
 90
       50
176
     1
 90
        3
176
     1
 62
     5
420
      255
176
     1
290
     0
176
     1
 90
       50
176
     1
 90
       50
176
     1
 90
       50
176
     1
290
     0
176
     1
 90
       50
176
     1
 62
   256
176
     0
 40
1.0
176
     0
 90
        2
176
     1
  1
strokes_ogs.tif
176
     1
290
     0
176
     1
 40
1.0
176
     1
 40
1.0
176
     1
  0
VISUALSTYLE
  5
A2
102
{ACAD_REACTORS
330
99
102
}
330
99
100
AcDbVisualStyle
  2
Conceptual
 70
     9
177
     3
291
     0
 70
    58
 90
        3
176
     1
 90
        2
176
     1
 90
        1
176
     1
 90
        0
176
     1
 40
-0.6
176
     1
 40
-30.0
176
     1
 62
     7
420
 16777215
176
     1
 90
        2
176
     1
 90
        2
176
     1
 62
     7
176
     1
 62
   257
176
     1
 90
        1
176
     1
 90
        1
176
     1
 40
40.0
176
     1
 90
        8
176
     1
 62
     7
176
     1
 40
1.0
176
     1
 90
        1
176
     1
 90
        6
176
     1
 90
        2
176
     1
 62
     7
176
     1
 90
        3
176
     1
 90
        0
176
     1
 90
        0
176
     1
290
     0
176
     1
 90
        1
176
     1
 40
0.0
176
     1
 90
        0
176
     1
290
     0
176
     1
290
     1
176
     1
290
     1
176
     1
290
     0
176
     1
290
     0
176
     1
290
     0
176
     1
290
     0
176
     1
290
     0
176
     1
290
     0
176
     1
 90
       50
176
     1
 40
0.0
176
     1
 40
1.0
176
     1
 90
        0
176
     1
 62
    18
420
        0
176
     1
 90
       50
176
     1
 90
        3
176
     1
 62
     5
420
      255
176
     1
290
     0
176
     1
 90
       50
176
     1
 90
       50
176
     1
 90
       50
176
     1
290
     0
176
     1
 90
       50
176
     1
 62
   256
176
     0
 40
1.0
176
     0
 90
        2
176
     1
  1
strokes_ogs.tif
176
     1
290
     0
176
     1
 40
1.0
176
     1
 40
1.0
176
     1
  0
VISUALSTYLE
  5
A4
102
{ACAD_REACTORS
330
99
102
}
330
99
100
AcDbVisualStyle
  2
Dim
 70
    11
177
     3
291
     1
 70
    58
 90
        2
176
     1
 90
        2
176
     1
 90
        1
176
     1
 90
        0
176
     1
 40
-0.6
176
     1
 40
-30.0
176
     1
 62
     7
420
 16777215
176
     1
 90
        1
176
     1
 90
        4
176
     1
 62
     7
176
     1
 62
   257
176
     1
 90
        1
176
     1
 90
        1
176
     1
 40
1.0
176
     1
 90
        8
176
     1
 62
     7
176
     1
 40
1.0
176
     1
 90
        1
176
     1
 90
        6
176
     1
 90
        2
176
     1
 62
     7
176
     1
 90
        5
176
     1
 90
        0
176
     1
 90
        0
176
     1
290
     0
176
     1
 90
        1
176
     1
 40
-50.0
176
     1
 90
        0
176
     1
290
     0
176
     1
290
     1
176
     1
290
     1
176
     1
290
     0
176
     1
290
     0
176
     1
290
     0
176
     1
290
     0
176
     1
290
     0
176
     1
290
     0
176
     1
 90
       50
176
     1
 40
0.0
176
     1
 40
1.0
176
     1
 90
        0
176
     1
 62
    18
420
        0
176
     1
 90
       50
176
     1
 90
        3
176
     1
 62
     5
420
      255
176
     1
290
     0
176
     1
 90
       50
176
     1
 90
       50
176
     1
 90
       50
176
     1
290
     0
176
     1
 90
       50
176
     1
 62
   256
176
     0
 40
1.0
176
     0
 90
        2
176
     1
  1
strokes_ogs.tif
176
     1
290
     0
176
     1
 40
1.0
176
     1
 40
1.0
176
     1
  0
VISUALSTYLE
  5
E7
102
{ACAD_REACTORS
330
99
102
}
330
99
100
AcDbVisualStyle
  2
EdgeColorOff
 70
    22
177
     3
291
     1
 70
    58
 90
        2
176
     0
 90
        2
176
     0
 90
        0
176
     0
 90
        0
176
     0
 40
0.6
176
     0
 40
30.0
176
     0
 62
     7
420
 16777215
176
     0
 90
        1
176
     0
 90
        4
176
     0
 62
     7
176
     0
 62
   257
176
     0
 90
        1
176
     0
 90
        1
176
     0
 40
1.0
176
     0
 90
        8
176
     2
 62
     7
176
     0
 40
1.0
176
     0
 90
        1
176
     0
 90
        6
176
     0
 90
        2
176
     0
 62
     7
176
     0
 90
        5
176
     0
 90
        0
176
     0
 90
        0
176
     0
290
     0
176
     0
 90
        1
176
     0
 40
0.0
176
     0
 90
        0
176
     0
290
     0
176
     0
290
     1
176
     0
290
     1
176
     0
290
     0
176
     0
290
     0
176
     0
290
     0
176
     0
290
     0
176
     0
290
     0
176
     0
290
     0
176
     0
 90
       50
176
     0
 40
0.0
176
     0
 40
1.0
176
     0
 90
        0
176
     0
 62
    18
420
        0
176
     0
 90
       50
176
     0
 90
        3
176
     0
 62
     5
420
      255
176
     0
290
     0
176
     0
 90
       50
176
     0
 90
       50
176
     0
 90
       50
176
     0
290
     0
176
     0
 90
       50
176
     0
 62
   256
176
     0
 40
1.0
176
     0
 90
        2
176
     0
  1
strokes_ogs.tif
176
     0
290
     0
176
     0
 40
1.0
176
     0
 40
1.0
176
     0
  0
VISUALSTYLE
  5
A8
102
{ACAD_REACTORS
330
99
102
}
330
99
100
AcDbVisualStyle
  2
Facepattern
 70
    15
177
     3
291
     1
 70
    58
 90
        2
176
     1
 90
        2
176
     1
 90
        1
176
     1
 90
        0
176
     1
 40
-0.6
176
     1
 40
-30.0
176
     1
 62
     7
420
 16777215
176
     1
 90
        1
176
     1
 90
        4
176
     1
 62
     7
176
     1
 62
   257
176
     1
 90
        1
176
     1
 90
        1
176
     1
 40
1.0
176
     1
 90
        8
176
     1
 62
     7
176
     1
 40
1.0
176
     1
 90
        1
176
     1
 90
        6
176
     1
 90
        2
176
     1
 62
     7
176
     1
 90
        5
176
     1
 90
        0
176
     1
 90
        0
176
     1
290
     0
176
     1
 90
        1
176
     1
 40
0.0
176
     1
 90
        0
176
     1
290
     0
176
     1
290
     1
176
     1
290
     1
176
     1
290
     0
176
     1
290
     0
176
     1
290
     0
176
     1
290
     0
176
     1
290
     0
176
     1
290
     0
176
     1
 90
       50
176
     1
 40
0.0
176
     1
 40
1.0
176
     1
 90
        0
176
     1
 62
    18
420
        0
176
     1
 90
       50
176
     1
 90
        3
176
     1
 62
     5
420
      255
176
     1
290
     0
176
     1
 90
       50
176
     1
 90
       50
176
     1
 90
       50
176
     1
290
     0
176
     1
 90
       50
176
     1
 62
   256
176
     0
 40
1.0
176
     0
 90
        2
176
     1
  1
strokes_ogs.tif
176
     1
290
     0
176
     1
 40
1.0
176
     1
 40
1.0
176
     1
  0
VISUALSTYLE
  5
9A
102
{ACAD_REACTORS
330
99
102
}
330
99
100
AcDbVisualStyle
  2
Flat
 70
     0
177
     3
291
     1
 70
    58
 90
        2
176
     1
 90
        1
176
     1
 90
        1
176
     1
 90
        2
176
     1
 40
-0.6
176
     1
 40
30.0
176
     1
 62
     7
420
 16777215
176
     1
 90
        0
176
     1
 90
        4
176
     1
 62
     7
176
     1
 62
   257
176
     1
 90
        1
176
     1
 90
        1
176
     1
 40
1.0
176
     1
 90
        8
176
     1
 62
     7
176
     1
 40
1.0
176
     1
 90
        1
176
     1
 90
        6
176
     1
 90
        2
176
     1
 62
     7
176
     1
 90
        5
176
     1
 90
        0
176
     1
 90
        0
176
     1
290
     0
176
     1
 90
        1
176
     1
 40
0.0
176
     1
 90
        0
176
     1
290
     0
176
     1
290
     1
176
     1
290
     1
176
     1
290
     0
176
     1
290
     0
176
     1
290
     0
176
     1
290
     0
176
     1
290
     0
176
     1
290
     0
176
     1
 90
       50
176
     1
 40
0.0
176
     1
 40
1.0
176
     1
 90
        0
176
     1
 62
    18
420
        0
176
     1
 90
       50
176
     1
 90
        3
176
     1
 62
     5
420
      255
176
     1
290
     0
176
     1
 90
       50
176
     1
 90
       50
176
     1
 90
       50
176
     1
290
     0
176
     1
 90
       50
176
     1
 62
   256
176
     0
 40
1.0
176
     0
 90
        2
176
     1
  1
strokes_ogs.tif
176
     1
290
     0
176
     1
 40
1.0
176
     1
 40
1.0
176
     1
  0
VISUALSTYLE
  5
9B
102
{ACAD_REACTORS
330
99
102
}
330
99
100
AcDbVisualStyle
  2
FlatWithEdges
 70
     1
177
     3
291
     1
 70
    58
 90
        2
176
     1
 90
        1
176
     1
 90
        1
176
     1
 90
        2
176
     1
 40
-0.6
176
     1
 40
30.0
176
     1
 62
     7
420
 16777215
176
     1
 90
        1
176
     1
 90
        4
176
     1
 62
     7
176
     1
 62
   257
176
     1
 90
        1
176
     1
 90
        1
176
     1
 40
1.0
176
     1
 90
        0
176
     1
 62
   257
176
     1
 40
1.0
176
     1
 90
        1
176
     1
 90
        6
176
     1
 90
        2
176
     1
 62
     7
176
     1
 90
        5
176
     1
 90
        0
176
     1
 90
        0
176
     1
290
     0
176
     1
 90
        1
176
     1
 40
0.0
176
     1
 90
        0
176
     1
290
     0
176
     1
290
     1
176
     1
290
     1
176
     1
290
     0
176
     1
290
     0
176
     1
290
     0
176
     1
290
     0
176
     1
290
     0
176
     1
290
     0
176
     1
 90
       50
176
     1
 40
0.0
176
     1
 40
1.0
176
     1
 90
        0
176
     1
 62
    18
420
        0
176
     1
 90
       50
176
     1
 90
        3
176
     1
 62
     5
420
      255
176
     1
290
     0
176
     1
 90
       50
176
     1
 90
       50
176
     1
 90
       50
176
     1
290
     0
176
     1
 90
       50
176
     1
 62
   256
176
     0
 40
1.0
176
     0
 90
        2
176
     1
  1
strokes_ogs.tif
176
     1
290
     0
176
     1
 40
1.0
176
     1
 40
1.0
176
     1
  0
VISUALSTYLE
  5
9C
102
{ACAD_REACTORS
330
99
102
}
330
99
100
AcDbVisualStyle
  2
Gouraud
 70
     2
177
     3
291
     1
 70
    58
 90
        2
176
     1
 90
        2
176
     1
 90
        1
176
     1
 90
        2
176
     1
 40
-0.6
176
     1
 40
30.0
176
     1
 62
     7
420
 16777215
176
     1
 90
        0
176
     1
 90
        4
176
     1
 62
     7
176
     1
 62
   257
176
     1
 90
        1
176
     1
 90
        1
176
     1
 40
1.0
176
     1
 90
        0
176
     1
 62
     7
176
     1
 40
1.0
176
     1
 90
        1
176
     1
 90
        6
176
     1
 90
        2
176
     1
 62
     7
176
     1
 90
        5
176
     1
 90
        0
176
     1
 90
        0
176
     1
290
     0
176
     1
 90
        1
176
     1
 40
0.0
176
     1
 90
        0
176
     1
290
     0
176
     1
290
     1
176
     1
290
     1
176
     1
290
     0
176
     1
290
     0
176
     1
290
     0
176
     1
290
     0
176
     1
290
     0
176
     1
290
     0
176
     1
 90
       50
176
     1
 40
0.0
176
     1
 40
1.0
176
     1
 90
        0
176
     1
 62
    18
420
        0
176
     1
 90
       50
176
     1
 90
        3
176
     1
 62
     5
420
      255
176
     1
290
     0
176
     1
 90
       50
176
     1
 90
       50
176
     1
 90
       50
176
     1
290
     0
176
     1
 90
       50
176
     1
 62
   256
176
     0
 40
1.0
176
     0
 90
        2
176
     1
  1
strokes_ogs.tif
176
     1
290
     0
176
     1
 40
1.0
176
     1
 40
1.0
176
     1
  0
VISUALSTYLE
  5
9D
102
{ACAD_REACTORS
330
99
102
}
330
99
100
AcDbVisualStyle
  2
GouraudWithEdges
 70
     3
177
     3
291
     1
 70
    58
 90
        2
176
     1
 90
        2
176
     1
 90
        1
176
     1
 90
        2
176
     1
 40
-0.6
176
     1
 40
30.0
176
     1
 62
     7
420
 16777215
176
     1
 90
        1
176
     1
 90
        4
176
     1
 62
     7
176
     1
 62
   257
176
     1
 90
        1
176
     1
 90
        1
176
     1
 40
1.0
176
     1
 90
        0
176
     1
 62
   257
176
     1
 40
1.0
176
     1
 90
        1
176
     1
 90
        6
176
     1
 90
        2
176
     1
 62
     7
176
     1
 90
        5
176
     1
 90
        0
176
     1
 90
        0
176
     1
290
     0
176
     1
 90
        1
176
     1
 40
0.0
176
     1
 90
        0
176
     1
290
     0
176
     1
290
     1
176
     1
290
     1
176
     1
290
     0
176
     1
290
     0
176
     1
290
     0
176
     1
290
     0
176
     1
290
     0
176
     1
290
     0
176
     1
 90
       50
176
     1
 40
0.0
176
     1
 40
1.0
176
     1
 90
        0
176
     1
 62
    18
420
        0
176
     1
 90
       50
176
     1
 90
        3
176
     1
 62
     5
420
      255
176
     1
290
     0
176
     1
 90
       50
176
     1
 90
       50
176
     1
 90
       50
176
     1
290
     0
176
     1
 90
       50
176
     1
 62
   256
176
     0
 40
1.0
176
     0
 90
        2
176
     1
  1
strokes_ogs.tif
176
     1
290
     0
176
     1
 40
1.0
176
     1
 40
1.0
176
     1
  0
VISUALSTYLE
  5
E4
102
{ACAD_REACTORS
330
99
102
}
330
99
100
AcDbVisualStyle
  2
Hidden
 70
     6
177
     3
291
     0
 70
    58
 90
        1
176
     1
 90
        2
176
     1
 90
        2
176
     1
 90
        0
176
     1
 40
0.6
176
     1
 40
30.0
176
     1
 62
     7
420
 16777215
176
     1
 90
        2
176
     1
 90
        2
176
     1
 62
     7
176
     1
 62
   257
176
     1
 90
        2
176
     1
 90
        1
176
     1
 40
40.0
176
     1
 90
        0
176
     1
 62
   257
176
     1
 40
1.0
176
     1
 90
        1
176
     1
 90
        6
176
     1
 90
        2
176
     1
 62
     7
176
     1
 90
        3
176
     1
 90
        0
176
     1
 90
        0
176
     1
290
     0
176
     1
 90
        1
176
     1
 40
0.0
176
     1
 90
        0
176
     1
290
     0
176
     1
290
     1
176
     1
290
     1
176
     1
290
     0
176
     1
290
     0
176
     1
290
     0
176
     1
290
     0
176
     1
290
     0
176
     1
290
     0
176
     1
 90
       50
176
     1
 40
0.0
176
     1
 40
1.0
176
     1
 90
        0
176
     1
 62
    18
420
        0
176
     1
 90
       50
176
     1
 90
        3
176
     1
 62
     5
420
      255
176
     1
290
     0
176
     1
 90
       50
176
     1
 90
       50
176
     1
 90
       50
176
     1
290
     0
176
     1
 90
       50
176
     1
 62
   256
176
     0
 40
1.0
176
     0
 90
        2
176
     1
  1
strokes_ogs.tif
176
     1
290
     0
176
     1
 40
1.0
176
     1
 40
1.0
176
     1
  0
VISUALSTYLE
  5
E5
102
{ACAD_REACTORS
330
99
102
}
330
99
100
AcDbVisualStyle
  2
JitterOff
 70
    20
177
     3
291
     1
 70
    58
 90
        2
176
     0
 90
        2
176
     0
 90
        0
176
     0
 90
        0
176
     0
 40
0.6
176
     0
 40
30.0
176
     0
 62
     7
420
 16777215
176
     0
 90
        1
176
     0
 90
        4
176
     0
 62
     7
176
     0
 62
   257
176
     0
 90
        1
176
     0
 90
        1
176
     0
 40
1.0
176
     0
 90
       10
176
     2
 62
     7
176
     0
 40
1.0
176
     0
 90
        1
176
     0
 90
        6
176
     0
 90
        2
176
     0
 62
     7
176
     0
 90
        5
176
     0
 90
        0
176
     0
 90
        0
176
     0
290
     0
176
     0
 90
        1
176
     0
 40
0.0
176
     0
 90
        0
176
     0
290
     0
176
     0
290
     1
176
     0
290
     1
176
     0
290
     0
176
     0
290
     0
176
     0
290
     0
176
     0
290
     0
176
     0
290
     0
176
     0
290
     0
176
     0
 90
       50
176
     0
 40
0.0
176
     0
 40
1.0
176
     0
 90
        0
176
     0
 62
    18
420
        0
176
     0
 90
       50
176
     0
 90
        3
176
     0
 62
     5
420
      255
176
     0
290
     0
176
     0
 90
       50
176
     0
 90
       50
176
     0
 90
       50
176
     0
290
     0
176
     0
 90
       50
176
     0
 62
   256
176
     0
 40
1.0
176
     0
 90
        2
176
     0
  1
strokes_ogs.tif
176
     0
290
     0
176
     0
 40
1.0
176
     0
 40
1.0
176
     0
  0
VISUALSTYLE
  5
A7
102
{ACAD_REACTORS
330
99
102
}
330
99
100
AcDbVisualStyle
  2
Linepattern
 70
    14
177
     3
291
     1
 70
    58
 90
        2
176
     1
 90
        2
176
     1
 90
        1
176
     1
 90
        0
176
     1
 40
-0.6
176
     1
 40
-30.0
176
     1
 62
     7
420
 16777215
176
     1
 90
        1
176
     1
 90
        4
176
     1
 62
     7
176
     1
 62
   257
176
     1
 90
        7
176
     1
 90
        7
176
     1
 40
1.0
176
     1
 90
        8
176
     1
 62
     7
176
     1
 40
1.0
176
     1
 90
        1
176
     1
 90
        6
176
     1
 90
        2
176
     1
 62
     7
176
     1
 90
        5
176
     1
 90
        0
176
     1
 90
        0
176
     1
290
     0
176
     1
 90
        1
176
     1
 40
0.0
176
     1
 90
        0
176
     1
290
     0
176
     1
290
     1
176
     1
290
     1
176
     1
290
     0
176
     1
290
     0
176
     1
290
     0
176
     1
290
     0
176
     1
290
     0
176
     1
290
     0
176
     1
 90
       50
176
     1
 40
0.0
176
     1
 40
1.0
176
     1
 90
        0
176
     1
 62
    18
420
        0
176
     1
 90
       50
176
     1
 90
        3
176
     1
 62
     5
420
      255
176
     1
290
     0
176
     1
 90
       50
176
     1
 90
       50
176
     1
 90
       50
176
     1
290
     0
176
     1
 90
       50
176
     1
 62
   256
176
     0
 40
1.0
176
     0
 90
        2
176
     1
  1
strokes_ogs.tif
176
     1
290
     0
176
     1
 40
1.0
176
     1
 40
1.0
176
     1
  0
VISUALSTYLE
  5
E6
102
{ACAD_REACTORS
330
99
102
}
330
99
100
AcDbVisualStyle
  2
OverhangOff
 70
    21
177
     3
291
     1
 70
    58
 90
        2
176
     0
 90
        2
176
     0
 90
        0
176
     0
 90
        0
176
     0
 40
0.6
176
     0
 40
30.0
176
     0
 62
     7
420
 16777215
176
     0
 90
        1
176
     0
 90
        4
176
     0
 62
     7
176
     0
 62
   257
176
     0
 90
        1
176
     0
 90
        1
176
     0
 40
1.0
176
     0
 90
        9
176
     2
 62
     7
176
     0
 40
1.0
176
     0
 90
        1
176
     0
 90
        6
176
     0
 90
        2
176
     0
 62
     7
176
     0
 90
        5
176
     0
 90
        0
176
     0
 90
        0
176
     0
290
     0
176
     0
 90
        1
176
     0
 40
0.0
176
     0
 90
        0
176
     0
290
     0
176
     0
290
     1
176
     0
290
     1
176
     0
290
     0
176
     0
290
     0
176
     0
290
     0
176
     0
290
     0
176
     0
290
     0
176
     0
290
     0
176
     0
 90
       50
176
     0
 40
0.0
176
     0
 40
1.0
176
     0
 90
        0
176
     0
 62
    18
420
        0
176
     0
 90
       50
176
     0
 90
        3
176
     0
 62
     5
420
      255
176
     0
290
     0
176
     0
 90
       50
176
     0
 90
       50
176
     0
 90
       50
176
     0
290
     0
176
     0
 90
       50
176
     0
 62
   256
176
     0
 40
1.0
176
     0
 90
        2
176
     0
  1
strokes_ogs.tif
176
     0
290
     0
176
     0
 40
1.0
176
     0
 40
1.0
176
     0
  0
VISUALSTYLE
  5
A3
102
{ACAD_REACTORS
330
99
102
}
330
99
100
AcDbVisualStyle
  2
Realistic
 70
     8
177
     3
291
     0
 70
    58
 90
        2
176
     1
 90
        2
176
     1
 90
        1
176
     1
 90
        0
176
     1
 40
-0.6
176
     1
 40
-30.0
176
     1
 62
     7
420
 16777215
176
     1
 90
        1
176
     1
 90
        0
176
     1
 62
     7
176
     1
 62
   257
176
     1
 90
        1
176
     1
 90
        1
176
     1
 40
1.0
176
     1
 90
        8
176
     1
 62
     8
420
  7895160
176
     1
 40
1.0
176
     1
 90
        1
176
     1
 90
        6
176
     1
 90
        2
176
     1
 62
     7
176
     1
 90
        5
176
     1
 90
        0
176
     1
 90
        0
176
     1
290
     0
176
     1
 90
       13
176
     1
 40
0.0
176
     1
 90
        0
176
     1
290
     0
176
     1
290
     1
176
     1
290
     1
176
     1
290
     0
176
     1
290
     0
176
     1
290
     0
176
     1
290
     0
176
     1
290
     0
176
     1
290
     0
176
     1
 90
       50
176
     1
 40
0.0
176
     1
 40
1.0
176
     1
 90
        0
176
     1
 62
    18
420
        0
176
     1
 90
       50
176
     1
 90
        3
176
     1
 62
     5
420
      255
176
     1
290
     0
176
     1
 90
       50
176
     1
 90
       50
176
     1
 90
       50
176
     1
290
     0
176
     1
 90
       50
176
     1
 62
   256
176
     0
 40
1.0
176
     0
 90
        2
176
     1
  1
strokes_ogs.tif
176
     1
290
     0
176
     1
 40
1.0
176
     1
 40
1.0
176
     1
  0
VISUALSTYLE
  5
EC
102
{ACAD_REACTORS
330
99
102
}
330
99
100
AcDbVisualStyle
  2
Shaded
 70
    27
177
     3
291
     0
 70
    58
 90
        2
176
     1
 90
        2
176
     1
 90
        1
176
     1
 90
        2
176
     1
 40
0.6
176
     1
 40
30.0
176
     1
 62
     7
420
 16777215
176
     1
 90
        0
176
     1
 90
        4
176
     1
 62
     7
176
     1
 62
   257
176
     1
 90
        1
176
     1
 90
        1
176
     1
 40
1.0
176
     1
 90
        8
176
     1
 62
   257
176
     1
 40
1.0
176
     1
 90
        1
176
     1
 90
        6
176
     1
 90
        2
176
     1
 62
     8
420
  7895160
176
     1
 90
        3
176
     1
 90
        0
176
     1
 90
        0
176
     1
290
     0
176
     1
 90
        5
176
     1
 40
0.0
176
     1
 90
        0
176
     1
290
     0
176
     1
290
     1
176
     1
290
     1
176
     1
290
     0
176
     1
290
     0
176
     1
290
     0
176
     1
290
     0
176
     1
290
     0
176
     1
290
     0
176
     1
 90
       50
176
     1
 40
0.0
176
     1
 40
1.0
176
     1
 90
        0
176
     1
 62
    18
420
        0
176
     1
 90
       50
176
     1
 90
        3
176
     1
 62
     5
420
      255
176
     1
290
     0
176
     1
 90
       50
176
     1
 90
       50
176
     1
 90
       50
176
     1
290
     0
176
     1
 90
       50
176
     1
 62
   256
176
     0
 40
1.0
176
     0
 90
        2
176
     1
  1
strokes_ogs.tif
176
     1
290
     0
176
     1
 40
1.0
176
     1
 40
1.0
176
     1
  0
VISUALSTYLE
  5
EB
102
{ACAD_REACTORS
330
99
102
}
330
99
100
AcDbVisualStyle
  2
Shaded with edges
 70
    26
177
     3
291
     0
 70
    58
 90
        2
176
     1
 90
        2
176
     1
 90
        1
176
     1
 90
        2
176
     1
 40
0.6
176
     1
 40
30.0
176
     1
 62
     7
420
 16777215
176
     1
 90
        1
176
     1
 90
       10
176
     1
 62
     7
176
     1
 62
   257
176
     1
 90
        2
176
     1
 90
        1
176
     1
 40
1.0
176
     1
 90
        8
176
     1
 62
   257
176
     1
 40
1.0
176
     1
 90
        1
176
     1
 90
        6
176
     1
 90
        2
176
     1
 62
     7
176
     1
 90
        3
176
     1
 90
        0
176
     1
 90
        0
176
     1
290
     0
176
     1
 90
        5
176
     1
 40
0.0
176
     1
 90
        0
176
     1
290
     0
176
     1
290
     1
176
     1
290
     1
176
     1
290
     0
176
     1
290
     0
176
     1
290
     0
176
     1
290
     0
176
     1
290
     0
176
     1
290
     0
176
     1
 90
       50
176
     1
 40
0.0
176
     1
 40
1.0
176
     1
 90
        0
176
     1
 62
    18
420
        0
176
     1
 90
       50
176
     1
 90
        3
176
     1
 62
     5
420
      255
176
     1
290
     0
176
     1
 90
       50
176
     1
 90
       50
176
     1
 90
       50
176
     1
290
     0
176
     1
 90
       50
176
     1
 62
   256
176
     0
 40
1.0
176
     0
 90
        2
176
     1
  1
strokes_ogs.tif
176
     1
290
     0
176
     1
 40
1.0
176
     1
 40
1.0
176
     1
  0
VISUALSTYLE
  5
E8
102
{ACAD_REACTORS
330
99
102
}
330
99
100
AcDbVisualStyle
  2
Shades of Gray
 70
    23
177
     3
291
     0
 70
    58
 90
        2
176
     1
 90
        2
176
     1
 90
        3
176
     1
 90
        0
176
     1
 40
0.6
176
     1
 40
30.0
176
     1
 62
     7
420
 16777215
176
     1
 90
        2
176
     1
 90
        2
176
     1
 62
     7
176
     1
 62
     7
176
     1
 90
        1
176
     1
 90
        1
176
     1
 40
40.0
176
     1
 90
        8
176
     1
 62
     7
176
     1
 40
1.0
176
     1
 90
        1
176
     1
 90
        6
176
     1
 90
        2
176
     1
 62
     7
176
     1
 90
        3
176
     1
 90
        0
176
     1
 90
        0
176
     1
290
     0
176
     1
 90
        1
176
     1
 40
0.0
176
     1
 90
        0
176
     1
290
     0
176
     1
290
     1
176
     1
290
     1
176
     1
290
     0
176
     1
290
     0
176
     1
290
     0
176
     1
290
     0
176
     1
290
     0
176
     1
290
     0
176
     1
 90
       50
176
     1
 40
0.0
176
     1
 40
1.0
176
     1
 90
        0
176
     1
 62
    18
420
        0
176
     1
 90
       50
176
     1
 90
        3
176
     1
 62
     5
420
      255
176
     1
290
     0
176
     1
 90
       50
176
     1
 90
       50
176
     1
 90
       50
176
     1
290
     0
176
     1
 90
       50
176
     1
 62
   256
176
     0
 40
1.0
176
     0
 90
        2
176
     1
  1
strokes_ogs.tif
176
     1
290
     0
176
     1
 40
1.0
176
     1
 40
1.0
176
     1
  0
VISUALSTYLE
  5
E9
102
{ACAD_REACTORS
330
99
102
}
330
99
100
AcDbVisualStyle
  2
Sketchy
 70
    24
177
     3
291
     0
 70
    58
 90
        1
176
     1
 90
        2
176
     1
 90
        2
176
     1
 90
        0
176
     1
 40
0.6
176
     1
 40
30.0
176
     1
 62
     7
420
 16777215
176
     1
 90
        2
176
     1
 90
        2
176
     1
 62
     7
176
     1
 62
     7
176
     1
 90
        1
176
     1
 90
        1
176
     1
 40
40.0
176
     1
 90
       11
176
     1
 62
     7
176
     1
 40
1.0
176
     1
 90
        1
176
     1
 90
        6
176
     1
 90
        2
176
     1
 62
     7
176
     1
 90
        6
176
     1
 90
        0
176
     1
 90
        0
176
     1
290
     0
176
     1
 90
        1
176
     1
 40
0.0
176
     1
 90
        0
176
     1
290
     0
176
     1
290
     1
176
     1
290
     1
176
     1
290
     0
176
     1
290
     0
176
     1
290
     0
176
     1
290
     0
176
     1
290
     0
176
     1
290
     0
176
     1
 90
       50
176
     1
 40
0.0
176
     1
 40
1.0
176
     1
 90
        0
176
     1
 62
    18
420
        0
176
     1
 90
       50
176
     1
 90
        3
176
     1
 62
     5
420
      255
176
     1
290
     0
176
     1
 90
       50
176
     1
 90
       50
176
     1
 90
       50
176
     1
290
     0
176
     1
 90
       50
176
     1
 62
   256
176
     0
 40
1.0
176
     0
 90
        2
176
     1
  1
strokes_ogs.tif
176
     1
290
     0
176
     1
 40
1.0
176
     1
 40
1.0
176
     1
  0
VISUALSTYLE
  5
A6
102
{ACAD_REACTORS
330
99
102
}
330
99
100
AcDbVisualStyle
  2
Thicken
 70
    13
177
     3
291
     1
 70
    58
 90
        2
176
     1
 90
        2
176
     1
 90
        1
176
     1
 90
        0
176
     1
 40
-0.6
176
     1
 40
-30.0
176
     1
 62
     7
420
 16777215
176
     1
 90
        1
176
     1
 90
        4
176
     1
 62
     7
176
     1
 62
   257
176
     1
 90
        1
176
     1
 90
        1
176
     1
 40
1.0
176
     1
 90
       12
176
     1
 62
     7
176
     1
 40
1.0
176
     1
 90
        1
176
     1
 90
        6
176
     1
 90
        2
176
     1
 62
     7
176
     1
 90
        5
176
     1
 90
        0
176
     1
 90
        0
176
     1
290
     0
176
     1
 90
        1
176
     1
 40
0.0
176
     1
 90
        0
176
     1
290
     0
176
     1
290
     1
176
     1
290
     1
176
     1
290
     0
176
     1
290
     0
176
     1
290
     0
176
     1
290
     0
176
     1
290
     0
176
     1
290
     0
176
     1
 90
       50
176
     1
 40
0.0
176
     1
 40
1.0
176
     1
 90
        0
176
     1
 62
    18
420
        0
176
     1
 90
       50
176
     1
 90
        3
176
     1
 62
     5
420
      255
176
     1
290
     0
176
     1
 90
       50
176
     1
 90
       50
176
     1
 90
       50
176
     1
290
     0
176
     1
 90
       50
176
     1
 62
   256
176
     0
 40
1.0
176
     0
 90
        2
176
     1
  1
strokes_ogs.tif
176
     1
290
     0
176
     1
 40
1.0
176
     1
 40
1.0
176
     1
  0
VISUALSTYLE
  5
E3
102
{ACAD_REACTORS
330
99
102
}
330
99
100
AcDbVisualStyle
  2
Wireframe
 70
     5
177
     3
291
     0
 70
    58
 90
        0
176
     1
 90
        2
176
     1
 90
        0
176
     1
 90
        0
176
     1
 40
0.6
176
     1
 40
30.0
176
     1
 62
     7
420
 16777215
176
     1
 90
        1
176
     1
 90
        4
176
     1
 62
     7
176
     1
 62
   257
176
     1
 90
        1
176
     1
 90
        1
176
     1
 40
1.0
176
     1
 90
        0
176
     1
 62
   257
176
     1
 40
1.0
176
     1
 90
        1
176
     1
 90
        6
176
     1
 90
        2
176
     1
 62
     7
176
     1
 90
        3
176
     1
 90
        0
176
     1
 90
        0
176
     1
290
     0
176
     1
 90
        1
176
     1
 40
0.0
176
     1
 90
        0
176
     1
290
     0
176
     1
290
     1
176
     1
290
     1
176
     1
290
     0
176
     1
290
     0
176
     1
290
     0
176
     1
290
     0
176
     1
290
     0
176
     1
290
     0
176
     1
 90
       50
176
     1
 40
0.0
176
     1
 40
1.0
176
     1
 90
        0
176
     1
 62
    18
420
        0
176
     1
 90
       50
176
     1
 90
        3
176
     1
 62
     5
420
      255
176
     1
290
     0
176
     1
 90
       50
176
     1
 90
       50
176
     1
 90
       50
176
     1
290
     0
176
     1
 90
       50
176
     1
 62
   256
176
     0
 40
1.0
176
     0
 90
        2
176
     1
  1
strokes_ogs.tif
176
     1
290
     0
176
     1
 40
1.0
176
     1
 40
1.0
176
     1
  0
VISUALSTYLE
  5
EA
102
{ACAD_REACTORS
330
99
102
}
330
99
100
AcDbVisualStyle
  2
X-Ray
 70
    25
177
     3
291
     0
 70
    58
 90
        2
176
     1
 90
        2
176
     1
 90
        1
176
     1
 90
        1
176
     1
 40
0.5
176
     1
 40
30.0
176
     1
 62
     7
420
 16777215
176
     1
 90
        1
176
     1
 90
        0
176
     1
 62
     7
176
     1
 62
   257
176
     1
 90
        1
176
     1
 90
        1
176
     1
 40
1.0
176
     1
 90
        8
176
     1
 62
     7
176
     1
 40
1.0
176
     1
 90
        1
176
     1
 90
        6
176
     1
 90
        2
176
     1
 62
     7
176
     1
 90
        3
176
     1
 90
        0
176
     1
 90
        0
176
     1
290
     0
176
     1
 90
       13
176
     1
 40
0.0
176
     1
 90
        0
176
     1
290
     0
176
     1
290
     1
176
     1
290
     1
176
     1
290
     0
176
     1
290
     0
176
     1
290
     0
176
     1
290
     0
176
     1
290
     0
176
     1
290
     0
176
     1
 90
       50
176
     1
 40
0.0
176
     1
 40
1.0
176
     1
 90
        0
176
     1
 62
    18
420
        0
176
     1
 90
       50
176
     1
 90
        3
176
     1
 62
     5
420
      255
176
     1
290
     0
176
     1
 90
       50
176
     1
 90
       50
176
     1
 90
       50
176
     1
290
     0
176
     1
 90
       50
176
     1
 62
   256
176
     0
 40
1.0
176
     0
 90
        2
176
     1
  1
strokes_ogs.tif
176
     1
290
     0
176
     1
 40
1.0
176
     1
 40
1.0
176
     1
  0
DICTIONARYVAR
  5
D8
102
{ACAD_REACTORS
330
66
102
}
330
66
100
DictionaryVariables
280
     0
  1
1:1
  0
DICTIONARYVAR
  5
89
102
{ACAD_REACTORS
330
66
102
}
330
66
100
DictionaryVariables
280
     0
  1
Standard
  0
DICTIONARYVAR
  5
67
102
{ACAD_REACTORS
330
66
102
}
330
66
100
DictionaryVariables
280
     0
  1
2
  0
DICTIONARYVAR
  5
6B
102
{ACAD_REACTORS
330
66
102
}
330
66
100
DictionaryVariables
280
     0
  1
1
  0
DICTIONARYVAR
  5
DF
102
{ACAD_REACTORS
330
66
102
}
330
66
100
DictionaryVariables
280
     0
  1
0
  0
DICTIONARYVAR
  5
E0
102
{ACAD_REACTORS
330
66
102
}
330
66
100
DictionaryVariables
280
     0
  1
0
  0
DICTIONARY
  5
508
330
87
100
AcDbDictionary
280
     1
281
     1
  3
ACAD_ROUNDTRIP_2008_TABLESTYLE_CELLSTYLEMAP
360
509
  0
CELLSTYLEMAP
  5
509
102
{ACAD_REACTORS
330
508
102
}
330
508
100
AcDbCellStyleMap
 90
        3
300
CELLSTYLE
  1
TABLEFORMAT_BEGIN
 90
        5
170
     1
 91
        0
 92
    32768
 62
   257
 93
        1
300
CONTENTFORMAT
  1
CONTENTFORMAT_BEGIN
 90
        0
 91
        0
 92
      512
 93
        0
300

 40
0.0
140
1.0
 94
        5
 62
     0
340
11
144
0.25
309
CONTENTFORMAT_END
171
     0
 94
        6
 95
        1
302
GRIDFORMAT
  1
GRIDFORMAT_BEGIN
 90
        0
 91
        1
 62
     0
 92
       -2
340
0
 93
        0
 40
0.045
309
GRIDFORMAT_END
 95
        2
302
GRIDFORMAT
  1
GRIDFORMAT_BEGIN
 90
        0
 91
        1
 62
     0
 92
       -2
340
0
 93
        0
 40
0.045
309
GRIDFORMAT_END
 95
        4
302
GRIDFORMAT
  1
GRIDFORMAT_BEGIN
 90
        0
 91
        1
 62
     0
 92
       -2
340
0
 93
        0
 40
0.045
309
GRIDFORMAT_END
 95
        8
302
GRIDFORMAT
  1
GRIDFORMAT_BEGIN
 90
        0
 91
        1
 62
     0
 92
       -2
340
0
 93
        0
 40
0.045
309
GRIDFORMAT_END
 95
       16
302
GRIDFORMAT
  1
GRIDFORMAT_BEGIN
 90
        0
 91
        1
 62
     0
 92
       -2
340
0
 93
        0
 40
0.045
309
GRIDFORMAT_END
 95
       32
302
GRIDFORMAT
  1
GRIDFORMAT_BEGIN
 90
        0
 91
        1
 62
     0
 92
       -2
340
0
 93
        0
 40
0.045
309
GRIDFORMAT_END
309
TABLEFORMAT_END
  1
CELLSTYLE_BEGIN
 90
        1
 91
        1
300
_TITLE
309
CELLSTYLE_END
300
CELLSTYLE
  1
TABLEFORMAT_BEGIN
 90
        5
170
     1
 91
        0
 92
        0
 62
   257
 93
        1
300
CONTENTFORMAT
  1
CONTENTFORMAT_BEGIN
 90
        0
 91
        0
 92
      512
 93
        0
300

 40
0.0
140
1.0
 94
        5
 62
     0
340
11
144
0.18
309
CONTENTFORMAT_END
171
     0
 94
        6
 95
        1
302
GRIDFORMAT
  1
GRIDFORMAT_BEGIN
 90
        0
 91
        1
 62
     0
 92
       -2
340
0
 93
        0
 40
0.045
309
GRIDFORMAT_END
 95
        2
302
GRIDFORMAT
  1
GRIDFORMAT_BEGIN
 90
        0
 91
        1
 62
     0
 92
       -2
340
0
 93
        0
 40
0.045
309
GRIDFORMAT_END
 95
        4
302
GRIDFORMAT
  1
GRIDFORMAT_BEGIN
 90
        0
 91
        1
 62
     0
 92
       -2
340
0
 93
        0
 40
0.045
309
GRIDFORMAT_END
 95
        8
302
GRIDFORMAT
  1
GRIDFORMAT_BEGIN
 90
        0
 91
        1
 62
     0
 92
       -2
340
0
 93
        0
 40
0.045
309
GRIDFORMAT_END
 95
       16
302
GRIDFORMAT
  1
GRIDFORMAT_BEGIN
 90
        0
 91
        1
 62
     0
 92
       -2
340
0
 93
        0
 40
0.045
309
GRIDFORMAT_END
 95
       32
302
GRIDFORMAT
  1
GRIDFORMAT_BEGIN
 90
        0
 91
        1
 62
     0
 92
       -2
340
0
 93
        0
 40
0.045
309
GRIDFORMAT_END
309
TABLEFORMAT_END
  1
CELLSTYLE_BEGIN
 90
        2
 91
        1
300
_HEADER
309
CELLSTYLE_END
300
CELLSTYLE
  1
TABLEFORMAT_BEGIN
 90
        5
170
     1
 91
        0
 92
        0
 62
   257
 93
        1
300
CONTENTFORMAT
  1
CONTENTFORMAT_BEGIN
 90
        0
 91
        0
 92
      512
 93
        0
300

 40
0.0
140
1.0
 94
        2
 62
     0
340
11
144
0.18
309
CONTENTFORMAT_END
171
     0
 94
        6
 95
        1
302
GRIDFORMAT
  1
GRIDFORMAT_BEGIN
 90
        0
 91
        1
 62
     0
 92
       -2
340
0
 93
        0
 40
0.045
309
GRIDFORMAT_END
 95
        2
302
GRIDFORMAT
  1
GRIDFORMAT_BEGIN
 90
        0
 91
        1
 62
     0
 92
       -2
340
0
 93
        0
 40
0.045
309
GRIDFORMAT_END
 95
        4
302
GRIDFORMAT
  1
GRIDFORMAT_BEGIN
 90
        0
 91
        1
 62
     0
 92
       -2
340
0
 93
        0
 40
0.045
309
GRIDFORMAT_END
 95
        8
302
GRIDFORMAT
  1
GRIDFORMAT_BEGIN
 90
        0
 91
        1
 62
     0
 92
       -2
340
0
 93
        0
 40
0.045
309
GRIDFORMAT_END
 95
       16
302
GRIDFORMAT
  1
GRIDFORMAT_BEGIN
 90
        0
 91
        1
 62
     0
 92
       -2
340
0
 93
        0
 40
0.045
309
GRIDFORMAT_END
 95
       32
302
GRIDFORMAT
  1
GRIDFORMAT_BEGIN
 90
        0
 91
        1
 62
     0
 92
       -2
340
0
 93
        0
 40
0.045
309
GRIDFORMAT_END
309
TABLEFORMAT_END
  1
CELLSTYLE_BEGIN
 90
        3
 91
        2
300
_DATA
309
CELLSTYLE_END
  0
ENDSEC
  0
EOF
