  0
SECTION
  2
HEADER
  9
$ACADVER
  1
AC1027
  9
$ACADMAINTVER
 70
   105
  9
$DWGCODEPAGE
  3
ANSI_932
  9
$LASTSAVEDBY
  1
AKIHIROMURAKAMI
  9
$REQUIREDVERSIONS
160
                 0
  9
$INSBASE
 10
0.0
 20
0.0
 30
0.0
  9
$EXTMIN
 10
4.468976790465348
 20
26.90193281553368
 30
0.0
  9
$EXTMAX
 10
153.001478105763
 20
131.8780059877399
 30
0.0
  9
$LIMMIN
 10
0.0
 20
0.0
  9
$LIMMAX
 10
12.0
 20
9.0
  9
$ORTHOMODE
 70
     0
  9
$REGENMODE
 70
     1
  9
$FILLMODE
 70
     1
  9
$QTEXTMODE
 70
     0
  9
$MIRRTEXT
 70
     0
  9
$LTSCALE
 40
1.0
  9
$ATTMODE
 70
     1
  9
$TEXTSIZE
 40
0.2
  9
$TRACEWID
 40
0.05
  9
$TEXTSTYLE
  7
Standard
  9
$CLAYER
  8
0
  9
$CELTYPE
  6
ByLayer
  9
$CECOLOR
 62
   256
  9
$CELTSCALE
 40
1.0
  9
$DISPSILH
 70
     0
  9
$DIMSCALE
 40
1.0
  9
$DIMASZ
 40
0.18
  9
$DIMEXO
 40
0.0625
  9
$DIMDLI
 40
0.38
  9
$DIMRND
 40
0.0
  9
$DIMDLE
 40
0.0
  9
$DIMEXE
 40
0.18
  9
$DIMTP
 40
0.0
  9
$DIMTM
 40
0.0
  9
$DIMTXT
 40
0.18
  9
$DIMCEN
 40
0.09
  9
$DIMTSZ
 40
0.0
  9
$DIMTOL
 70
     0
  9
$DIMLIM
 70
     0
  9
$DIMTIH
 70
     1
  9
$DIMTOH
 70
     1
  9
$DIMSE1
 70
     0
  9
$DIMSE2
 70
     0
  9
$DIMTAD
 70
     0
  9
$DIMZIN
 70
     0
  9
$DIMBLK
  1

  9
$DIMASO
 70
     1
  9
$DIMSHO
 70
     1
  9
$DIMPOST
  1

  9
$DIMAPOST
  1

  9
$DIMALT
 70
     0
  9
$DIMALTD
 70
     2
  9
$DIMALTF
 40
25.4
  9
$DIMLFAC
 40
1.0
  9
$DIMTOFL
 70
     0
  9
$DIMTVP
 40
0.0
  9
$DIMTIX
 70
     0
  9
$DIMSOXD
 70
     0
  9
$DIMSAH
 70
     0
  9
$DIMBLK1
  1

  9
$DIMBLK2
  1

  9
$DIMSTYLE
  2
Standard
  9
$DIMCLRD
 70
     0
  9
$DIMCLRE
 70
     0
  9
$DIMCLRT
 70
     0
  9
$DIMTFAC
 40
1.0
  9
$DIMGAP
 40
0.09
  9
$DIMJUST
 70
     0
  9
$DIMSD1
 70
     0
  9
$DIMSD2
 70
     0
  9
$DIMTOLJ
 70
     1
  9
$DIMTZIN
 70
     0
  9
$DIMALTZ
 70
     0
  9
$DIMALTTZ
 70
     0
  9
$DIMUPT
 70
     0
  9
$DIMDEC
 70
     4
  9
$DIMTDEC
 70
     4
  9
$DIMALTU
 70
     2
  9
$DIMALTTD
 70
     2
  9
$DIMTXSTY
  7
Standard
  9
$DIMAUNIT
 70
     0
  9
$DIMADEC
 70
     0
  9
$DIMALTRND
 40
0.0
  9
$DIMAZIN
 70
     0
  9
$DIMDSEP
 70
    46
  9
$DIMATFIT
 70
     3
  9
$DIMFRAC
 70
     0
  9
$DIMLDRBLK
  1

  9
$DIMLUNIT
 70
     2
  9
$DIMLWD
 70
    -2
  9
$DIMLWE
 70
    -2
  9
$DIMTMOVE
 70
     0
  9
$DIMFXL
 40
1.0
  9
$DIMFXLON
 70
     0
  9
$DIMJOGANG
 40
0.7853981633974483
  9
$DIMTFILL
 70
     0
  9
$DIMTFILLCLR
 70
     0
  9
$DIMARCSYM
 70
     0
  9
$DIMLTYPE
  6

  9
$DIMLTEX1
  6

  9
$DIMLTEX2
  6

  9
$DIMTXTDIRECTION
 70
     0
  9
$LUNITS
 70
     2
  9
$LUPREC
 70
     4
  9
$SKETCHINC
 40
0.1
  9
$FILLETRAD
 40
0.0
  9
$AUNITS
 70
     0
  9
$AUPREC
 70
     0
  9
$MENU
  1
.
  9
$ELEVATION
 40
0.0
  9
$PELEVATION
 40
0.0
  9
$THICKNESS
 40
0.0
  9
$LIMCHECK
 70
     0
  9
$CHAMFERA
 40
0.0
  9
$CHAMFERB
 40
0.0
  9
$CHAMFERC
 40
0.0
  9
$CHAMFERD
 40
0.0
  9
$SKPOLY
 70
     0
  9
$TDCREATE
 40
2452643.438384271
  9
$TDUCREATE
 40
2452643.063384271
  9
$TDUPDATE
 40
2459566.717619224
  9
$TDUUPDATE
 40
2459566.342619224
  9
$TDINDWG
 40
0.0033323495
  9
$TDUSRTIMER
 40
0.0002134606
  9
$USRTIMER
 70
     1
  9
$ANGBASE
 50
0.0
  9
$ANGDIR
 70
     0
  9
$PDMODE
 70
     0
  9
$PDSIZE
 40
0.0
  9
$PLINEWID
 40
0.0
  9
$SPLFRAME
 70
     0
  9
$SPLINETYPE
 70
     6
  9
$SPLINESEGS
 70
     8
  9
$HANDSEED
  5
322
  9
$SURFTAB1
 70
     6
  9
$SURFTAB2
 70
     6
  9
$SURFTYPE
 70
     6
  9
$SURFU
 70
     6
  9
$SURFV
 70
     6
  9
$UCSBASE
  2

  9
$UCSNAME
  2

  9
$UCSORG
 10
0.0
 20
0.0
 30
0.0
  9
$UCSXDIR
 10
1.0
 20
0.0
 30
0.0
  9
$UCSYDIR
 10
0.0
 20
1.0
 30
0.0
  9
$UCSORTHOREF
  2

  9
$UCSORTHOVIEW
 70
     0
  9
$UCSORGTOP
 10
0.0
 20
0.0
 30
0.0
  9
$UCSORGBOTTOM
 10
0.0
 20
0.0
 30
0.0
  9
$UCSORGLEFT
 10
0.0
 20
0.0
 30
0.0
  9
$UCSORGRIGHT
 10
0.0
 20
0.0
 30
0.0
  9
$UCSORGFRONT
 10
0.0
 20
0.0
 30
0.0
  9
$UCSORGBACK
 10
0.0
 20
0.0
 30
0.0
  9
$PUCSBASE
  2

  9
$PUCSNAME
  2

  9
$PUCSORG
 10
0.0
 20
0.0
 30
0.0
  9
$PUCSXDIR
 10
1.0
 20
0.0
 30
0.0
  9
$PUCSYDIR
 10
0.0
 20
1.0
 30
0.0
  9
$PUCSORTHOREF
  2

  9
$PUCSORTHOVIEW
 70
     0
  9
$PUCSORGTOP
 10
0.0
 20
0.0
 30
0.0
  9
$PUCSORGBOTTOM
 10
0.0
 20
0.0
 30
0.0
  9
$PUCSORGLEFT
 10
0.0
 20
0.0
 30
0.0
  9
$PUCSORGRIGHT
 10
0.0
 20
0.0
 30
0.0
  9
$PUCSORGFRONT
 10
0.0
 20
0.0
 30
0.0
  9
$PUCSORGBACK
 10
0.0
 20
0.0
 30
0.0
  9
$USERI1
 70
     0
  9
$USERI2
 70
     0
  9
$USERI3
 70
     0
  9
$USERI4
 70
     0
  9
$USERI5
 70
     0
  9
$USERR1
 40
0.0
  9
$USERR2
 40
0.0
  9
$USERR3
 40
0.0
  9
$USERR4
 40
0.0
  9
$USERR5
 40
0.0
  9
$WORLDVIEW
 70
     1
  9
$SHADEDGE
 70
     3
  9
$SHADEDIF
 70
    70
  9
$TILEMODE
 70
     1
  9
$MAXACTVP
 70
    64
  9
$PINSBASE
 10
0.0
 20
0.0
 30
0.0
  9
$PLIMCHECK
 70
     0
  9
$PEXTMIN
 10
0.0
 20
0.0
 30
0.0
  9
$PEXTMAX
 10
0.0
 20
0.0
 30
0.0
  9
$PLIMMIN
 10
0.0
 20
0.0
  9
$PLIMMAX
 10
0.0
 20
0.0
  9
$UNITMODE
 70
     0
  9
$VISRETAIN
 70
     1
  9
$PLINEGEN
 70
     0
  9
$PSLTSCALE
 70
     1
  9
$TREEDEPTH
 70
  3020
  9
$CMLSTYLE
  2
Standard
  9
$CMLJUST
 70
     0
  9
$CMLSCALE
 40
1.0
  9
$PROXYGRAPHICS
 70
     1
  9
$MEASUREMENT
 70
     0
  9
$CELWEIGHT
370
    -1
  9
$ENDCAPS
280
     0
  9
$JOINSTYLE
280
     0
  9
$LWDISPLAY
290
     0
  9
$INSUNITS
 70
     1
  9
$HYPERLINKBASE
  1

  9
$STYLESHEET
  1

  9
$XEDIT
290
     1
  9
$CEPSNTYPE
380
     0
  9
$PSTYLEMODE
290
     1
  9
$FINGERPRINTGUID
  2
{FDEAD576-A652-11D2-9A35-0060089B3A3F}
  9
$VERSIONGUID
  2
{FBC2AE19-5C5C-49EC-81BC-71B1A3362A02}
  9
$EXTNAMES
290
     1
  9
$PSVPSCALE
 40
0.0
  9
$OLESTARTUP
290
     0
  9
$SORTENTS
280
   127
  9
$INDEXCTL
280
     0
  9
$HIDETEXT
280
     1
  9
$XCLIPFRAME
280
     0
  9
$HALOGAP
280
     0
  9
$OBSCOLOR
 70
   257
  9
$OBSLTYPE
280
     0
  9
$INTERSECTIONDISPLAY
280
     0
  9
$INTERSECTIONCOLOR
 70
   257
  9
$DIMASSOC
280
     2
  9
$PROJECTNAME
  1

  9
$CAMERADISPLAY
290
     0
  9
$LENSLENGTH
 40
50.0
  9
$CAMERAHEIGHT
 40
0.0
  9
$STEPSPERSEC
 40
2.0
  9
$STEPSIZE
 40
6.0
  9
$3DDWFPREC
 40
2.0
  9
$PSOLWIDTH
 40
0.25
  9
$PSOLHEIGHT
 40
4.0
  9
$LOFTANG1
 40
1.570796326794897
  9
$LOFTANG2
 40
1.570796326794897
  9
$LOFTMAG1
 40
0.0
  9
$LOFTMAG2
 40
0.0
  9
$LOFTPARAM
 70
     7
  9
$LOFTNORMALS
280
     1
  9
$LATITUDE
 40
37.795
  9
$LONGITUDE
 40
-122.394
  9
$NORTHDIRECTION
 40
0.0
  9
$TIMEZONE
 70
 -8000
  9
$LIGHTGLYPHDISPLAY
280
     1
  9
$TILEMODELIGHTSYNCH
280
     1
  9
$CMATERIAL
347
96
  9
$SOLIDHIST
280
     1
  9
$SHOWHIST
280
     1
  9
$DWFFRAME
280
     2
  9
$DGNFRAME
280
     0
  9
$REALWORLDSCALE
290
     1
  9
$INTERFERECOLOR
 62
     1
  9
$CSHADOW
280
     0
  9
$SHADOWPLANELOCATION
 40
0.0
  0
ENDSEC
  0
SECTION
  2
CLASSES
  0
CLASS
  1
ACDBDICTIONARYWDFLT
  2
AcDbDictionaryWithDefault
  3
ObjectDBX Classes
 90
        0
 91
        3
280
     0
281
     0
  0
CLASS
  1
ACDBPLACEHOLDER
  2
AcDbPlaceHolder
  3
ObjectDBX Classes
 90
        0
 91
        1
280
     0
281
     0
  0
CLASS
  1
LAYOUT
  2
AcDbLayout
  3
ObjectDBX Classes
 90
        0
 91
        1
280
     0
281
     0
  0
CLASS
  1
DICTIONARYVAR
  2
AcDbDictionaryVar
  3
ObjectDBX Classes
 90
        0
 91
        3
280
     0
281
     0
  0
CLASS
  1
TABLESTYLE
  2
AcDbTableStyle
  3
ObjectDBX Classes
 90
     4095
 91
        3
280
     0
281
     0
  0
CLASS
  1
MATERIAL
  2
AcDbMaterial
  3
ObjectDBX Classes
 90
     1153
 91
        3
280
     0
281
     0
  0
CLASS
  1
VISUALSTYLE
  2
AcDbVisualStyle
  3
ObjectDBX Classes
 90
     4095
 91
        3
280
     0
281
     0
  0
CLASS
  1
SCALE
  2
AcDbScale
  3
ObjectDBX Classes
 90
     1153
 91
        3
280
     0
281
     0
  0
CLASS
  1
CELLSTYLEMAP
  2
AcDbCellStyleMap
  3
ObjectDBX Classes
 90
     1152
 91
        3
280
     0
281
     0
  0
CLASS
  1
RASTERVARIABLES
  2
AcDbRasterVariables
  3
ISM
 90
        0
 91
        3
280
     0
281
     0
  0
CLASS
  1
SUN
  2
AcDbSun
  3
SCENEOE
 90
     1153
 91
        3
280
     0
281
     0
  0
CLASS
  1
DIMASSOC
  2
AcDbDimAssoc
  3
"AcDbDimAssoc|Product Desc:     AcDim ARX App For Dimension|Company:          Autodesk, Inc.|WEB Address:      www.autodesk.com"
 90
        0
 91
        3
280
     0
281
     0
  0
CLASS
  1
MLEADERSTYLE
  2
AcDbMLeaderStyle
  3
ACDB_MLEADERSTYLE_CLASS
 90
     4095
 91
        3
280
     0
281
     0
  0
ENDSEC
  0
SECTION
  2
TABLES
  0
TABLE
  2
VPORT
  5
8
330
0
100
AcDbSymbolTable
 70
     1
  0
VPORT
  5
94
330
8
100
AcDbSymbolTableRecord
100
AcDbViewportTableRecord
  2
*Active
 70
     0
 10
0.0
 20
0.0
 11
1.0
 21
1.0
 12
114.3642413999837
 22
98.92867235949883
 13
0.0
 23
0.0
 14
0.5
 24
0.5
 15
0.5
 25
0.5
 16
0.0
 26
0.0
 36
1.0
 17
-27.66959356597981
 27
-19.53870295786206
 37
0.0
 40
107.0755946356503
 41
1.762376237623763
 42
50.0
 43
0.0
 44
0.0
 50
0.0
 51
0.0
 71
    16
 72
  1000
 73
     1
 74
     3
 75
     0
 76
     0
 77
     0
 78
     0
281
     0
 65
     1
110
0.0
120
0.0
130
0.0
111
1.0
121
0.0
131
0.0
112
0.0
122
1.0
132
0.0
 79
     0
146
0.0
348
9F
 60
     2
 61
     5
292
     1
282
     1
141
0.0
142
0.0
 63
   250
421
  3355443
361
ED
  0
ENDTAB
  0
TABLE
  2
LTYPE
  5
5
330
0
100
AcDbSymbolTable
 70
     3
  0
LTYPE
  5
14
330
5
100
AcDbSymbolTableRecord
100
AcDbLinetypeTableRecord
  2
ByBlock
 70
     0
  3

 72
    65
 73
     0
 40
0.0
  0
LTYPE
  5
15
330
5
100
AcDbSymbolTableRecord
100
AcDbLinetypeTableRecord
  2
ByLayer
 70
     0
  3

 72
    65
 73
     0
 40
0.0
  0
LTYPE
  5
16
330
5
100
AcDbSymbolTableRecord
100
AcDbLinetypeTableRecord
  2
Continuous
 70
     0
  3
Solid line
 72
    65
 73
     0
 40
0.0
  0
LTYPE
  5
129
330
5
100
AcDbSymbolTableRecord
100
AcDbLinetypeTableRecord
  2
CENTER
 70
     0
  3
Center ____ _ ____ _ ____ _ ____ _ ____ _ ____
 72
    65
 73
     4
 40
50.8
 49
31.75
 74
     0
 49
-6.35
 74
     0
 49
6.35
 74
     0
 49
-6.35
 74
     0
  0
LTYPE
  5
12C
330
5
100
AcDbSymbolTableRecord
100
AcDbLinetypeTableRecord
  2
DASHED
 70
     0
  3
Dashed __ __ __ __ __ __ __ __ __ __ __ __ __ _
 72
    65
 73
     2
 40
19.05
 49
12.7
 74
     0
 49
-6.35
 74
     0
  0
ENDTAB
  0
TABLE
  2
LAYER
  5
2
330
0
100
AcDbSymbolTable
 70
     7
  0
LAYER
  5
10
330
2
100
AcDbSymbolTableRecord
100
AcDbLayerTableRecord
  2
0
 70
     0
 62
     7
  6
Continuous
370
    -3
390
F
347
98
348
0
  0
LAYER
  5
125
330
2
100
AcDbSymbolTableRecord
100
AcDbLayerTableRecord
  2
Defpoints
 70
     0
 62
     7
  6
Continuous
290
     0
370
    -3
390
F
347
98
348
0
  0
LAYER
  5
126
330
2
100
AcDbSymbolTableRecord
100
AcDbLayerTableRecord
  2
文字
 70
     0
 62
     7
  6
Continuous
370
    25
390
F
347
98
348
0
  0
LAYER
  5
128
330
2
100
AcDbSymbolTableRecord
100
AcDbLayerTableRecord
  2
中心線
 70
     0
 62
     7
  6
CENTER
370
    30
390
F
347
98
348
0
  0
LAYER
  5
12A
330
2
100
AcDbSymbolTableRecord
100
AcDbLayerTableRecord
  2
実線
 70
     0
 62
   140
  6
Continuous
370
    30
390
F
347
98
348
0
  0
LAYER
  5
12B
330
2
100
AcDbSymbolTableRecord
100
AcDbLayerTableRecord
  2
破線
 70
     0
 62
     7
  6
DASHED
370
    20
390
F
347
98
348
0
  0
LAYER
  5
2E8
330
2
100
AcDbSymbolTableRecord
100
AcDbLayerTableRecord
  2
文字・寸法線
 70
     0
 62
     7
  6
Continuous
370
    13
390
F
347
98
348
0
  0
ENDTAB
  0
TABLE
  2
STYLE
  5
3
330
0
100
AcDbSymbolTable
 70
     1
  0
STYLE
  5
11
330
3
100
AcDbSymbolTableRecord
100
AcDbTextStyleTableRecord
  2
Standard
 70
     0
 40
0.0
 41
1.0
 50
0.0
 71
     0
 42
0.2
  3
arial.ttf
  4

1001
ACAD
1000
Arial
1071
        0
  0
ENDTAB
  0
TABLE
  2
VIEW
  5
6
330
0
100
AcDbSymbolTable
 70
     0
  0
ENDTAB
  0
TABLE
  2
UCS
  5
7
330
0
100
AcDbSymbolTable
 70
     0
  0
ENDTAB
  0
TABLE
  2
APPID
  5
9
330
0
100
AcDbSymbolTable
 70
     2
  0
APPID
  5
12
330
9
100
AcDbSymbolTableRecord
100
AcDbRegAppTableRecord
  2
ACAD
 70
     0
  0
APPID
  5
2EC
330
9
100
AcDbSymbolTableRecord
100
AcDbRegAppTableRecord
  2
ACAD_NAV_VCDISPLAY
 70
     0
  0
ENDTAB
  0
TABLE
  2
DIMSTYLE
  5
A
330
0
100
AcDbSymbolTable
 70
     2
100
AcDbDimStyleTable
  0
DIMSTYLE
105
27
330
A
100
AcDbSymbolTableRecord
100
AcDbDimStyleTableRecord
  2
Standard
 70
     0
178
     0
340
11
  0
DIMSTYLE
105
12D
102
{ACAD_REACTORS
330
230
330
233
330
236
330
239
330
23C
330
23F
330
242
330
245
330
248
330
24B
330
24E
330
252
102
}
330
A
100
AcDbSymbolTableRecord
100
AcDbDimStyleTableRecord
  2
ISO-25
 70
     0
 41
2.5
 42
0.625
 43
3.75
 44
1.25
 73
     0
 74
     0
 77
     1
 78
     8
140
2.5
141
2.5
143
0.03937007874016
147
0.625
171
     3
172
     1
178
     0
271
     2
272
     2
274
     3
283
     0
284
     8
340
11
  0
ENDTAB
  0
TABLE
  2
BLOCK_RECORD
  5
1
330
0
100
AcDbSymbolTable
 70
    25
  0
BLOCK_RECORD
  5
1F
102
{ACAD_XDICTIONARY
360
31C
102
}
330
1
100
AcDbSymbolTableRecord
100
AcDbBlockTableRecord
  2
*Model_Space
340
22
 70
     0
280
     1
281
     0
  0
BLOCK_RECORD
  5
58
330
1
100
AcDbSymbolTableRecord
100
AcDbBlockTableRecord
  2
*Paper_Space
340
59
 70
     0
280
     1
281
     0
  0
BLOCK_RECORD
  5
5D
330
1
100
AcDbSymbolTableRecord
100
AcDbBlockTableRecord
  2
*Paper_Space0
340
5E
 70
     0
280
     1
281
     0
  0
BLOCK_RECORD
  5
165
330
1
100
AcDbSymbolTableRecord
100
AcDbBlockTableRecord
  2
*D1
340
0
 70
     0
280
     1
281
     0
  0
BLOCK_RECORD
  5
174
330
1
100
AcDbSymbolTableRecord
100
AcDbBlockTableRecord
  2
*D2
340
0
 70
     0
280
     1
281
     0
  0
BLOCK_RECORD
  5
184
330
1
100
AcDbSymbolTableRecord
100
AcDbBlockTableRecord
  2
*D3
340
0
 70
     0
280
     1
281
     0
  0
BLOCK_RECORD
  5
193
330
1
100
AcDbSymbolTableRecord
100
AcDbBlockTableRecord
  2
*D4
340
0
 70
     0
280
     1
281
     0
  0
BLOCK_RECORD
  5
1A2
330
1
100
AcDbSymbolTableRecord
100
AcDbBlockTableRecord
  2
*D5
340
0
 70
     0
280
     1
281
     0
  0
BLOCK_RECORD
  5
1B1
330
1
100
AcDbSymbolTableRecord
100
AcDbBlockTableRecord
  2
*D6
340
0
 70
     0
280
     1
281
     0
  0
BLOCK_RECORD
  5
1C0
330
1
100
AcDbSymbolTableRecord
100
AcDbBlockTableRecord
  2
*D7
340
0
 70
     0
280
     1
281
     0
  0
BLOCK_RECORD
  5
1D1
330
1
100
AcDbSymbolTableRecord
100
AcDbBlockTableRecord
  2
*D8
340
0
 70
     0
280
     1
281
     0
  0
BLOCK_RECORD
  5
1E0
330
1
100
AcDbSymbolTableRecord
100
AcDbBlockTableRecord
  2
*D9
340
0
 70
     0
280
     1
281
     0
  0
BLOCK_RECORD
  5
1EF
330
1
100
AcDbSymbolTableRecord
100
AcDbBlockTableRecord
  2
*D10
340
0
 70
     0
280
     1
281
     0
  0
BLOCK_RECORD
  5
1FB
330
1
100
AcDbSymbolTableRecord
100
AcDbBlockTableRecord
  2
*D11
340
0
 70
     0
280
     1
281
     0
  0
BLOCK_RECORD
  5
20B
330
1
100
AcDbSymbolTableRecord
100
AcDbBlockTableRecord
  2
*D12
340
0
 70
     0
280
     1
281
     0
  0
BLOCK_RECORD
  5
256
330
1
100
AcDbSymbolTableRecord
100
AcDbBlockTableRecord
  2
*D13
340
0
 70
     0
280
     1
281
     0
  0
BLOCK_RECORD
  5
262
330
1
100
AcDbSymbolTableRecord
100
AcDbBlockTableRecord
  2
*D14
340
0
 70
     0
280
     1
281
     0
  0
BLOCK_RECORD
  5
26E
330
1
100
AcDbSymbolTableRecord
100
AcDbBlockTableRecord
  2
*D15
340
0
 70
     0
280
     1
281
     0
  0
BLOCK_RECORD
  5
27A
330
1
100
AcDbSymbolTableRecord
100
AcDbBlockTableRecord
  2
*D16
340
0
 70
     0
280
     1
281
     0
  0
BLOCK_RECORD
  5
286
330
1
100
AcDbSymbolTableRecord
100
AcDbBlockTableRecord
  2
*D17
340
0
 70
     0
280
     1
281
     0
  0
BLOCK_RECORD
  5
292
330
1
100
AcDbSymbolTableRecord
100
AcDbBlockTableRecord
  2
*D18
340
0
 70
     0
280
     1
281
     0
  0
BLOCK_RECORD
  5
29E
330
1
100
AcDbSymbolTableRecord
100
AcDbBlockTableRecord
  2
*D19
340
0
 70
     0
280
     1
281
     0
  0
BLOCK_RECORD
  5
2AC
330
1
100
AcDbSymbolTableRecord
100
AcDbBlockTableRecord
  2
*D20
340
0
 70
     0
280
     1
281
     0
  0
BLOCK_RECORD
  5
2B8
330
1
100
AcDbSymbolTableRecord
100
AcDbBlockTableRecord
  2
*D21
340
0
 70
     0
280
     1
281
     0
  0
BLOCK_RECORD
  5
2C4
330
1
100
AcDbSymbolTableRecord
100
AcDbBlockTableRecord
  2
*D22
340
0
 70
     0
280
     1
281
     0
  0
BLOCK_RECORD
  5
2CD
330
1
100
AcDbSymbolTableRecord
100
AcDbBlockTableRecord
  2
*D23
340
0
 70
     0
280
     1
281
     0
  0
BLOCK_RECORD
  5
2D8
330
1
100
AcDbSymbolTableRecord
100
AcDbBlockTableRecord
  2
*D24
340
0
 70
     0
280
     1
281
     0
  0
ENDTAB
  0
ENDSEC
  0
SECTION
  2
BLOCKS
  0
BLOCK
  5
20
330
1F
100
AcDbEntity
  8
0
100
AcDbBlockBegin
  2
*Model_Space
 70
     0
 10
0.0
 20
0.0
 30
0.0
  3
*Model_Space
  1
*Model_Space
  0
ENDBLK
  5
21
330
1F
100
AcDbEntity
  8
0
100
AcDbBlockEnd
  0
BLOCK
  5
5A
330
58
100
AcDbEntity
 67
     1
  8
0
100
AcDbBlockBegin
  2
*Paper_Space
 70
     0
 10
0.0
 20
0.0
 30
0.0
  3
*Paper_Space
  1
*Paper_Space
  0
ENDBLK
  5
5B
330
58
100
AcDbEntity
 67
     1
  8
0
100
AcDbBlockEnd
  0
BLOCK
  5
5F
330
5D
100
AcDbEntity
  8
0
100
AcDbBlockBegin
  2
*Paper_Space0
 70
     0
 10
0.0
 20
0.0
 30
0.0
  3
*Paper_Space0
  1
*Paper_Space0
  0
ENDBLK
  5
60
330
5D
100
AcDbEntity
  8
0
100
AcDbBlockEnd
  0
BLOCK
  5
166
330
165
100
AcDbEntity
  8
0
370
    30
100
AcDbBlockBegin
  2
*D1
 70
     1
 10
0.0
 20
0.0
 30
0.0
  3
*D1
  1
*D2
  0
LINE
  5
167
330
165
100
AcDbEntity
  8
文字
 62
     0
370
    -2
100
AcDbLine
 10
32.55237366425787
 20
83.89157371107876
 30
0.0
 11
1.875000000000032
 21
83.89157371107876
 31
0.0
  0
LINE
  5
168
330
165
100
AcDbEntity
  8
文字
 62
     0
370
    -2
100
AcDbLine
 10
24.55237366425786
 20
25.91663652554566
 30
0.0
 11
1.875000000000028
 21
25.91663652554566
 31
0.0
  0
LINE
  5
169
330
165
100
AcDbEntity
  8
文字
 62
     0
370
    -2
100
AcDbLine
 10
3.125000000000032
 20
81.39157371107876
 30
0.0
 11
3.125000000000028
 21
28.41663652554566
 31
0.0
  0
SOLID
  5
16A
330
165
100
AcDbEntity
  8
文字
 62
     0
100
AcDbTrace
 10
3.541666666666698
 20
81.39157371107876
 30
0.0
 11
2.708333333333365
 21
81.39157371107876
 31
0.0
 12
3.125000000000032
 22
83.89157371107876
 32
0.0
 13
3.125000000000032
 23
83.89157371107876
 33
0.0
  0
SOLID
  5
16B
330
165
100
AcDbEntity
  8
文字
 62
     0
100
AcDbTrace
 10
2.708333333333362
 20
28.41663652554566
 30
0.0
 11
3.541666666666695
 21
28.41663652554566
 31
0.0
 12
3.125000000000028
 22
25.91663652554566
 32
0.0
 13
3.125000000000028
 23
25.91663652554566
 33
0.0
  0
MTEXT
  5
16C
330
165
100
AcDbEntity
  8
文字
 62
     0
370
    30
100
AcDbMText
 10
1.224420190995938
 20
54.90410511831221
 30
0.0
 40
2.5
 41
0.0
 46
0.0
 71
     5
 72
     1
  1
57.97
 11
6.128016434810445E-17
 21
1.0
 31
0.0
 73
     1
 44
1.0
  0
POINT
  5
16D
330
165
100
AcDbEntity
  8
Defpoints
 62
     0
100
AcDbPoint
 10
33.17737366425787
 20
83.89157371107876
 30
0.0
  0
POINT
  5
16E
330
165
100
AcDbEntity
  8
Defpoints
 62
     0
100
AcDbPoint
 10
25.17737366425786
 20
25.91663652554566
 30
0.0
  0
POINT
  5
16F
330
165
100
AcDbEntity
  8
Defpoints
 62
     0
100
AcDbPoint
 10
3.125000000000028
 20
25.91663652554566
 30
0.0
  0
ENDBLK
  5
170
330
165
100
AcDbEntity
  8
0
370
    30
100
AcDbBlockEnd
  0
BLOCK
  5
175
330
174
100
AcDbEntity
  8
0
370
    30
100
AcDbBlockBegin
  2
*D2
 70
     1
 10
0.0
 20
0.0
 30
0.0
  3
*D2
  1
*D3
  0
LINE
  5
176
330
174
100
AcDbEntity
  8
文字
 62
     0
370
    -2
100
AcDbLine
 10
32.55237366425787
 20
33.89157371107876
 30
0.0
 11
10.74148970639592
 21
33.89157371107876
 31
0.0
  0
LINE
  5
177
330
174
100
AcDbEntity
  8
文字
 62
     0
370
    -2
100
AcDbLine
 10
23.92737366425786
 20
25.91663652554566
 30
0.0
 11
10.74148970639592
 21
25.91663652554566
 31
0.0
  0
LINE
  5
178
330
174
100
AcDbEntity
  8
文字
 62
     0
370
    -2
100
AcDbLine
 10
11.99148970639592
 20
31.39157371107876
 30
0.0
 11
11.99148970639592
 21
28.41663652554566
 31
0.0
  0
SOLID
  5
179
330
174
100
AcDbEntity
  8
文字
 62
     0
100
AcDbTrace
 10
12.40815637306259
 20
31.39157371107876
 30
0.0
 11
11.57482303972926
 21
31.39157371107876
 31
0.0
 12
11.99148970639592
 22
33.89157371107876
 32
0.0
 13
11.99148970639592
 23
33.89157371107876
 33
0.0
  0
SOLID
  5
17A
330
174
100
AcDbEntity
  8
文字
 62
     0
100
AcDbTrace
 10
11.57482303972926
 20
28.41663652554566
 30
0.0
 11
12.40815637306259
 21
28.41663652554566
 31
0.0
 12
11.99148970639592
 22
25.91663652554566
 32
0.0
 13
11.99148970639592
 23
25.91663652554566
 33
0.0
  0
MTEXT
  5
17B
330
174
100
AcDbEntity
  8
文字
 62
     0
370
    30
100
AcDbMText
 10
10.09090989739183
 20
29.90410511831221
 30
0.0
 40
2.5
 41
0.0
 46
0.0
 71
     5
 72
     1
  1
7.97
 11
0.0
 21
1.0
 31
0.0
 73
     1
 44
1.0
  0
POINT
  5
17C
330
174
100
AcDbEntity
  8
Defpoints
 62
     0
100
AcDbPoint
 10
33.17737366425787
 20
33.89157371107876
 30
0.0
  0
POINT
  5
17D
330
174
100
AcDbEntity
  8
Defpoints
 62
     0
100
AcDbPoint
 10
24.55237366425786
 20
25.91663652554566
 30
0.0
  0
POINT
  5
17E
330
174
100
AcDbEntity
  8
Defpoints
 62
     0
100
AcDbPoint
 10
11.99148970639592
 20
25.91663652554566
 30
0.0
  0
ENDBLK
  5
180
330
174
100
AcDbEntity
  8
0
370
    30
100
AcDbBlockEnd
  0
BLOCK
  5
185
330
184
100
AcDbEntity
  8
0
370
    30
100
AcDbBlockBegin
  2
*D3
 70
     1
 10
0.0
 20
0.0
 30
0.0
  3
*D3
  1
*D4
  0
LINE
  5
186
330
184
100
AcDbEntity
  8
文字
 62
     0
370
    -2
100
AcDbLine
 10
32.55237366425787
 20
83.89157371107876
 30
0.0
 11
10.74148970639592
 21
83.89157371107876
 31
0.0
  0
LINE
  5
187
330
184
100
AcDbEntity
  8
文字
 62
     0
370
    -2
100
AcDbLine
 10
32.55237366425787
 20
71.39157371107876
 30
0.0
 11
10.74148970639592
 21
71.39157371107876
 31
0.0
  0
LINE
  5
188
330
184
100
AcDbEntity
  8
文字
 62
     0
370
    -2
100
AcDbLine
 10
11.99148970639592
 20
81.39157371107876
 30
0.0
 11
11.99148970639592
 21
73.89157371107876
 31
0.0
  0
SOLID
  5
189
330
184
100
AcDbEntity
  8
文字
 62
     0
100
AcDbTrace
 10
12.40815637306259
 20
81.39157371107876
 30
0.0
 11
11.57482303972926
 21
81.39157371107876
 31
0.0
 12
11.99148970639592
 22
83.89157371107876
 32
0.0
 13
11.99148970639592
 23
83.89157371107876
 33
0.0
  0
SOLID
  5
18A
330
184
100
AcDbEntity
  8
文字
 62
     0
100
AcDbTrace
 10
11.57482303972926
 20
73.89157371107876
 30
0.0
 11
12.40815637306259
 21
73.89157371107876
 31
0.0
 12
11.99148970639592
 22
71.39157371107876
 32
0.0
 13
11.99148970639592
 23
71.39157371107876
 33
0.0
  0
MTEXT
  5
18B
330
184
100
AcDbEntity
  8
文字
 62
     0
370
    30
100
AcDbMText
 10
10.09090989739182
 20
77.64157371107876
 30
0.0
 40
2.5
 41
0.0
 46
0.0
 71
     5
 72
     1
  1
12.5
 11
0.0
 21
1.0
 31
0.0
 73
     1
 44
1.0
  0
POINT
  5
18C
330
184
100
AcDbEntity
  8
Defpoints
 62
     0
100
AcDbPoint
 10
33.17737366425787
 20
83.89157371107876
 30
0.0
  0
POINT
  5
18D
330
184
100
AcDbEntity
  8
Defpoints
 62
     0
100
AcDbPoint
 10
33.17737366425787
 20
71.39157371107876
 30
0.0
  0
POINT
  5
18E
330
184
100
AcDbEntity
  8
Defpoints
 62
     0
100
AcDbPoint
 10
11.99148970639592
 20
71.39157371107876
 30
0.0
  0
ENDBLK
  5
18F
330
184
100
AcDbEntity
  8
0
370
    30
100
AcDbBlockEnd
  0
BLOCK
  5
194
330
193
100
AcDbEntity
  8
0
370
    30
100
AcDbBlockBegin
  2
*D4
 70
     1
 10
0.0
 20
0.0
 30
0.0
  3
*D4
  1
*D5
  0
LINE
  5
195
330
193
100
AcDbEntity
  8
文字
 62
     0
370
    -2
100
AcDbLine
 10
20.67737366425787
 20
79.51657371107876
 30
0.0
 11
20.67737366425787
 21
94.38405217360048
 31
0.0
  0
LINE
  5
196
330
193
100
AcDbEntity
  8
文字
 62
     0
370
    -2
100
AcDbLine
 10
45.67737366425786
 20
79.51657371107876
 30
0.0
 11
45.67737366425786
 21
94.38405217360048
 31
0.0
  0
LINE
  5
197
330
193
100
AcDbEntity
  8
文字
 62
     0
370
    -2
100
AcDbLine
 10
23.17737366425787
 20
93.13405217360048
 30
0.0
 11
43.17737366425786
 21
93.13405217360048
 31
0.0
  0
SOLID
  5
198
330
193
100
AcDbEntity
  8
文字
 62
     0
100
AcDbTrace
 10
23.17737366425787
 20
93.55071884026715
 30
0.0
 11
23.17737366425787
 21
92.71738550693381
 31
0.0
 12
20.67737366425787
 22
93.13405217360048
 32
0.0
 13
20.67737366425787
 23
93.13405217360048
 33
0.0
  0
SOLID
  5
199
330
193
100
AcDbEntity
  8
文字
 62
     0
100
AcDbTrace
 10
43.17737366425786
 20
92.71738550693381
 30
0.0
 11
43.17737366425786
 21
93.55071884026715
 31
0.0
 12
45.67737366425786
 22
93.13405217360048
 32
0.0
 13
45.67737366425786
 23
93.13405217360048
 33
0.0
  0
MTEXT
  5
19A
330
193
100
AcDbEntity
  8
文字
 62
     0
370
    30
100
AcDbMText
 10
33.17737366425786
 20
95.03463198260458
 30
0.0
 40
2.5
 41
0.0
 46
0.0
 71
     5
 72
     1
  1
25
 73
     1
 44
1.0
  0
POINT
  5
19B
330
193
100
AcDbEntity
  8
Defpoints
 62
     0
100
AcDbPoint
 10
20.67737366425787
 20
78.89157371107876
 30
0.0
  0
POINT
  5
19C
330
193
100
AcDbEntity
  8
Defpoints
 62
     0
100
AcDbPoint
 10
45.67737366425786
 20
78.89157371107876
 30
0.0
  0
POINT
  5
19D
330
193
100
AcDbEntity
  8
Defpoints
 62
     0
100
AcDbPoint
 10
45.67737366425786
 20
93.13405217360048
 30
0.0
  0
ENDBLK
  5
19E
330
193
100
AcDbEntity
  8
0
370
    30
100
AcDbBlockEnd
  0
BLOCK
  5
1A3
330
1A2
100
AcDbEntity
  8
0
370
    30
100
AcDbBlockBegin
  2
*D5
 70
     1
 10
0.0
 20
0.0
 30
0.0
  3
*D5
  1
*D6
  0
LINE
  5
1A4
330
1A2
100
AcDbEntity
  8
文字
 62
     0
370
    -2
100
AcDbLine
 10
132.5523736642579
 20
83.89157371107876
 30
0.0
 11
114.8060896925679
 21
83.89157371107876
 31
0.0
  0
LINE
  5
1A5
330
1A2
100
AcDbEntity
  8
文字
 62
     0
370
    -2
100
AcDbLine
 10
132.3544350200233
 20
59.41682834987776
 30
0.0
 11
114.8060896925679
 21
59.41682834987776
 31
0.0
  0
LINE
  5
1A6
330
1A2
100
AcDbEntity
  8
文字
 62
     0
370
    -2
100
AcDbLine
 10
116.0560896925679
 20
81.39157371107876
 30
0.0
 11
116.0560896925679
 21
61.91682834987776
 31
0.0
  0
SOLID
  5
1A7
330
1A2
100
AcDbEntity
  8
文字
 62
     0
100
AcDbTrace
 10
116.4727563592346
 20
81.39157371107876
 30
0.0
 11
115.6394230259012
 21
81.39157371107876
 31
0.0
 12
116.0560896925679
 22
83.89157371107876
 32
0.0
 13
116.0560896925679
 23
83.89157371107876
 33
0.0
  0
SOLID
  5
1A8
330
1A2
100
AcDbEntity
  8
文字
 62
     0
100
AcDbTrace
 10
115.6394230259012
 20
61.91682834987776
 30
0.0
 11
116.4727563592346
 21
61.91682834987776
 31
0.0
 12
116.0560896925679
 22
59.41682834987776
 32
0.0
 13
116.0560896925679
 23
59.41682834987776
 33
0.0
  0
MTEXT
  5
1A9
330
1A2
100
AcDbEntity
  8
文字
 62
     0
370
    30
100
AcDbMText
 10
114.1759737307671
 20
71.65420103047826
 30
0.0
 40
2.5
 41
0.0
 46
0.0
 71
     5
 72
     1
  1
24.47
 11
0.0
 21
1.0
 31
0.0
 73
     1
 44
1.0
  0
POINT
  5
1AA
330
1A2
100
AcDbEntity
  8
Defpoints
 62
     0
100
AcDbPoint
 10
133.1773736642579
 20
83.89157371107876
 30
0.0
  0
POINT
  5
1AB
330
1A2
100
AcDbEntity
  8
Defpoints
 62
     0
100
AcDbPoint
 10
132.9794350200233
 20
59.41682834987776
 30
0.0
  0
POINT
  5
1AC
330
1A2
100
AcDbEntity
  8
Defpoints
 62
     0
100
AcDbPoint
 10
116.0560896925679
 20
59.41682834987776
 30
0.0
  0
ENDBLK
  5
1AD
330
1A2
100
AcDbEntity
  8
0
370
    30
100
AcDbBlockEnd
  0
BLOCK
  5
1B2
330
1B1
100
AcDbEntity
  8
0
370
    30
100
AcDbBlockBegin
  2
*D6
 70
     1
 10
0.0
 20
0.0
 30
0.0
  3
*D6
  1
*D7
  0
LINE
  5
1B3
330
1B1
100
AcDbEntity
  8
文字
 62
     0
370
    -2
100
AcDbLine
 10
128.8023736642579
 20
25.89157371107876
 30
0.0
 11
146.9388342093246
 21
25.89157371107876
 31
0.0
  0
LINE
  5
1B4
330
1B1
100
AcDbEntity
  8
文字
 62
     0
370
    -2
100
AcDbLine
 10
128.8023736642579
 20
50.59098561819481
 30
0.0
 11
146.9388342093246
 21
50.59098561819481
 31
0.0
  0
LINE
  5
1B5
330
1B1
100
AcDbEntity
  8
文字
 62
     0
370
    -2
100
AcDbLine
 10
145.6888342093246
 20
28.39157371107876
 30
0.0
 11
145.6888342093246
 21
48.09098561819481
 31
0.0
  0
SOLID
  5
1B6
330
1B1
100
AcDbEntity
  8
文字
 62
     0
100
AcDbTrace
 10
145.2721675426579
 20
28.39157371107876
 30
0.0
 11
146.1055008759913
 21
28.39157371107876
 31
0.0
 12
145.6888342093246
 22
25.89157371107876
 32
0.0
 13
145.6888342093246
 23
25.89157371107876
 33
0.0
  0
SOLID
  5
1B7
330
1B1
100
AcDbEntity
  8
文字
 62
     0
100
AcDbTrace
 10
146.1055008759913
 20
48.09098561819481
 30
0.0
 11
145.2721675426579
 21
48.09098561819481
 31
0.0
 12
145.6888342093246
 22
50.59098561819481
 32
0.0
 13
145.6888342093246
 23
50.59098561819481
 33
0.0
  0
MTEXT
  5
1B8
330
1B1
100
AcDbEntity
  8
文字
 62
     0
370
    30
100
AcDbMText
 10
143.8087182475238
 20
38.24127966463679
 30
0.0
 40
2.5
 41
0.0
 46
0.0
 71
     5
 72
     1
  1
24.7
 11
0.0
 21
1.0
 31
0.0
 73
     1
 44
1.0
  0
POINT
  5
1B9
330
1B1
100
AcDbEntity
  8
Defpoints
 62
     0
100
AcDbPoint
 10
128.1773736642579
 20
25.89157371107876
 30
0.0
  0
POINT
  5
1BA
330
1B1
100
AcDbEntity
  8
Defpoints
 62
     0
100
AcDbPoint
 10
128.1773736642579
 20
50.59098561819481
 30
0.0
  0
POINT
  5
1BB
330
1B1
100
AcDbEntity
  8
Defpoints
 62
     0
100
AcDbPoint
 10
145.6888342093246
 20
50.59098561819481
 30
0.0
  0
ENDBLK
  5
1BC
330
1B1
100
AcDbEntity
  8
0
370
    30
100
AcDbBlockEnd
  0
BLOCK
  5
1C1
330
1C0
100
AcDbEntity
  8
0
370
    30
100
AcDbBlockBegin
  2
*D7
 70
     1
 10
0.0
 20
0.0
 30
0.0
  3
*D7
  1
*D8
  0
LINE
  5
1C2
330
1C0
100
AcDbEntity
  8
文字
 62
     0
370
    -2
100
AcDbLine
 10
133.1773736642579
 20
84.51657371107876
 30
0.0
 11
133.1773736642579
 21
92.7523017550127
 31
0.0
  0
LINE
  5
1C3
330
1C0
100
AcDbEntity
  8
文字
 62
     0
370
    -2
100
AcDbLine
 10
135.1773736642579
 20
84.51657371107876
 30
0.0
 11
135.1773736642579
 21
92.7523017550127
 31
0.0
  0
LINE
  5
1C4
330
1C0
100
AcDbEntity
  8
文字
 62
     0
370
    -2
100
AcDbLine
 10
137.6773736642579
 20
91.5023017550127
 30
0.0
 11
143.0883559289236
 21
91.5023017550127
 31
0.0
  0
LINE
  5
1C5
330
1C0
100
AcDbEntity
  8
文字
 62
     0
370
    -2
100
AcDbLine
 10
133.1773736642579
 20
91.5023017550127
 30
0.0
 11
135.1773736642579
 21
91.5023017550127
 31
0.0
  0
LINE
  5
1C6
330
1C0
100
AcDbEntity
  8
文字
 62
     0
370
    -2
100
AcDbLine
 10
130.6773736642579
 20
91.5023017550127
 30
0.0
 11
128.1773736642579
 21
91.5023017550127
 31
0.0
  0
SOLID
  5
1C7
330
1C0
100
AcDbEntity
  8
文字
 62
     0
100
AcDbTrace
 10
130.6773736642579
 20
91.08563508834602
 30
0.0
 11
130.6773736642579
 21
91.91896842167937
 31
0.0
 12
133.1773736642579
 22
91.5023017550127
 32
0.0
 13
133.1773736642579
 23
91.5023017550127
 33
0.0
  0
SOLID
  5
1C8
330
1C0
100
AcDbEntity
  8
文字
 62
     0
100
AcDbTrace
 10
137.6773736642579
 20
91.91896842167937
 30
0.0
 11
137.6773736642579
 21
91.08563508834602
 31
0.0
 12
135.1773736642579
 22
91.5023017550127
 32
0.0
 13
135.1773736642579
 23
91.5023017550127
 33
0.0
  0
MTEXT
  5
1C9
330
1C0
100
AcDbEntity
  8
文字
 62
     0
370
    30
100
AcDbMText
 10
141.6328647965908
 20
93.3824177168135
 30
0.0
 40
2.5
 41
0.0
 46
0.0
 71
     5
 72
     1
  1
2
 73
     1
 44
1.0
  0
POINT
  5
1CA
330
1C0
100
AcDbEntity
  8
Defpoints
 62
     0
100
AcDbPoint
 10
133.1773736642579
 20
83.89157371107876
 30
0.0
  0
POINT
  5
1CB
330
1C0
100
AcDbEntity
  8
Defpoints
 62
     0
100
AcDbPoint
 10
135.1773736642579
 20
83.89157371107876
 30
0.0
  0
POINT
  5
1CC
330
1C0
100
AcDbEntity
  8
Defpoints
 62
     0
100
AcDbPoint
 10
135.1773736642579
 20
91.5023017550127
 30
0.0
  0
ENDBLK
  5
1CD
330
1C0
100
AcDbEntity
  8
0
370
    30
100
AcDbBlockEnd
  0
BLOCK
  5
1D2
330
1D1
100
AcDbEntity
  8
0
370
    30
100
AcDbBlockBegin
  2
*D8
 70
     1
 10
0.0
 20
0.0
 30
0.0
  3
*D8
  1
*D9
  0
LINE
  5
1D3
330
1D1
100
AcDbEntity
  8
文字
 62
     0
370
    -2
100
AcDbLine
 10
126.1773736642579
 20
51.21598561819478
 30
0.0
 11
126.1773736642579
 21
92.7523017550127
 31
0.0
  0
LINE
  5
1D4
330
1D1
100
AcDbEntity
  8
文字
 62
     0
370
    -2
100
AcDbLine
 10
133.1773736642579
 20
85.14157371107876
 30
0.0
 11
133.1773736642579
 21
92.7523017550127
 31
0.0
  0
LINE
  5
1D5
330
1D1
100
AcDbEntity
  8
文字
 62
     0
370
    -2
100
AcDbLine
 10
128.6773736642579
 20
91.5023017550127
 30
0.0
 11
130.6773736642579
 21
91.5023017550127
 31
0.0
  0
SOLID
  5
1D6
330
1D1
100
AcDbEntity
  8
文字
 62
     0
100
AcDbTrace
 10
128.6773736642579
 20
91.91896842167937
 30
0.0
 11
128.6773736642579
 21
91.08563508834602
 31
0.0
 12
126.1773736642579
 22
91.5023017550127
 32
0.0
 13
126.1773736642579
 23
91.5023017550127
 33
0.0
  0
SOLID
  5
1D7
330
1D1
100
AcDbEntity
  8
文字
 62
     0
100
AcDbTrace
 10
130.6773736642579
 20
91.08563508834602
 30
0.0
 11
130.6773736642579
 21
91.91896842167937
 31
0.0
 12
133.1773736642579
 22
91.5023017550127
 32
0.0
 13
133.1773736642579
 23
91.5023017550127
 33
0.0
  0
MTEXT
  5
1D8
330
1D1
100
AcDbEntity
  8
文字
 62
     0
370
    30
100
AcDbMText
 10
129.6773736642579
 20
93.3773017550127
 30
0.0
 40
2.5
 41
0.0
 46
0.0
 71
     5
 72
     1
  1
7
 73
     1
 44
1.0
  0
POINT
  5
1D9
330
1D1
100
AcDbEntity
  8
Defpoints
 62
     0
100
AcDbPoint
 10
126.1773736642579
 20
50.59098561819478
 30
0.0
  0
POINT
  5
1DA
330
1D1
100
AcDbEntity
  8
Defpoints
 62
     0
100
AcDbPoint
 10
133.1773736642579
 20
84.51657371107876
 30
0.0
  0
POINT
  5
1DB
330
1D1
100
AcDbEntity
  8
Defpoints
 62
     0
100
AcDbPoint
 10
133.1773736642579
 20
91.5023017550127
 30
0.0
  0
ENDBLK
  5
1DC
330
1D1
100
AcDbEntity
  8
0
370
    30
100
AcDbBlockEnd
  0
BLOCK
  5
1E1
330
1E0
100
AcDbEntity
  8
0
370
    30
100
AcDbBlockBegin
  2
*D9
 70
     1
 10
0.0
 20
0.0
 30
0.0
  3
*D9
  1
*D10
  0
LINE
  5
1E2
330
1E0
100
AcDbEntity
  8
文字
 62
     0
370
    -2
100
AcDbLine
 10
126.1773736642579
 20
51.21598561819478
 30
0.0
 11
126.1773736642579
 21
102.0765886735398
 31
0.0
  0
LINE
  5
1E3
330
1E0
100
AcDbEntity
  8
文字
 62
     0
370
    -2
100
AcDbLine
 10
135.1773736642579
 20
84.51657371107876
 30
0.0
 11
135.1773736642579
 21
102.0765886735398
 31
0.0
  0
LINE
  5
1E4
330
1E0
100
AcDbEntity
  8
文字
 62
     0
370
    -2
100
AcDbLine
 10
128.6773736642579
 20
100.8265886735398
 30
0.0
 11
132.6773736642579
 21
100.8265886735398
 31
0.0
  0
SOLID
  5
1E5
330
1E0
100
AcDbEntity
  8
文字
 62
     0
100
AcDbTrace
 10
128.6773736642579
 20
101.2432553402065
 30
0.0
 11
128.6773736642579
 21
100.4099220068732
 31
0.0
 12
126.1773736642579
 22
100.8265886735398
 32
0.0
 13
126.1773736642579
 23
100.8265886735398
 33
0.0
  0
SOLID
  5
1E6
330
1E0
100
AcDbEntity
  8
文字
 62
     0
100
AcDbTrace
 10
132.6773736642579
 20
100.4099220068732
 30
0.0
 11
132.6773736642579
 21
101.2432553402065
 31
0.0
 12
135.1773736642579
 22
100.8265886735398
 32
0.0
 13
135.1773736642579
 23
100.8265886735398
 33
0.0
  0
MTEXT
  5
1E7
330
1E0
100
AcDbEntity
  8
文字
 62
     0
370
    30
100
AcDbMText
 10
130.6773736642579
 20
102.7271684825439
 30
0.0
 40
2.5
 41
0.0
 46
0.0
 71
     5
 72
     1
  1
9
 73
     1
 44
1.0
  0
POINT
  5
1E8
330
1E0
100
AcDbEntity
  8
Defpoints
 62
     0
100
AcDbPoint
 10
126.1773736642579
 20
50.59098561819478
 30
0.0
  0
POINT
  5
1E9
330
1E0
100
AcDbEntity
  8
Defpoints
 62
     0
100
AcDbPoint
 10
135.1773736642579
 20
83.89157371107876
 30
0.0
  0
POINT
  5
1EA
330
1E0
100
AcDbEntity
  8
Defpoints
 62
     0
100
AcDbPoint
 10
135.1773736642579
 20
100.8265886735398
 30
0.0
  0
ENDBLK
  5
1EB
330
1E0
100
AcDbEntity
  8
0
370
    30
100
AcDbBlockEnd
  0
BLOCK
  5
1F0
330
1EF
100
AcDbEntity
  8
0
370
    30
100
AcDbBlockBegin
  2
*D10
 70
     1
 10
0.0
 20
0.0
 30
0.0
  3
*D10
  1
*D11
  0
LINE
  5
1F1
330
1EF
100
AcDbEntity
  8
文字
 62
     0
370
    -2
100
AcDbLine
 10
41.85513404571588
 20
39.80312805507304
 30
0.0
 11
55.94255159695467
 21
49.39990542157313
 31
0.0
  0
MTEXT
  5
1F2
330
1EF
100
AcDbEntity
  8
文字
 62
     0
370
    30
100
AcDbMText
 10
52.68729031133258
 20
49.48200425460954
 30
0.0
 40
2.5
 41
0.0
 46
0.0
 71
     5
 72
     1
  1
R8
 11
0.8264533696626664
 21
0.5630051756185057
 31
0.0
 73
     1
 44
1.0
  0
LINE
  5
1F3
330
1EF
100
AcDbEntity
  8
文字
 62
     0
370
    -2
100
AcDbLine
 10
33.17737366425801
 20
33.89157371107882
 30
0.0
 11
39.78900062155921
 21
38.39561511602678
 31
0.0
  0
SOLID
  5
1F4
330
1EF
100
AcDbEntity
  8
文字
 62
     0
100
AcDbTrace
 10
41.62054855587483
 20
40.14748362576582
 30
0.0
 11
42.08971953555692
 21
39.45877248438026
 31
0.0
 12
39.78900062155921
 22
38.39561511602678
 32
0.0
 13
39.78900062155921
 23
38.39561511602678
 33
0.0
  0
POINT
  5
1F5
330
1EF
100
AcDbEntity
  8
Defpoints
 62
     0
100
AcDbPoint
 10
39.78900062155921
 20
38.39561511602678
 30
0.0
  0
POINT
  5
1F6
330
1EF
100
AcDbEntity
  8
Defpoints
 62
     0
100
AcDbPoint
 10
33.17737366425801
 20
33.89157371107882
 30
0.0
  0
ENDBLK
  5
1F7
330
1EF
100
AcDbEntity
  8
0
370
    30
100
AcDbBlockEnd
  0
BLOCK
  5
1FC
330
1FB
100
AcDbEntity
  8
0
370
    30
100
AcDbBlockBegin
  2
*D11
 70
     1
 10
0.0
 20
0.0
 30
0.0
  3
*D11
  1
*D12
  0
LINE
  5
1FD
330
1FB
100
AcDbEntity
  8
文字
 62
     0
370
    -2
100
AcDbLine
 10
40.48144849809585
 20
75.73904318442703
 30
0.0
 11
60.90926558019783
 21
87.8979152102377
 31
0.0
  0
LINE
  5
1FE
330
1FB
100
AcDbEntity
  8
文字
 62
     0
370
    -2
100
AcDbLine
 10
25.87329883041992
 20
67.04410423773055
 30
0.0
 11
23.72504152634993
 21
65.7654367455693
 31
0.0
  0
MTEXT
  5
1FF
330
1FB
100
AcDbEntity
  8
文字
 62
     0
370
    30
100
AcDbMText
 10
56.96073764783546
 20
87.81504229546357
 30
0.0
 40
2.5
 41
0.0
 46
0.0
 71
     5
 72
     1
  1
%%c12
 11
0.8593029216279962
 21
0.5114669968644994
 31
0.0
 73
     1
 44
1.0
  0
LINE
  5
200
330
1FB
100
AcDbEntity
  8
文字
 62
     0
370
    -2
100
AcDbLine
 10
28.02155613448991
 20
68.3227717298918
 30
0.0
 11
38.33319119402586
 21
74.46037569226579
 31
0.0
  0
SOLID
  5
201
330
1FB
100
AcDbEntity
  8
文字
 62
     0
100
AcDbTrace
 10
26.08641007911346
 20
66.68606135371888
 30
0.0
 11
25.66018758172638
 21
67.40214712174222
 31
0.0
 12
28.02155613448991
 22
68.3227717298918
 32
0.0
 13
28.02155613448991
 23
68.3227717298918
 33
0.0
  0
SOLID
  5
202
330
1FB
100
AcDbEntity
  8
文字
 62
     0
100
AcDbTrace
 10
40.26833724940231
 20
76.0970860684387
 30
0.0
 11
40.69455974678939
 21
75.38100030041537
 31
0.0
 12
38.33319119402586
 22
74.46037569226579
 32
0.0
 13
38.33319119402586
 23
74.46037569226579
 33
0.0
  0
POINT
  5
203
330
1FB
100
AcDbEntity
  8
Defpoints
 62
     0
100
AcDbPoint
 10
38.33319119402586
 20
74.46037569226579
 30
0.0
  0
POINT
  5
204
330
1FB
100
AcDbEntity
  8
Defpoints
 62
     0
100
AcDbPoint
 10
28.02155613448991
 20
68.3227717298918
 30
0.0
  0
ENDBLK
  5
205
330
1FB
100
AcDbEntity
  8
0
370
    30
100
AcDbBlockEnd
  0
BLOCK
  5
20C
330
20B
100
AcDbEntity
  8
0
370
    30
100
AcDbBlockBegin
  2
*D12
 70
     1
 10
0.0
 20
0.0
 30
0.0
  3
*D12
  1
*D13
  0
LINE
  5
20D
330
20B
100
AcDbEntity
  8
文字
 62
     0
370
    -2
100
AcDbLine
 10
32.55237366425789
 20
71.39157371107879
 30
0.0
 11
10.74148970639593
 21
71.39157371107879
 31
0.0
  0
LINE
  5
20E
330
20B
100
AcDbEntity
  8
文字
 62
     0
370
    -2
100
AcDbLine
 10
32.55237366425786
 20
33.89157371107872
 30
0.0
 11
10.74148970639592
 21
33.89157371107872
 31
0.0
  0
LINE
  5
20F
330
20B
100
AcDbEntity
  8
文字
 62
     0
370
    -2
100
AcDbLine
 10
11.99148970639593
 20
68.89157371107879
 30
0.0
 11
11.99148970639592
 21
36.39157371107872
 31
0.0
  0
SOLID
  5
210
330
20B
100
AcDbEntity
  8
文字
 62
     0
100
AcDbTrace
 10
12.40815637306259
 20
68.89157371107879
 30
0.0
 11
11.57482303972926
 21
68.89157371107879
 31
0.0
 12
11.99148970639593
 22
71.39157371107879
 32
0.0
 13
11.99148970639593
 23
71.39157371107879
 33
0.0
  0
SOLID
  5
211
330
20B
100
AcDbEntity
  8
文字
 62
     0
100
AcDbTrace
 10
11.57482303972926
 20
36.39157371107872
 30
0.0
 11
12.40815637306259
 21
36.39157371107872
 31
0.0
 12
11.99148970639592
 22
33.89157371107872
 32
0.0
 13
11.99148970639592
 23
33.89157371107872
 33
0.0
  0
MTEXT
  5
212
330
20B
100
AcDbEntity
  8
文字
 62
     0
370
    30
100
AcDbMText
 10
10.09090989739183
 20
52.64157371107876
 30
0.0
 40
2.5
 41
0.0
 46
0.0
 71
     5
 72
     1
  1
37.5
 11
4.736951571733992E-17
 21
1.0
 31
0.0
 73
     1
 44
1.0
  0
POINT
  5
213
330
20B
100
AcDbEntity
  8
Defpoints
 62
     0
100
AcDbPoint
 10
33.17737366425789
 20
71.39157371107879
 30
0.0
  0
POINT
  5
214
330
20B
100
AcDbEntity
  8
Defpoints
 62
     0
100
AcDbPoint
 10
33.17737366425786
 20
33.89157371107872
 30
0.0
  0
POINT
  5
215
330
20B
100
AcDbEntity
  8
Defpoints
 62
     0
100
AcDbPoint
 10
11.99148970639592
 20
33.89157371107872
 30
0.0
  0
ENDBLK
  5
216
330
20B
100
AcDbEntity
  8
0
370
    30
100
AcDbBlockEnd
  0
BLOCK
  5
257
330
256
100
AcDbEntity
  8
0
100
AcDbBlockBegin
  2
*D13
 70
     1
 10
0.0
 20
0.0
 30
0.0
  3
*D13
  1
*D14
  0
LINE
  5
259
330
256
100
AcDbEntity
  8
文字
 62
     0
370
    -2
100
AcDbLine
 10
54.98675598713486
 20
97.99608182855536
 30
0.0
 11
24.30938232287701
 21
97.99608182855536
 31
0.0
  0
LINE
  5
25A
330
256
100
AcDbEntity
  8
文字
 62
     0
370
    -2
100
AcDbLine
 10
46.98136773454778
 20
39.9916324974876
 30
0.0
 11
24.30938232287701
 21
39.9916324974876
 31
0.0
  0
LINE
  5
25B
330
256
100
AcDbEntity
  8
文字
 62
     0
370
    -2
100
AcDbLine
 10
25.55938232287701
 20
95.49608182855536
 30
0.0
 11
25.55938232287701
 21
42.4916324974876
 31
0.0
  0
SOLID
  5
25C
330
256
100
AcDbEntity
  8
文字
 62
     0
100
AcDbTrace
 10
25.97604898954368
 20
95.49608182855536
 30
0.0
 11
25.14271565621035
 21
95.49608182855536
 31
0.0
 12
25.55938232287701
 22
97.99608182855536
 32
0.0
 13
25.55938232287701
 23
97.99608182855536
 33
0.0
  0
SOLID
  5
25D
330
256
100
AcDbEntity
  8
文字
 62
     0
100
AcDbTrace
 10
25.14271565621034
 20
42.4916324974876
 30
0.0
 11
25.97604898954368
 21
42.4916324974876
 31
0.0
 12
25.55938232287701
 22
39.9916324974876
 32
0.0
 13
25.55938232287701
 23
39.9916324974876
 33
0.0
  0
MTEXT
  5
25E
330
256
100
AcDbEntity
  8
文字
 62
     0
370
    30
100
AcDbMText
 10
23.65813232287701
 20
68.99385716302149
 30
0.0
 40
2.5
 41
0.0
 46
0.0
 71
     5
 72
     1
  1
58
 11
6.124898554803850E-17
 21
1.0
 31
0.0
 73
     1
 44
1.0
  0
POINT
  5
25F
330
256
100
AcDbEntity
  8
Defpoints
 62
     0
100
AcDbPoint
 10
55.61175598713486
 20
97.99608182855536
 30
0.0
  0
POINT
  5
260
330
256
100
AcDbEntity
  8
Defpoints
 62
     0
100
AcDbPoint
 10
47.60636773454778
 20
39.9916324974876
 30
0.0
  0
POINT
  5
261
330
256
100
AcDbEntity
  8
Defpoints
 62
     0
100
AcDbPoint
 10
25.55938232287701
 20
39.9916324974876
 30
0.0
  0
ENDBLK
  5
258
330
256
100
AcDbEntity
  8
0
100
AcDbBlockEnd
  0
BLOCK
  5
263
330
262
100
AcDbEntity
  8
0
100
AcDbBlockBegin
  2
*D14
 70
     1
 10
0.0
 20
0.0
 30
0.0
  3
*D14
  1
*D15
  0
LINE
  5
265
330
262
100
AcDbEntity
  8
文字
 62
     0
370
    -2
100
AcDbLine
 10
54.98675598713486
 20
47.99608182855535
 30
0.0
 11
33.17587202927291
 21
47.99608182855535
 31
0.0
  0
LINE
  5
266
330
262
100
AcDbEntity
  8
文字
 62
     0
370
    -2
100
AcDbLine
 10
46.3490881072671
 20
39.99395043739575
 30
0.0
 11
33.17587202927291
 21
39.99395043739575
 31
0.0
  0
LINE
  5
267
330
262
100
AcDbEntity
  8
文字
 62
     0
370
    -2
100
AcDbLine
 10
34.42587202927291
 20
45.49608182855535
 30
0.0
 11
34.42587202927291
 21
42.49395043739575
 31
0.0
  0
SOLID
  5
268
330
262
100
AcDbEntity
  8
文字
 62
     0
100
AcDbTrace
 10
34.84253869593957
 20
45.49608182855535
 30
0.0
 11
34.00920536260625
 21
45.49608182855535
 31
0.0
 12
34.42587202927291
 22
47.99608182855535
 32
0.0
 13
34.42587202927291
 23
47.99608182855535
 33
0.0
  0
SOLID
  5
269
330
262
100
AcDbEntity
  8
文字
 62
     0
100
AcDbTrace
 10
34.00920536260625
 20
42.49395043739575
 30
0.0
 11
34.84253869593957
 21
42.49395043739575
 31
0.0
 12
34.42587202927291
 22
39.99395043739575
 32
0.0
 13
34.42587202927291
 23
39.99395043739575
 33
0.0
  0
MTEXT
  5
26A
330
262
100
AcDbEntity
  8
文字
 62
     0
370
    30
100
AcDbMText
 10
32.52462202927291
 20
43.99501613297555
 30
0.0
 40
2.5
 41
0.0
 46
0.0
 71
     5
 72
     1
  1
8
 11
0.0
 21
1.0
 31
0.0
 73
     1
 44
1.0
  0
POINT
  5
26B
330
262
100
AcDbEntity
  8
Defpoints
 62
     0
100
AcDbPoint
 10
55.61175598713486
 20
47.99608182855535
 30
0.0
  0
POINT
  5
26C
330
262
100
AcDbEntity
  8
Defpoints
 62
     0
100
AcDbPoint
 10
46.9740881072671
 20
39.99395043739575
 30
0.0
  0
POINT
  5
26D
330
262
100
AcDbEntity
  8
Defpoints
 62
     0
100
AcDbPoint
 10
34.42587202927291
 20
39.99395043739575
 30
0.0
  0
ENDBLK
  5
264
330
262
100
AcDbEntity
  8
0
100
AcDbBlockEnd
  0
BLOCK
  5
26F
330
26E
100
AcDbEntity
  8
0
100
AcDbBlockBegin
  2
*D15
 70
     1
 10
0.0
 20
0.0
 30
0.0
  3
*D15
  1
*D16
  0
LINE
  5
271
330
26E
100
AcDbEntity
  8
文字
 62
     0
370
    -2
100
AcDbLine
 10
54.98675598713486
 20
97.99608182855536
 30
0.0
 11
33.17587202927291
 21
97.99608182855536
 31
0.0
  0
LINE
  5
272
330
26E
100
AcDbEntity
  8
文字
 62
     0
370
    -2
100
AcDbLine
 10
54.98675598713486
 20
85.49608182855536
 30
0.0
 11
33.17587202927291
 21
85.49608182855536
 31
0.0
  0
LINE
  5
273
330
26E
100
AcDbEntity
  8
文字
 62
     0
370
    -2
100
AcDbLine
 10
34.42587202927291
 20
95.49608182855536
 30
0.0
 11
34.42587202927291
 21
87.99608182855536
 31
0.0
  0
SOLID
  5
274
330
26E
100
AcDbEntity
  8
文字
 62
     0
100
AcDbTrace
 10
34.84253869593957
 20
95.49608182855536
 30
0.0
 11
34.00920536260625
 21
95.49608182855536
 31
0.0
 12
34.42587202927291
 22
97.99608182855536
 32
0.0
 13
34.42587202927291
 23
97.99608182855536
 33
0.0
  0
SOLID
  5
275
330
26E
100
AcDbEntity
  8
文字
 62
     0
100
AcDbTrace
 10
34.00920536260625
 20
87.99608182855536
 30
0.0
 11
34.84253869593957
 21
87.99608182855536
 31
0.0
 12
34.42587202927291
 22
85.49608182855536
 32
0.0
 13
34.42587202927291
 23
85.49608182855536
 33
0.0
  0
MTEXT
  5
276
330
26E
100
AcDbEntity
  8
文字
 62
     0
370
    30
100
AcDbMText
 10
32.5246220292729
 20
91.74608182855536
 30
0.0
 40
2.5
 41
0.0
 46
0.0
 71
     5
 72
     1
  1
12.5
 11
0.0
 21
1.0
 31
0.0
 73
     1
 44
1.0
  0
POINT
  5
277
330
26E
100
AcDbEntity
  8
Defpoints
 62
     0
100
AcDbPoint
 10
55.61175598713486
 20
97.99608182855536
 30
0.0
  0
POINT
  5
278
330
26E
100
AcDbEntity
  8
Defpoints
 62
     0
100
AcDbPoint
 10
55.61175598713486
 20
85.49608182855536
 30
0.0
  0
POINT
  5
279
330
26E
100
AcDbEntity
  8
Defpoints
 62
     0
100
AcDbPoint
 10
34.42587202927291
 20
85.49608182855536
 30
0.0
  0
ENDBLK
  5
270
330
26E
100
AcDbEntity
  8
0
100
AcDbBlockEnd
  0
BLOCK
  5
27B
330
27A
100
AcDbEntity
  8
0
100
AcDbBlockBegin
  2
*D16
 70
     1
 10
0.0
 20
0.0
 30
0.0
  3
*D16
  1
*D17
  0
LINE
  5
27D
330
27A
100
AcDbEntity
  8
文字
 62
     0
370
    -2
100
AcDbLine
 10
43.11175598713486
 20
93.62108182855536
 30
0.0
 11
43.11175598713486
 21
108.4885602910771
 31
0.0
  0
LINE
  5
27E
330
27A
100
AcDbEntity
  8
文字
 62
     0
370
    -2
100
AcDbLine
 10
68.11175598713484
 20
93.62108182855536
 30
0.0
 11
68.11175598713484
 21
108.4885602910771
 31
0.0
  0
LINE
  5
27F
330
27A
100
AcDbEntity
  8
文字
 62
     0
370
    -2
100
AcDbLine
 10
45.61175598713486
 20
107.2385602910771
 30
0.0
 11
65.61175598713484
 21
107.2385602910771
 31
0.0
  0
SOLID
  5
280
330
27A
100
AcDbEntity
  8
文字
 62
     0
100
AcDbTrace
 10
45.61175598713486
 20
107.6552269577438
 30
0.0
 11
45.61175598713486
 21
106.8218936244104
 31
0.0
 12
43.11175598713486
 22
107.2385602910771
 32
0.0
 13
43.11175598713486
 23
107.2385602910771
 33
0.0
  0
SOLID
  5
281
330
27A
100
AcDbEntity
  8
文字
 62
     0
100
AcDbTrace
 10
65.61175598713484
 20
106.8218936244104
 30
0.0
 11
65.61175598713484
 21
107.6552269577438
 31
0.0
 12
68.11175598713484
 22
107.2385602910771
 32
0.0
 13
68.11175598713484
 23
107.2385602910771
 33
0.0
  0
MTEXT
  5
282
330
27A
100
AcDbEntity
  8
文字
 62
     0
370
    30
100
AcDbMText
 10
55.61175598713486
 20
109.1398102910771
 30
0.0
 40
2.5
 41
0.0
 46
0.0
 71
     5
 72
     1
  1
25
 73
     1
 44
1.0
  0
POINT
  5
283
330
27A
100
AcDbEntity
  8
Defpoints
 62
     0
100
AcDbPoint
 10
43.11175598713486
 20
92.99608182855536
 30
0.0
  0
POINT
  5
284
330
27A
100
AcDbEntity
  8
Defpoints
 62
     0
100
AcDbPoint
 10
68.11175598713484
 20
92.99608182855536
 30
0.0
  0
POINT
  5
285
330
27A
100
AcDbEntity
  8
Defpoints
 62
     0
100
AcDbPoint
 10
68.11175598713484
 20
107.2385602910771
 30
0.0
  0
ENDBLK
  5
27C
330
27A
100
AcDbEntity
  8
0
100
AcDbBlockEnd
  0
BLOCK
  5
287
330
286
100
AcDbEntity
  8
0
100
AcDbBlockBegin
  2
*D17
 70
     1
 10
0.0
 20
0.0
 30
0.0
  3
*D17
  1
*D18
  0
LINE
  5
289
330
286
100
AcDbEntity
  8
文字
 62
     0
370
    -2
100
AcDbLine
 10
127.0972681317169
 20
98.06495351484764
 30
0.0
 11
109.3509841600269
 21
98.06495351484764
 31
0.0
  0
LINE
  5
28A
330
286
100
AcDbEntity
  8
文字
 62
     0
370
    -2
100
AcDbLine
 10
126.8993294874823
 20
73.06020815364664
 30
0.0
 11
109.3509841600269
 21
73.06020815364664
 31
0.0
  0
LINE
  5
28B
330
286
100
AcDbEntity
  8
文字
 62
     0
370
    -2
100
AcDbLine
 10
110.6009841600269
 20
95.56495351484764
 30
0.0
 11
110.6009841600269
 21
75.56020815364664
 31
0.0
  0
SOLID
  5
28C
330
286
100
AcDbEntity
  8
文字
 62
     0
100
AcDbTrace
 10
111.0176508266936
 20
95.56495351484764
 30
0.0
 11
110.1843174933603
 21
95.56495351484764
 31
0.0
 12
110.6009841600269
 22
98.06495351484764
 32
0.0
 13
110.6009841600269
 23
98.06495351484764
 33
0.0
  0
SOLID
  5
28D
330
286
100
AcDbEntity
  8
文字
 62
     0
100
AcDbTrace
 10
110.1843174933603
 20
75.56020815364664
 30
0.0
 11
111.0176508266936
 21
75.56020815364664
 31
0.0
 12
110.6009841600269
 22
73.06020815364664
 32
0.0
 13
110.6009841600269
 23
73.06020815364664
 33
0.0
  0
MTEXT
  5
28E
330
286
100
AcDbEntity
  8
文字
 62
     0
370
    30
100
AcDbMText
 10
108.6997341600269
 20
85.56258083424714
 30
0.0
 40
2.5
 41
0.0
 46
0.0
 71
     5
 72
     1
  1
25
 11
0.0
 21
1.0
 31
0.0
 73
     1
 44
1.0
  0
POINT
  5
28F
330
286
100
AcDbEntity
  8
Defpoints
 62
     0
100
AcDbPoint
 10
127.7222681317169
 20
98.06495351484764
 30
0.0
  0
POINT
  5
290
330
286
100
AcDbEntity
  8
Defpoints
 62
     0
100
AcDbPoint
 10
127.5243294874823
 20
73.06020815364664
 30
0.0
  0
POINT
  5
291
330
286
100
AcDbEntity
  8
Defpoints
 62
     0
100
AcDbPoint
 10
110.6009841600269
 20
73.06020815364664
 30
0.0
  0
ENDBLK
  5
288
330
286
100
AcDbEntity
  8
0
100
AcDbBlockEnd
  0
BLOCK
  5
293
330
292
100
AcDbEntity
  8
0
100
AcDbBlockBegin
  2
*D18
 70
     1
 10
0.0
 20
0.0
 30
0.0
  3
*D18
  1
*D19
  0
LINE
  5
295
330
292
100
AcDbEntity
  8
文字
 62
     0
370
    -2
100
AcDbLine
 10
123.374734387647
 20
39.23621348608486
 30
0.0
 11
141.4837286767836
 21
39.23621348608486
 31
0.0
  0
LINE
  5
296
330
292
100
AcDbEntity
  8
文字
 62
     0
370
    -2
100
AcDbLine
 10
123.3472681317169
 20
64.23436542196367
 30
0.0
 11
141.4837286767836
 21
64.23436542196367
 31
0.0
  0
LINE
  5
297
330
292
100
AcDbEntity
  8
文字
 62
     0
370
    -2
100
AcDbLine
 10
140.2337286767836
 20
41.73621348608486
 30
0.0
 11
140.2337286767836
 21
61.73436542196367
 31
0.0
  0
SOLID
  5
298
330
292
100
AcDbEntity
  8
文字
 62
     0
100
AcDbTrace
 10
139.817062010117
 20
41.73621348608486
 30
0.0
 11
140.6503953434503
 21
41.73621348608486
 31
0.0
 12
140.2337286767836
 22
39.23621348608486
 32
0.0
 13
140.2337286767836
 23
39.23621348608486
 33
0.0
  0
SOLID
  5
299
330
292
100
AcDbEntity
  8
文字
 62
     0
100
AcDbTrace
 10
140.6503953434503
 20
61.73436542196367
 30
0.0
 11
139.817062010117
 21
61.73436542196367
 31
0.0
 12
140.2337286767836
 22
64.23436542196367
 32
0.0
 13
140.2337286767836
 23
64.23436542196367
 33
0.0
  0
MTEXT
  5
29A
330
292
100
AcDbEntity
  8
文字
 62
     0
370
    30
100
AcDbMText
 10
138.3324786767836
 20
51.73528945402427
 30
0.0
 40
2.5
 41
0.0
 46
0.0
 71
     5
 72
     1
  1
25
 11
0.0
 21
1.0
 31
0.0
 73
     1
 44
1.0
  0
POINT
  5
29B
330
292
100
AcDbEntity
  8
Defpoints
 62
     0
100
AcDbPoint
 10
122.749734387647
 20
39.23621348608486
 30
0.0
  0
POINT
  5
29C
330
292
100
AcDbEntity
  8
Defpoints
 62
     0
100
AcDbPoint
 10
122.7222681317169
 20
64.23436542196367
 30
0.0
  0
POINT
  5
29D
330
292
100
AcDbEntity
  8
Defpoints
 62
     0
100
AcDbPoint
 10
140.2337286767836
 20
64.23436542196367
 30
0.0
  0
ENDBLK
  5
294
330
292
100
AcDbEntity
  8
0
100
AcDbBlockEnd
  0
BLOCK
  5
29F
330
29E
100
AcDbEntity
  8
0
100
AcDbBlockBegin
  2
*D19
 70
     1
 10
0.0
 20
0.0
 30
0.0
  3
*D19
  1
*D20
  0
LINE
  5
2A1
330
29E
100
AcDbEntity
  8
文字
 62
     0
370
    -2
100
AcDbLine
 10
127.7222681317169
 20
98.7050268546683
 30
0.0
 11
127.7222681317169
 21
106.01697323039
 31
0.0
  0
LINE
  5
2A2
330
29E
100
AcDbEntity
  8
文字
 62
     0
370
    -2
100
AcDbLine
 10
129.7222681317169
 20
98.15995351484764
 30
0.0
 11
129.7222681317169
 21
106.01697323039
 31
0.0
  0
LINE
  5
2A3
330
29E
100
AcDbEntity
  8
文字
 62
     0
370
    -2
100
AcDbLine
 10
132.2222681317169
 20
104.76697323039
 30
0.0
 11
137.6247681317169
 21
104.76697323039
 31
0.0
  0
LINE
  5
2A4
330
29E
100
AcDbEntity
  8
文字
 62
     0
370
    -2
100
AcDbLine
 10
127.7222681317169
 20
104.76697323039
 30
0.0
 11
129.7222681317169
 21
104.76697323039
 31
0.0
  0
LINE
  5
2A5
330
29E
100
AcDbEntity
  8
文字
 62
     0
370
    -2
100
AcDbLine
 10
125.2222681317169
 20
104.76697323039
 30
0.0
 11
122.7222681317169
 21
104.76697323039
 31
0.0
  0
SOLID
  5
2A6
330
29E
100
AcDbEntity
  8
文字
 62
     0
100
AcDbTrace
 10
125.2222681317169
 20
104.3503065637234
 30
0.0
 11
125.2222681317169
 21
105.1836398970567
 31
0.0
 12
127.7222681317169
 22
104.76697323039
 32
0.0
 13
127.7222681317169
 23
104.76697323039
 33
0.0
  0
SOLID
  5
2A7
330
29E
100
AcDbEntity
  8
文字
 62
     0
100
AcDbTrace
 10
132.2222681317169
 20
105.1836398970567
 30
0.0
 11
132.2222681317169
 21
104.3503065637234
 31
0.0
 12
129.7222681317169
 22
104.76697323039
 32
0.0
 13
129.7222681317169
 23
104.76697323039
 33
0.0
  0
MTEXT
  5
2A8
330
29E
100
AcDbEntity
  8
文字
 62
     0
370
    30
100
AcDbMText
 10
136.1735181317169
 20
106.64697323039
 30
0.0
 40
2.5
 41
0.0
 46
0.0
 71
     5
 72
     1
  1
2
 73
     1
 44
1.0
  0
POINT
  5
2A9
330
29E
100
AcDbEntity
  8
Defpoints
 62
     0
100
AcDbPoint
 10
127.7222681317169
 20
98.0800268546683
 30
0.0
  0
POINT
  5
2AA
330
29E
100
AcDbEntity
  8
Defpoints
 62
     0
100
AcDbPoint
 10
129.7222681317169
 20
97.53495351484764
 30
0.0
  0
POINT
  5
2AB
330
29E
100
AcDbEntity
  8
Defpoints
 62
     0
100
AcDbPoint
 10
129.7222681317169
 20
104.76697323039
 30
0.0
  0
ENDBLK
  5
2A0
330
29E
100
AcDbEntity
  8
0
100
AcDbBlockEnd
  0
BLOCK
  5
2AD
330
2AC
100
AcDbEntity
  8
0
100
AcDbBlockBegin
  2
*D20
 70
     1
 10
0.0
 20
0.0
 30
0.0
  3
*D20
  1
*D21
  0
LINE
  5
2AF
330
2AC
100
AcDbEntity
  8
文字
 62
     0
370
    -2
100
AcDbLine
 10
120.7222681317169
 20
64.85936542196364
 30
0.0
 11
120.7222681317169
 21
106.01697323039
 31
0.0
  0
LINE
  5
2B0
330
2AC
100
AcDbEntity
  8
文字
 62
     0
370
    -2
100
AcDbLine
 10
127.7222681317169
 20
98.78495351484764
 30
0.0
 11
127.7222681317169
 21
106.01697323039
 31
0.0
  0
LINE
  5
2B1
330
2AC
100
AcDbEntity
  8
文字
 62
     0
370
    -2
100
AcDbLine
 10
123.2222681317169
 20
104.76697323039
 30
0.0
 11
125.2222681317169
 21
104.76697323039
 31
0.0
  0
SOLID
  5
2B2
330
2AC
100
AcDbEntity
  8
文字
 62
     0
100
AcDbTrace
 10
123.2222681317169
 20
105.1836398970567
 30
0.0
 11
123.2222681317169
 21
104.3503065637234
 31
0.0
 12
120.7222681317169
 22
104.76697323039
 32
0.0
 13
120.7222681317169
 23
104.76697323039
 33
0.0
  0
SOLID
  5
2B3
330
2AC
100
AcDbEntity
  8
文字
 62
     0
100
AcDbTrace
 10
125.2222681317169
 20
104.3503065637234
 30
0.0
 11
125.2222681317169
 21
105.1836398970567
 31
0.0
 12
127.7222681317169
 22
104.76697323039
 32
0.0
 13
127.7222681317169
 23
104.76697323039
 33
0.0
  0
MTEXT
  5
2B4
330
2AC
100
AcDbEntity
  8
文字
 62
     0
370
    30
100
AcDbMText
 10
123.8660336683539
 20
106.64197323039
 30
0.0
 40
2.5
 41
0.0
 46
0.0
 71
     5
 72
     1
  1
7
 73
     1
 44
1.0
  0
POINT
  5
2B5
330
2AC
100
AcDbEntity
  8
Defpoints
 62
     0
100
AcDbPoint
 10
120.7222681317169
 20
64.23436542196364
 30
0.0
  0
POINT
  5
2B6
330
2AC
100
AcDbEntity
  8
Defpoints
 62
     0
100
AcDbPoint
 10
127.7222681317169
 20
98.15995351484764
 30
0.0
  0
POINT
  5
2B7
330
2AC
100
AcDbEntity
  8
Defpoints
 62
     0
100
AcDbPoint
 10
127.7222681317169
 20
104.76697323039
 30
0.0
  0
ENDBLK
  5
2AE
330
2AC
100
AcDbEntity
  8
0
100
AcDbBlockEnd
  0
BLOCK
  5
2B9
330
2B8
100
AcDbEntity
  8
0
100
AcDbBlockBegin
  2
*D21
 70
     1
 10
0.0
 20
0.0
 30
0.0
  3
*D21
  1
*D22
  0
LINE
  5
2BB
330
2B8
100
AcDbEntity
  8
文字
 62
     0
370
    -2
100
AcDbLine
 10
120.7222681317169
 20
64.85936542196364
 30
0.0
 11
120.7222681317169
 21
113.5680361474388
 31
0.0
  0
LINE
  5
2BC
330
2B8
100
AcDbEntity
  8
文字
 62
     0
370
    -2
100
AcDbLine
 10
129.7222681317169
 20
98.7050268546683
 30
0.0
 11
129.7222681317169
 21
113.5680361474388
 31
0.0
  0
LINE
  5
2BD
330
2B8
100
AcDbEntity
  8
文字
 62
     0
370
    -2
100
AcDbLine
 10
123.2222681317169
 20
112.3180361474388
 30
0.0
 11
127.2222681317169
 21
112.3180361474388
 31
0.0
  0
SOLID
  5
2BE
330
2B8
100
AcDbEntity
  8
文字
 62
     0
100
AcDbTrace
 10
123.2222681317169
 20
112.7347028141055
 30
0.0
 11
123.2222681317169
 21
111.9013694807721
 31
0.0
 12
120.7222681317169
 22
112.3180361474388
 32
0.0
 13
120.7222681317169
 23
112.3180361474388
 33
0.0
  0
SOLID
  5
2BF
330
2B8
100
AcDbEntity
  8
文字
 62
     0
100
AcDbTrace
 10
127.2222681317169
 20
111.9013694807721
 30
0.0
 11
127.2222681317169
 21
112.7347028141055
 31
0.0
 12
129.7222681317169
 22
112.3180361474388
 32
0.0
 13
129.7222681317169
 23
112.3180361474388
 33
0.0
  0
MTEXT
  5
2C0
330
2B8
100
AcDbEntity
  8
文字
 62
     0
370
    30
100
AcDbMText
 10
125.1810404788101
 20
114.2192861474388
 30
0.0
 40
2.5
 41
0.0
 46
0.0
 71
     5
 72
     1
  1
9
 73
     1
 44
1.0
  0
POINT
  5
2C1
330
2B8
100
AcDbEntity
  8
Defpoints
 62
     0
100
AcDbPoint
 10
120.7222681317169
 20
64.23436542196364
 30
0.0
  0
POINT
  5
2C2
330
2B8
100
AcDbEntity
  8
Defpoints
 62
     0
100
AcDbPoint
 10
129.7222681317169
 20
98.0800268546683
 30
0.0
  0
POINT
  5
2C3
330
2B8
100
AcDbEntity
  8
Defpoints
 62
     0
100
AcDbPoint
 10
129.7222681317169
 20
112.3180361474388
 30
0.0
  0
ENDBLK
  5
2BA
330
2B8
100
AcDbEntity
  8
0
100
AcDbBlockEnd
  0
BLOCK
  5
2C5
330
2C4
100
AcDbEntity
  8
0
100
AcDbBlockBegin
  2
*D22
 70
     1
 10
0.0
 20
0.0
 30
0.0
  3
*D22
  1
*D23
  0
LINE
  5
2C7
330
2C4
100
AcDbEntity
  8
文字
 62
     0
370
    -2
100
AcDbLine
 10
64.28951636859287
 20
53.90763617254964
 30
0.0
 11
78.37457886597642
 21
63.50280920472426
 31
0.0
  0
MTEXT
  5
2C8
330
2C4
100
AcDbEntity
  8
文字
 62
     0
370
    30
100
AcDbMText
 10
75.12129531321023
 20
63.58706625369302
 30
0.0
 40
2.5
 41
0.0
 46
0.0
 71
     5
 72
     1
  1
R8
 11
0.8264533696626661
 21
0.5630051756185058
 31
0.0
 73
     1
 44
1.0
  0
LINE
  5
2C9
330
2C4
100
AcDbEntity
  8
文字
 62
     0
370
    -2
100
AcDbLine
 10
55.611755987135
 20
47.99608182855541
 30
0.0
 11
62.2233829444362
 21
52.50012323350337
 31
0.0
  0
SOLID
  5
2CA
330
2C4
100
AcDbEntity
  8
文字
 62
     0
100
AcDbTrace
 10
64.05493087875183
 20
54.25199174324241
 30
0.0
 11
64.52410185843391
 21
53.56328060185686
 31
0.0
 12
62.2233829444362
 22
52.50012323350337
 32
0.0
 13
62.2233829444362
 23
52.50012323350337
 33
0.0
  0
POINT
  5
2CB
330
2C4
100
AcDbEntity
  8
Defpoints
 62
     0
100
AcDbPoint
 10
62.2233829444362
 20
52.50012323350337
 30
0.0
  0
POINT
  5
2CC
330
2C4
100
AcDbEntity
  8
Defpoints
 62
     0
100
AcDbPoint
 10
55.611755987135
 20
47.99608182855541
 30
0.0
  0
ENDBLK
  5
2C6
330
2C4
100
AcDbEntity
  8
0
100
AcDbBlockEnd
  0
BLOCK
  5
2CE
330
2CD
100
AcDbEntity
  8
0
100
AcDbBlockBegin
  2
*D23
 70
     1
 10
0.0
 20
0.0
 30
0.0
  3
*D23
  1
*D24
  0
LINE
  5
2D0
330
2CD
100
AcDbEntity
  8
文字
 62
     0
370
    -2
100
AcDbLine
 10
62.91583082097284
 20
89.84355130190363
 30
0.0
 11
83.33796073622821
 21
101.9990382604994
 31
0.0
  0
LINE
  5
2D1
330
2CD
100
AcDbEntity
  8
文字
 62
     0
370
    -2
100
AcDbLine
 10
48.3076811532969
 20
81.14861235520715
 30
0.0
 11
46.15942384922691
 21
79.8699448630459
 31
0.0
  0
MTEXT
  5
2D2
330
2CD
100
AcDbEntity
  8
文字
 62
     0
370
    30
100
AcDbMText
 10
79.39618320104869
 20
101.9177641062187
 30
0.0
 40
2.5
 41
0.0
 46
0.0
 71
     5
 72
     1
  1
%%c12
 11
0.8593029216279962
 21
0.5114669968644994
 31
0.0
 73
     1
 44
1.0
  0
LINE
  5
2D3
330
2CD
100
AcDbEntity
  8
文字
 62
     0
370
    -2
100
AcDbLine
 10
50.4559384573669
 20
82.4272798473684
 30
0.0
 11
60.76757351690284
 21
88.56488380974238
 31
0.0
  0
SOLID
  5
2D4
330
2CD
100
AcDbEntity
  8
文字
 62
     0
100
AcDbTrace
 10
48.52079240199045
 20
80.79056947119548
 30
0.0
 11
48.09456990460336
 21
81.50665523921882
 31
0.0
 12
50.4559384573669
 22
82.4272798473684
 32
0.0
 13
50.4559384573669
 23
82.4272798473684
 33
0.0
  0
SOLID
  5
2D5
330
2CD
100
AcDbEntity
  8
文字
 62
     0
100
AcDbTrace
 10
62.70271957227929
 20
90.2015941859153
 30
0.0
 11
63.12894206966638
 21
89.48550841789196
 31
0.0
 12
60.76757351690284
 22
88.56488380974238
 32
0.0
 13
60.76757351690284
 23
88.56488380974238
 33
0.0
  0
POINT
  5
2D6
330
2CD
100
AcDbEntity
  8
Defpoints
 62
     0
100
AcDbPoint
 10
60.76757351690284
 20
88.56488380974238
 30
0.0
  0
POINT
  5
2D7
330
2CD
100
AcDbEntity
  8
Defpoints
 62
     0
100
AcDbPoint
 10
50.4559384573669
 20
82.4272798473684
 30
0.0
  0
ENDBLK
  5
2CF
330
2CD
100
AcDbEntity
  8
0
100
AcDbBlockEnd
  0
BLOCK
  5
2D9
330
2D8
100
AcDbEntity
  8
0
100
AcDbBlockBegin
  2
*D24
 70
     1
 10
0.0
 20
0.0
 30
0.0
  3
*D24
  1
*D25
  0
LINE
  5
2DB
330
2D8
100
AcDbEntity
  8
文字
 62
     0
370
    -2
100
AcDbLine
 10
54.98675598713487
 20
85.49608182855539
 30
0.0
 11
33.17587202927291
 21
85.49608182855539
 31
0.0
  0
LINE
  5
2DC
330
2D8
100
AcDbEntity
  8
文字
 62
     0
370
    -2
100
AcDbLine
 10
54.98675598713484
 20
47.99608182855531
 30
0.0
 11
33.17587202927291
 21
47.99608182855531
 31
0.0
  0
LINE
  5
2DD
330
2D8
100
AcDbEntity
  8
文字
 62
     0
370
    -2
100
AcDbLine
 10
34.42587202927291
 20
82.99608182855539
 30
0.0
 11
34.42587202927291
 21
50.49608182855531
 31
0.0
  0
SOLID
  5
2DE
330
2D8
100
AcDbEntity
  8
文字
 62
     0
100
AcDbTrace
 10
34.84253869593957
 20
82.99608182855539
 30
0.0
 11
34.00920536260625
 21
82.99608182855539
 31
0.0
 12
34.42587202927291
 22
85.49608182855539
 32
0.0
 13
34.42587202927291
 23
85.49608182855539
 33
0.0
  0
SOLID
  5
2DF
330
2D8
100
AcDbEntity
  8
文字
 62
     0
100
AcDbTrace
 10
34.00920536260625
 20
50.49608182855531
 30
0.0
 11
34.84253869593957
 21
50.49608182855531
 31
0.0
 12
34.42587202927291
 22
47.99608182855531
 32
0.0
 13
34.42587202927291
 23
47.99608182855531
 33
0.0
  0
MTEXT
  5
2E0
330
2D8
100
AcDbEntity
  8
文字
 62
     0
370
    30
100
AcDbMText
 10
32.5246220292729
 20
66.74608182855535
 30
0.0
 40
2.5
 41
0.0
 46
0.0
 71
     5
 72
     1
  1
37.5
 11
0.0
 21
1.0
 31
0.0
 73
     1
 44
1.0
  0
POINT
  5
2E1
330
2D8
100
AcDbEntity
  8
Defpoints
 62
     0
100
AcDbPoint
 10
55.61175598713487
 20
85.49608182855539
 30
0.0
  0
POINT
  5
2E2
330
2D8
100
AcDbEntity
  8
Defpoints
 62
     0
100
AcDbPoint
 10
55.61175598713484
 20
47.99608182855531
 30
0.0
  0
POINT
  5
2E3
330
2D8
100
AcDbEntity
  8
Defpoints
 62
     0
100
AcDbPoint
 10
34.42587202927291
 20
47.99608182855531
 30
0.0
  0
ENDBLK
  5
2DA
330
2D8
100
AcDbEntity
  8
0
100
AcDbBlockEnd
  0
ENDSEC
  0
SECTION
  2
ENTITIES
  0
LWPOLYLINE
  5
21A
102
{ACAD_REACTORS
330
232
330
238
330
23B
102
}
330
1F
100
AcDbEntity
  8
実線
 62
     0
370
    30
100
AcDbPolyline
 90
        8
 70
     0
 43
0.0
 10
63.61175598713486
 20
40.02114464302226
 42
0.385170388214726
 10
68.11175598713484
 20
44.99608182855535
 10
68.11175598713486
 20
92.99608182855536
 42
0.414213562373095
 10
63.11175598713486
 20
97.99608182855536
 10
48.11175598713486
 20
97.99608182855536
 42
0.414213562373095
 10
43.11175598713486
 20
92.99608182855536
 10
43.11175598713486
 20
44.99608182855535
 42
0.3851703882147262
 10
47.61175598713486
 20
40.02114464302226
 42
0.3851703882147262
  0
LINE
  5
21B
330
1F
100
AcDbEntity
  8
中心線
 62
     0
370
    30
100
AcDbLine
 10
28.11175598713487
 20
85.49608182855536
 30
0.0
 11
153.001478105763
 21
85.62170960584969
 31
0.0
  0
LINE
  5
21C
330
1F
100
AcDbEntity
  8
中心線
 62
     0
370
    30
100
AcDbLine
 10
55.61175598713486
 20
123.2935065266125
 30
0.0
 11
55.61175598713484
 21
26.90193281553368
 31
0.0
  0
CIRCLE
  5
21D
102
{ACAD_REACTORS
330
238
330
250
102
}
330
1F
100
AcDbEntity
  8
実線
 62
     0
370
    30
100
AcDbCircle
 10
55.61175598713486
 20
85.49608182855536
 30
0.0
 40
6.0
  0
ARC
  5
21E
102
{ACAD_REACTORS
330
235
330
24D
102
}
330
1F
100
AcDbEntity
  8
実線
 62
     0
370
    30
100
AcDbCircle
 10
55.61175598713486
 20
47.99608182855535
 30
0.0
 40
8.0
100
AcDbArc
 50
0.0
 51
180.0
  0
LINE
  5
21F
330
1F
100
AcDbEntity
  8
実線
 62
     0
370
    30
100
AcDbLine
 10
63.61175598713486
 20
47.99608182855535
 30
0.0
 11
63.61175598713486
 21
40.02114464302226
 31
0.0
  0
LINE
  5
220
330
1F
100
AcDbEntity
  8
実線
 62
     0
370
    30
100
AcDbLine
 10
47.61175598713486
 20
47.99608182855535
 30
0.0
 11
47.61175598713486
 21
40.02114464302226
 31
0.0
  0
LINE
  5
221
330
1F
100
AcDbEntity
  8
実線
 62
     0
370
    30
100
AcDbLine
 10
127.7222681317169
 20
85.03495351484764
 30
0.0
 11
127.7222681317169
 21
98.0800268546683
 31
0.0
  0
LINE
  5
222
102
{ACAD_REACTORS
330
244
102
}
330
1F
100
AcDbEntity
  8
実線
 62
     0
370
    30
100
AcDbLine
 10
127.7222681317169
 20
98.0800268546683
 30
0.0
 11
129.7222681317169
 21
98.0800268546683
 31
0.0
  0
LINE
  5
223
102
{ACAD_REACTORS
330
244
102
}
330
1F
100
AcDbEntity
  8
実線
 62
     0
370
    30
100
AcDbLine
 10
129.7222681317169
 20
97.53495351484764
 30
0.0
 11
129.7222681317169
 21
73.58701183994145
 31
0.0
  0
LINE
  5
224
330
1F
100
AcDbEntity
  8
実線
 62
     0
370
    30
100
AcDbLine
 10
129.0294828768961
 20
71.7431989379096
 30
0.0
 11
122.9202067759514
 21
64.76116910825849
 31
0.0
  0
LINE
  5
225
330
1F
100
AcDbEntity
  8
実線
 62
     0
370
    30
100
AcDbLine
 10
122.7222681317169
 20
64.23436542196367
 30
0.0
 11
122.7222681317169
 21
39.1310820544857
 31
0.0
  0
LINE
  5
226
330
1F
100
AcDbEntity
  8
実線
 62
     0
370
    30
100
AcDbLine
 10
122.7222681317169
 20
39.1310820544857
 30
0.0
 11
120.7222681317169
 21
39.1310820544857
 31
0.0
  0
LINE
  5
227
330
1F
100
AcDbEntity
  8
実線
 62
     0
370
    30
100
AcDbLine
 10
120.7222681317169
 20
39.1310820544857
 30
0.0
 11
120.7222681317169
 21
64.23436542196364
 31
0.0
  0
LINE
  5
228
330
1F
100
AcDbEntity
  8
実線
 62
     0
370
    30
100
AcDbLine
 10
127.7222681317168
 20
73.58701183994145
 30
0.0
 11
127.7222681317169
 21
85.03495351484764
 31
0.0
  0
LINE
  5
229
102
{ACAD_REACTORS
330
23E
102
}
330
1F
100
AcDbEntity
  8
実線
 62
     0
370
    30
100
AcDbLine
 10
127.5243294874823
 20
73.06020815364664
 30
0.0
 11
121.4150533865376
 21
66.0781783239955
 31
0.0
  0
ARC
  5
22A
102
{ACAD_REACTORS
330
247
330
24A
102
}
330
1F
100
AcDbEntity
  8
実線
 62
     0
370
    30
100
AcDbCircle
 10
123.5222681317169
 20
64.23436542196364
 30
0.0
 40
2.8
100
AcDbArc
 50
138.8140748342902
 51
180.0
  0
ARC
  5
22B
330
1F
100
AcDbEntity
  8
実線
 62
     0
370
    30
100
AcDbCircle
 10
126.9222681317169
 20
73.58701183994145
 30
0.0
 40
2.8
100
AcDbArc
 50
318.8140748342901
 51
0.0
  0
ARC
  5
22C
102
{ACAD_REACTORS
330
241
102
}
330
1F
100
AcDbEntity
  8
実線
 62
     0
370
    30
100
AcDbCircle
 10
123.5222681317169
 20
64.23436542196367
 30
0.0
 40
0.8
100
AcDbArc
 50
138.8140748342904
 51
180.0
  0
ARC
  5
22D
102
{ACAD_REACTORS
330
23E
102
}
330
1F
100
AcDbEntity
  8
実線
 62
     0
370
    30
100
AcDbCircle
 10
126.9222681317168
 20
73.58701183994145
 30
0.0
 40
0.8
100
AcDbArc
 50
318.8140748342904
 51
0.0
  0
LINE
  5
22E
330
1F
100
AcDbEntity
  8
破線
 62
     0
370
    30
100
AcDbLine
 10
43.11175598713486
 20
72.99608182855536
 30
0.0
 11
68.11175598713486
 21
72.99608182855536
 31
0.0
  0
LINE
  5
22F
330
1F
100
AcDbEntity
  8
破線
 62
     0
370
    30
100
AcDbLine
 10
43.11175598713486
 20
64.99608182855536
 30
0.0
 11
68.11175598713486
 21
64.99608182855536
 31
0.0
  0
DIMENSION
  5
230
102
{ACAD_REACTORS
330
232
102
}
102
{ACAD_XDICTIONARY
360
231
102
}
330
1F
100
AcDbEntity
  8
文字
 62
     0
370
    30
100
AcDbDimension
280
     0
  2
*D13
 10
25.55938232287701
 20
39.9916324974876
 30
0.0
 11
23.65813232287701
 21
68.99385716302149
 31
0.0
 70
    32
 71
     5
 42
58.00444933106776
 73
     0
 74
     0
 75
     0
  3
ISO-25
100
AcDbAlignedDimension
 13
55.61175598713486
 23
97.99608182855536
 33
0.0
 14
47.60636773454778
 24
39.9916324974876
 34
0.0
 50
90.0
100
AcDbRotatedDimension
  0
DIMENSION
  5
233
102
{ACAD_REACTORS
330
235
102
}
102
{ACAD_XDICTIONARY
360
234
102
}
330
1F
100
AcDbEntity
  8
文字
 62
     0
370
    30
100
AcDbDimension
280
     0
  2
*D14
 10
34.42587202927291
 20
39.99395043739575
 30
0.0
 11
32.52462202927291
 21
43.99501613297555
 31
0.0
 70
    32
 71
     5
 42
8.002131391159601
 73
     0
 74
     0
 75
     0
  3
ISO-25
100
AcDbAlignedDimension
 13
55.61175598713486
 23
47.99608182855535
 33
0.0
 14
46.9740881072671
 24
39.99395043739575
 34
0.0
 50
90.0
100
AcDbRotatedDimension
  0
DIMENSION
  5
236
102
{ACAD_REACTORS
330
238
102
}
102
{ACAD_XDICTIONARY
360
237
102
}
330
1F
100
AcDbEntity
  8
文字
 62
     0
370
    30
100
AcDbDimension
280
     0
  2
*D15
 10
34.42587202927291
 20
85.49608182855536
 30
0.0
 11
32.5246220292729
 21
91.74608182855536
 31
0.0
 70
    32
 71
     5
 42
12.5
 73
     0
 74
     0
 75
     0
  3
ISO-25
100
AcDbAlignedDimension
 13
55.61175598713486
 23
97.99608182855536
 33
0.0
 14
55.61175598713486
 24
85.49608182855536
 34
0.0
 50
90.0
100
AcDbRotatedDimension
  0
DIMENSION
  5
239
102
{ACAD_REACTORS
330
23B
102
}
102
{ACAD_XDICTIONARY
360
23A
102
}
330
1F
100
AcDbEntity
  8
文字
 62
     0
370
    30
100
AcDbDimension
280
     0
  2
*D16
 10
68.11175598713484
 20
107.2385602910771
 30
0.0
 11
55.61175598713486
 21
109.1398102910771
 31
0.0
 70
    32
 71
     5
 42
24.99999999999998
 73
     0
 74
     0
 75
     0
  3
ISO-25
100
AcDbAlignedDimension
 13
43.11175598713486
 23
92.99608182855536
 33
0.0
 14
68.11175598713484
 24
92.99608182855536
 34
0.0
100
AcDbRotatedDimension
  0
DIMENSION
  5
23C
102
{ACAD_REACTORS
330
23E
102
}
102
{ACAD_XDICTIONARY
360
23D
102
}
330
1F
100
AcDbEntity
  8
文字
 62
     0
370
    30
100
AcDbDimension
280
     0
  2
*D17
 10
110.6009841600269
 20
73.06020815364664
 30
0.0
 11
108.6997341600269
 21
85.56258083424714
 31
0.0
 70
    32
 71
     5
 42
25.004745361201
 73
     0
 74
     0
 75
     0
  3
ISO-25
100
AcDbAlignedDimension
 13
127.7222681317169
 23
98.06495351484764
 33
0.0
 14
127.5243294874823
 24
73.06020815364664
 34
0.0
 50
90.0
100
AcDbRotatedDimension
  0
DIMENSION
  5
23F
102
{ACAD_REACTORS
330
241
102
}
102
{ACAD_XDICTIONARY
360
240
102
}
330
1F
100
AcDbEntity
  8
文字
 62
     0
370
    30
100
AcDbDimension
280
     0
  2
*D18
 10
140.2337286767836
 20
64.23436542196367
 30
0.0
 11
138.3324786767836
 21
51.73528945402427
 31
0.0
 70
    32
 71
     5
 42
24.99815193587882
 73
     0
 74
     0
 75
     0
  3
ISO-25
100
AcDbAlignedDimension
 13
122.749734387647
 23
39.23621348608486
 33
0.0
 14
122.7222681317169
 24
64.23436542196367
 34
0.0
 50
90.0
100
AcDbRotatedDimension
  0
DIMENSION
  5
242
102
{ACAD_REACTORS
330
244
102
}
102
{ACAD_XDICTIONARY
360
243
102
}
330
1F
100
AcDbEntity
  8
文字
 62
     0
370
    30
100
AcDbDimension
280
     0
  2
*D19
 10
129.7222681317169
 20
104.76697323039
 30
0.0
 11
136.1735181317169
 21
106.64697323039
 31
0.0
 70
    32
 71
     5
 42
2.0
 73
     0
 74
     0
 75
     0
  3
ISO-25
100
AcDbAlignedDimension
 13
127.7222681317169
 23
98.0800268546683
 33
0.0
 14
129.7222681317169
 24
97.53495351484764
 34
0.0
100
AcDbRotatedDimension
  0
DIMENSION
  5
245
102
{ACAD_REACTORS
330
247
102
}
102
{ACAD_XDICTIONARY
360
246
102
}
330
1F
100
AcDbEntity
  8
文字
 62
     0
370
    30
100
AcDbDimension
280
     0
  2
*D20
 10
127.7222681317169
 20
104.76697323039
 30
0.0
 11
123.8660336683539
 21
104.76697323039
 31
0.0
 70
   160
 71
     5
 42
7.0
 73
     0
 74
     0
 75
     0
  3
ISO-25
100
AcDbAlignedDimension
 13
120.7222681317169
 23
64.23436542196364
 33
0.0
 14
127.7222681317169
 24
98.15995351484764
 34
0.0
100
AcDbRotatedDimension
  0
DIMENSION
  5
248
102
{ACAD_REACTORS
330
24A
102
}
102
{ACAD_XDICTIONARY
360
249
102
}
330
1F
100
AcDbEntity
  8
文字
 62
     0
370
    30
100
AcDbDimension
280
     0
  2
*D21
 10
129.7222681317169
 20
112.3180361474388
 30
0.0
 11
125.1810404788101
 21
112.3180361474388
 31
0.0
 70
   160
 71
     5
 42
9.0
 73
     0
 74
     0
 75
     0
  3
ISO-25
100
AcDbAlignedDimension
 13
120.7222681317169
 23
64.23436542196364
 33
0.0
 14
129.7222681317169
 24
98.0800268546683
 34
0.0
100
AcDbRotatedDimension
  0
DIMENSION
  5
24B
102
{ACAD_REACTORS
330
24D
102
}
102
{ACAD_XDICTIONARY
360
24C
102
}
330
1F
100
AcDbEntity
  8
文字
 62
     0
370
    30
100
AcDbDimension
280
     0
  2
*D22
 10
55.611755987135
 20
47.99608182855541
 30
0.0
 11
76.19170890335491
 21
62.01577178462188
 31
0.0
 70
   164
 71
     5
 42
7.99999999999985
 73
     0
 74
     0
 75
     0
  3
ISO-25
100
AcDbRadialDimension
 15
62.2233829444362
 25
52.50012323350337
 35
0.0
 40
0.0
1001
ACAD
1000
DSTYLE
1002
{
1070
   288
1070
     1
1002
}
  0
DIMENSION
  5
24E
102
{ACAD_REACTORS
330
250
102
}
102
{ACAD_XDICTIONARY
360
24F
102
}
330
1F
100
AcDbEntity
  8
文字
 62
     0
370
    30
100
AcDbDimension
280
     0
  2
*D23
 10
50.4559384573669
 20
82.4272798473684
 30
0.0
 11
80.39162584369622
 21
100.2453457950002
 31
0.0
 70
   163
 71
     5
 42
11.99999999999999
 73
     0
 74
     0
 75
     0
  3
ISO-25
100
AcDbDiametricDimension
 15
60.76757351690284
 25
88.56488380974238
 35
0.0
 40
0.0
1001
ACAD
1000
DSTYLE
1002
{
1070
   288
1070
     1
1002
}
  0
MTEXT
  5
251
102
{ACAD_REACTORS
330
252
102
}
330
1F
100
AcDbEntity
  8
文字
 62
     0
370
    30
100
AcDbMText
 10
77.28336736705421
 20
35.4509429853592
 30
0.0
 40
2.5
 41
0.0
 46
2.5
 71
     7
 72
     1
  1
{\fＭＳ ゴシック|b0|i0|c0|p18;4-R3}
 73
     1
 44
1.0
1001
ACAD
1000
ACAD_MTEXT_DEFINED_HEIGHT_BEGIN
1070
    46
1040
2.5
1000
ACAD_MTEXT_DEFINED_HEIGHT_END
  0
LEADER
  5
252
102
{ACAD_XDICTIONARY
360
253
102
}
330
1F
100
AcDbEntity
  8
文字
 62
     0
370
    30
100
AcDbLeader
  3
ISO-25
 73
     0
 74
     0
 40
2.5
 41
9.642857142857142
 76
     3
 10
66.81985523068266
 20
41.64197986230568
 30
0.0
 10
70.75509595639411
 20
34.8259429853592
 30
0.0
 10
76.65836736705421
 20
34.8259429853592
 30
0.0
340
251
1001
ACAD
1000
DSTYLE
1002
{
1070
   147
1040
0.625
1070
    77
1070
     1
1002
}
  0
MTEXT
  5
30E
330
1F
100
AcDbEntity
  8
文字・寸法線
 62
     0
100
AcDbMText
 10
74.37581756224472
 20
125.8780059877399
 30
0.0
 40
6.0
 41
0.0
 46
6.0
 71
     9
 72
     1
  1
{\fＭＳ ゴシック|b0|i0|c0|p0;S-FM　M8・M10}
 73
     1
 44
1.0
1001
ACAD
1000
ACAD_MTEXT_DEFINED_HEIGHT_BEGIN
1070
    46
1040
6.0
1000
ACAD_MTEXT_DEFINED_HEIGHT_END
  0
ENDSEC
  0
SECTION
  2
OBJECTS
  0
DICTIONARY
  5
C
330
0
100
AcDbDictionary
281
     1
  3
ACAD_COLOR
350
73
  3
ACAD_DETAILVIEWSTYLE
350
122
  3
ACAD_GROUP
350
D
  3
ACAD_IMAGE_VARS
350
DC
  3
ACAD_LAYOUT
350
1A
  3
ACAD_MATERIAL
350
72
  3
ACAD_MLEADERSTYLE
350
B5
  3
ACAD_MLINESTYLE
350
17
  3
ACAD_PLOTSETTINGS
350
19
  3
ACAD_PLOTSTYLENAME
350
E
  3
ACAD_SCALELIST
350
B6
  3
ACAD_SECTIONVIEWSTYLE
350
123
  3
ACAD_TABLESTYLE
350
86
  3
ACAD_VISUALSTYLE
350
99
  3
AcDbVariableDictionary
350
66
  3
ACDB_RECOMPOSE_DATA
350
320
  3
APPDATA
350
E1
  0
SUN
  5
ED
330
94
100
AcDbSun
 90
        1
290
     0
 63
     7
421
 16777215
 40
1.0
291
     1
 91
  2455826
 92
 54000000
292
     0
 70
     2
 71
   256
280
     1
  0
DICTIONARY
  5
31C
330
1F
100
AcDbDictionary
280
     1
281
     1
  3
DIM_BOUNDING_BOXES_V1
360
31D
  0
DICTIONARY
  5
231
330
230
100
AcDbDictionary
280
     1
281
     1
  3
ACAD_DIMASSOC
360
232
  0
DICTIONARY
  5
234
330
233
100
AcDbDictionary
280
     1
281
     1
  3
ACAD_DIMASSOC
360
235
  0
DICTIONARY
  5
237
330
236
100
AcDbDictionary
280
     1
281
     1
  3
ACAD_DIMASSOC
360
238
  0
DICTIONARY
  5
23A
330
239
100
AcDbDictionary
280
     1
281
     1
  3
ACAD_DIMASSOC
360
23B
  0
DICTIONARY
  5
23D
330
23C
100
AcDbDictionary
280
     1
281
     1
  3
ACAD_DIMASSOC
360
23E
  0
DICTIONARY
  5
240
330
23F
100
AcDbDictionary
280
     1
281
     1
  3
ACAD_DIMASSOC
360
241
  0
DICTIONARY
  5
243
330
242
100
AcDbDictionary
280
     1
281
     1
  3
ACAD_DIMASSOC
360
244
  0
DICTIONARY
  5
246
330
245
100
AcDbDictionary
280
     1
281
     1
  3
ACAD_DIMASSOC
360
247
  0
DICTIONARY
  5
249
330
248
100
AcDbDictionary
280
     1
281
     1
  3
ACAD_DIMASSOC
360
24A
  0
DICTIONARY
  5
24C
330
24B
100
AcDbDictionary
280
     1
281
     1
  3
ACAD_DIMASSOC
360
24D
  0
DICTIONARY
  5
24F
330
24E
100
AcDbDictionary
280
     1
281
     1
  3
ACAD_DIMASSOC
360
250
  0
DICTIONARY
  5
253
330
252
100
AcDbDictionary
280
     1
281
     1
  0
DICTIONARY
  5
73
102
{ACAD_REACTORS
330
C
102
}
330
C
100
AcDbDictionary
281
     1
  0
DICTIONARY
  5
122
102
{ACAD_REACTORS
330
C
102
}
330
C
100
AcDbDictionary
281
     1
  0
DICTIONARY
  5
D
102
{ACAD_REACTORS
330
C
102
}
330
C
100
AcDbDictionary
281
     1
  0
RASTERVARIABLES
  5
DC
102
{ACAD_REACTORS
330
C
102
}
330
C
100
AcDbRasterVariables
 90
        0
 70
     1
 71
     1
 72
     5
  0
DICTIONARY
  5
1A
102
{ACAD_REACTORS
330
C
102
}
330
C
100
AcDbDictionary
281
     1
  3
Model
350
22
  3
Sheet1
350
59
  3
Sheet2
350
5E
  0
DICTIONARY
  5
72
102
{ACAD_REACTORS
330
C
102
}
330
C
100
AcDbDictionary
281
     1
  3
ByBlock
350
E2
  3
ByLayer
350
96
  3
Global
350
98
  0
DICTIONARY
  5
B5
102
{ACAD_REACTORS
330
C
102
}
330
C
100
AcDbDictionary
281
     1
  3
Standard
350
31B
  0
DICTIONARY
  5
17
102
{ACAD_REACTORS
330
C
102
}
330
C
100
AcDbDictionary
281
     1
  3
Standard
350
18
  0
DICTIONARY
  5
19
102
{ACAD_REACTORS
330
C
102
}
330
C
100
AcDbDictionary
281
     1
  0
ACDBDICTIONARYWDFLT
  5
E
102
{ACAD_REACTORS
330
C
102
}
330
C
100
AcDbDictionary
281
     1
  3
Normal
350
F
100
AcDbDictionaryWithDefault
340
F
  0
DICTIONARY
  5
B6
102
{ACAD_REACTORS
330
C
102
}
330
C
100
AcDbDictionary
281
     1
  3
A0
350
B7
  3
A1
350
B8
  3
A2
350
B9
  3
A3
350
BA
  3
A4
350
BB
  3
A5
350
BC
  3
A6
350
BD
  3
A7
350
BE
  3
A8
350
BF
  3
A9
350
C0
  3
B0
350
C1
  3
B1
350
C2
  3
B2
350
C3
  3
B3
350
C4
  3
B4
350
C5
  3
B5
350
C6
  3
B6
350
C7
  3
B7
350
C8
  3
B8
350
C9
  3
B9
350
CA
  3
C0
350
CB
  3
C1
350
CC
  3
C2
350
CD
  3
C3
350
CE
  3
C4
350
CF
  3
C5
350
D0
  3
C6
350
D1
  3
C7
350
D2
  3
C8
350
D3
  3
C9
350
D4
  3
D0
350
D5
  3
D1
350
D6
  3
D2
350
D7
  0
DICTIONARY
  5
123
102
{ACAD_REACTORS
330
C
102
}
330
C
100
AcDbDictionary
281
     1
  0
DICTIONARY
  5
86
102
{ACAD_REACTORS
330
C
102
}
330
C
100
AcDbDictionary
281
     1
  3
Standard
350
87
  0
DICTIONARY
  5
99
102
{ACAD_REACTORS
330
C
102
}
330
C
100
AcDbDictionary
281
     1
  3
2dWireframe
350
9F
  3
3D Hidden
350
A1
  3
3dWireframe
350
A0
  3
Basic
350
9E
  3
Brighten
350
A5
  3
ColorChange
350
A9
  3
Conceptual
350
A2
  3
Dim
350
A4
  3
EdgeColorOff
350
E7
  3
Facepattern
350
A8
  3
Flat
350
9A
  3
FlatWithEdges
350
9B
  3
Gouraud
350
9C
  3
GouraudWithEdges
350
9D
  3
Hidden
350
E4
  3
JitterOff
350
E5
  3
Linepattern
350
A7
  3
OverhangOff
350
E6
  3
Realistic
350
A3
  3
Shaded
350
EC
  3
Shaded with edges
350
EB
  3
Shades of Gray
350
E8
  3
Sketchy
350
E9
  3
Thicken
350
A6
  3
Wireframe
350
E3
  3
X-Ray
350
EA
  0
DICTIONARY
  5
66
102
{ACAD_REACTORS
330
C
102
}
330
C
100
AcDbDictionary
281
     1
  3
CANNOSCALE
350
D8
  3
CMLEADERSTYLE
350
321
  3
CTABLESTYLE
350
89
  3
DIMASSOC
350
67
  3
HIDETEXT
350
6B
  3
LIGHTSINBLOCKS
350
DF
  3
XCLIPFRAME
350
E0
  0
XRECORD
  5
320
102
{ACAD_REACTORS
330
C
102
}
330
C
100
AcDbXrecord
280
     1
 90
        1
330
87
  0
DICTIONARY
  5
E1
102
{ACAD_REACTORS
330
C
102
}
330
C
100
AcDbDictionary
281
     1
  0
DICTIONARY
  5
31D
102
{ACAD_REACTORS
330
31C
102
}
330
31C
100
AcDbDictionary
281
     1
  0
DIMASSOC
  5
232
102
{ACAD_REACTORS
330
231
102
}
330
231
100
AcDbDimAssoc
330
230
 90
        1
 70
     0
 71
     0
  1
AcDbOsnapPointRef
 72
     2
331
21A
 73
     2
 91
        4
 40
0.5
 10
0.0
 20
0.0
 30
0.0
 75
     0
  0
DIMASSOC
  5
235
102
{ACAD_REACTORS
330
234
102
}
330
234
100
AcDbDimAssoc
330
233
 90
        1
 70
     0
 71
     0
  1
AcDbOsnapPointRef
 72
     3
331
21E
 73
     2
 91
        0
 40
0.0
 10
0.0
 20
0.0
 30
0.0
 75
     0
  0
DIMASSOC
  5
238
102
{ACAD_REACTORS
330
237
102
}
330
237
100
AcDbDimAssoc
330
236
 90
        3
 70
     0
 71
     0
  1
AcDbOsnapPointRef
 72
     2
331
21A
 73
     2
 91
        4
 40
0.5
 10
0.0
 20
0.0
 30
0.0
 75
     0
  1
AcDbOsnapPointRef
 72
     3
331
21D
 73
     2
 91
        0
 40
0.0
 10
0.0
 20
0.0
 30
0.0
 75
     0
  0
DIMASSOC
  5
23B
102
{ACAD_REACTORS
330
23A
102
}
330
23A
100
AcDbDimAssoc
330
239
 90
        3
 70
     0
 71
     0
  1
AcDbOsnapPointRef
 72
     1
331
21A
 73
     2
 91
        5
 40
3.141592653589793
 10
0.0
 20
0.0
 30
2.000000000000000E+50
 75
     0
  1
AcDbOsnapPointRef
 72
     6
331
21A
 73
     2
 91
        2
 40
1.0
 10
0.0
 20
0.0
 30
0.0
332
21A
 74
     2
 92
        3
 75
     0
  0
DIMASSOC
  5
23E
102
{ACAD_REACTORS
330
23D
102
}
330
23D
100
AcDbDimAssoc
330
23C
 90
        2
 70
     0
 71
     0
  1
AcDbOsnapPointRef
 72
     6
331
229
 73
     2
 91
        0
 40
-0.000000000000002
 10
0.0
 20
0.0
 30
0.0
332
22D
 74
     2
 92
        0
 75
     0
  0
DIMASSOC
  5
241
102
{ACAD_REACTORS
330
240
102
}
330
240
100
AcDbDimAssoc
330
23F
 90
        2
 70
     0
 71
     0
  1
AcDbOsnapPointRef
 72
     1
331
22C
 73
     2
 91
        0
 40
3.141592653589793
 10
0.0
 20
0.0
 30
2.000000000000000E+50
 75
     0
  0
DIMASSOC
  5
244
102
{ACAD_REACTORS
330
243
102
}
330
243
100
AcDbDimAssoc
330
242
 90
        3
 70
     0
 71
     0
  1
AcDbOsnapPointRef
 72
    13
331
222
 73
     2
 91
        0
 40
0.0
 10
0.0
 20
0.0
 30
2.000000000000000E+50
 75
     0
  1
AcDbOsnapPointRef
 72
    13
331
223
 73
     2
 91
        0
 40
0.0
 10
0.0
 20
0.0
 30
2.000000000000000E+50
 75
     0
  0
DIMASSOC
  5
247
102
{ACAD_REACTORS
330
246
102
}
330
246
100
AcDbDimAssoc
330
245
 90
        1
 70
     0
 71
     0
  1
AcDbOsnapPointRef
 72
     1
331
22A
 73
     2
 91
        0
 40
3.141592653589793
 10
0.0
 20
0.0
 30
2.000000000000000E+50
 75
     0
  0
DIMASSOC
  5
24A
102
{ACAD_REACTORS
330
249
102
}
330
249
100
AcDbDimAssoc
330
248
 90
        1
 70
     0
 71
     0
  1
AcDbOsnapPointRef
 72
     1
331
22A
 73
     2
 91
        0
 40
3.141592653589793
 10
0.0
 20
0.0
 30
2.000000000000000E+50
 75
     0
  0
DIMASSOC
  5
24D
102
{ACAD_REACTORS
330
24C
102
}
330
24C
100
AcDbDimAssoc
330
24B
 90
        2
 70
     0
 71
     0
  1
AcDbOsnapPointRef
 72
     3
331
21E
 73
     2
 91
        0
 40
0.0
 10
0.0
 20
0.0
 30
0.0
 75
     0
  0
DIMASSOC
  5
250
102
{ACAD_REACTORS
330
24F
102
}
330
24F
100
AcDbDimAssoc
330
24E
 90
        2
 70
     0
 71
     0
  1
AcDbOsnapPointRef
 72
     3
331
21D
 73
     2
 91
        0
 40
0.0
 10
0.0
 20
0.0
 30
0.0
 75
     0
  0
LAYOUT
  5
22
102
{ACAD_REACTORS
330
1A
102
}
330
1A
100
AcDbPlotSettings
  1

  2
none_device
  4
ANSI_A_(8.50_x_11.00_Inches)
  6

 40
6.35
 41
19.05
 42
6.35
 43
19.05
 44
215.9
 45
279.4
 46
11.11250000000003
 47
0.0000000000000142
 48
0.0
 49
0.0
140
0.0
141
0.0
142
1.0
143
1.263157894736842
 70
 11444
 72
     0
 73
     1
 74
     1
  7
monochrome.ctb
 75
     0
 76
     0
 77
     2
 78
   300
147
0.7916666666666665
148
-702.8076765758875
149
-496.2830551296954
100
AcDbLayout
  1
Model
 70
     1
 71
     0
 10
0.0
 20
0.0
 11
12.0
 21
9.0
 12
0.0
 22
0.0
 32
0.0
 14
4.468976790465348
 24
26.90193281553368
 34
0.0
 15
153.001478105763
 25
131.8780059877399
 35
0.0
146
0.0
 13
0.0
 23
0.0
 33
0.0
 16
1.0
 26
0.0
 36
0.0
 17
0.0
 27
1.0
 37
0.0
 76
     0
330
1F
331
94
  0
LAYOUT
  5
59
102
{ACAD_REACTORS
330
1A
102
}
330
1A
100
AcDbPlotSettings
  1

  2
None
  4

  6

 40
0.0
 41
0.0
 42
0.0
 43
0.0
 44
0.0
 45
0.0
 46
0.0
 47
0.0
 48
0.0
 49
0.0
140
0.0
141
0.0
142
1.0
143
1.0
 70
   688
 72
     0
 73
     0
 74
     5
  7

 75
    16
 76
     0
 77
     2
 78
   300
147
1.0
148
0.0
149
0.0
100
AcDbLayout
  1
Sheet1
 70
     1
 71
     1
 10
0.0
 20
0.0
 11
12.0
 21
9.0
 12
0.0
 22
0.0
 32
0.0
 14
0.0
 24
0.0
 34
0.0
 15
0.0
 25
0.0
 35
0.0
146
0.0
 13
0.0
 23
0.0
 33
0.0
 16
1.0
 26
0.0
 36
0.0
 17
0.0
 27
1.0
 37
0.0
 76
     0
330
58
  0
LAYOUT
  5
5E
102
{ACAD_REACTORS
330
1A
102
}
330
1A
100
AcDbPlotSettings
  1

  2
None
  4

  6

 40
0.0
 41
0.0
 42
0.0
 43
0.0
 44
0.0
 45
0.0
 46
0.0
 47
0.0
 48
0.0
 49
0.0
140
0.0
141
0.0
142
1.0
143
1.0
 70
   688
 72
     0
 73
     0
 74
     5
  7

 75
    16
 76
     0
 77
     2
 78
   300
147
1.0
148
0.0
149
0.0
100
AcDbLayout
  1
Sheet2
 70
     1
 71
     2
 10
0.0
 20
0.0
 11
12.0
 21
9.0
 12
0.0
 22
0.0
 32
0.0
 14
0.0
 24
0.0
 34
0.0
 15
0.0
 25
0.0
 35
0.0
146
0.0
 13
0.0
 23
0.0
 33
0.0
 16
1.0
 26
0.0
 36
0.0
 17
0.0
 27
1.0
 37
0.0
 76
     0
330
5D
  0
MATERIAL
  5
E2
102
{ACAD_REACTORS
330
72
102
}
330
72
100
AcDbMaterial
  1
ByBlock
 72
     1
 94
      127
  0
MATERIAL
  5
96
102
{ACAD_REACTORS
330
72
102
}
330
72
100
AcDbMaterial
  1
ByLayer
 72
     1
 94
       63
  0
MATERIAL
  5
98
102
{ACAD_REACTORS
330
72
102
}
330
72
100
AcDbMaterial
  1
Global
 72
     1
 94
       63
  0
MLEADERSTYLE
  5
31B
102
{ACAD_REACTORS
330
B5
102
}
330
B5
100
AcDbMLeaderStyle
179
     2
170
     2
171
     1
172
     0
 90
        2
 40
0.0
 41
0.0
173
     1
 91
-1056964608
340
14
 92
       -2
290
     1
 42
0.09
291
     1
 43
0.36
  3
Standard
341
0
 44
0.18
300

342
11
174
     1
178
     1
175
     1
176
     0
 93
-1056964608
 45
0.18
292
     0
297
     0
 46
0.18
343
0
 94
-1056964608
 47
1.0
 49
1.0
140
1.0
293
     1
141
0.0
294
     1
177
     0
142
1.0
295
     0
296
     0
143
0.125
271
     0
272
     9
273
     9
298
     0
  0
MLINESTYLE
  5
18
102
{ACAD_REACTORS
330
17
102
}
330
17
100
AcDbMlineStyle
  2
STANDARD
 70
     0
  3

 62
   256
 51
90.0
 52
90.0
 71
     2
 49
0.5
 62
   256
  6
BYLAYER
 49
-0.5
 62
   256
  6
BYLAYER
  0
ACDBPLACEHOLDER
  5
F
102
{ACAD_REACTORS
330
E
102
}
330
E
  0
SCALE
  5
B7
102
{ACAD_REACTORS
330
B6
102
}
330
B6
100
AcDbScale
 70
     0
300
1:1
140
1.0
141
1.0
290
     1
  0
SCALE
  5
B8
102
{ACAD_REACTORS
330
B6
102
}
330
B6
100
AcDbScale
 70
     0
300
1:2
140
1.0
141
2.0
290
     0
  0
SCALE
  5
B9
102
{ACAD_REACTORS
330
B6
102
}
330
B6
100
AcDbScale
 70
     0
300
1:4
140
1.0
141
4.0
290
     0
  0
SCALE
  5
BA
102
{ACAD_REACTORS
330
B6
102
}
330
B6
100
AcDbScale
 70
     0
300
1:5
140
1.0
141
5.0
290
     0
  0
SCALE
  5
BB
102
{ACAD_REACTORS
330
B6
102
}
330
B6
100
AcDbScale
 70
     0
300
1:8
140
1.0
141
8.0
290
     0
  0
SCALE
  5
BC
102
{ACAD_REACTORS
330
B6
102
}
330
B6
100
AcDbScale
 70
     0
300
1:10
140
1.0
141
10.0
290
     0
  0
SCALE
  5
BD
102
{ACAD_REACTORS
330
B6
102
}
330
B6
100
AcDbScale
 70
     0
300
1:16
140
1.0
141
16.0
290
     0
  0
SCALE
  5
BE
102
{ACAD_REACTORS
330
B6
102
}
330
B6
100
AcDbScale
 70
     0
300
1:20
140
1.0
141
20.0
290
     0
  0
SCALE
  5
BF
102
{ACAD_REACTORS
330
B6
102
}
330
B6
100
AcDbScale
 70
     0
300
1:30
140
1.0
141
30.0
290
     0
  0
SCALE
  5
C0
102
{ACAD_REACTORS
330
B6
102
}
330
B6
100
AcDbScale
 70
     0
300
1:40
140
1.0
141
40.0
290
     0
  0
SCALE
  5
C1
102
{ACAD_REACTORS
330
B6
102
}
330
B6
100
AcDbScale
 70
     0
300
1:50
140
1.0
141
50.0
290
     0
  0
SCALE
  5
C2
102
{ACAD_REACTORS
330
B6
102
}
330
B6
100
AcDbScale
 70
     0
300
1:100
140
1.0
141
100.0
290
     0
  0
SCALE
  5
C3
102
{ACAD_REACTORS
330
B6
102
}
330
B6
100
AcDbScale
 70
     0
300
2:1
140
2.0
141
1.0
290
     0
  0
SCALE
  5
C4
102
{ACAD_REACTORS
330
B6
102
}
330
B6
100
AcDbScale
 70
     0
300
4:1
140
4.0
141
1.0
290
     0
  0
SCALE
  5
C5
102
{ACAD_REACTORS
330
B6
102
}
330
B6
100
AcDbScale
 70
     0
300
8:1
140
8.0
141
1.0
290
     0
  0
SCALE
  5
C6
102
{ACAD_REACTORS
330
B6
102
}
330
B6
100
AcDbScale
 70
     0
300
10:1
140
10.0
141
1.0
290
     0
  0
SCALE
  5
C7
102
{ACAD_REACTORS
330
B6
102
}
330
B6
100
AcDbScale
 70
     0
300
100:1
140
100.0
141
1.0
290
     0
  0
SCALE
  5
C8
102
{ACAD_REACTORS
330
B6
102
}
330
B6
100
AcDbScale
 70
     0
300
1/128" = 1'-0"
140
0.0078125
141
12.0
290
     0
  0
SCALE
  5
C9
102
{ACAD_REACTORS
330
B6
102
}
330
B6
100
AcDbScale
 70
     0
300
1/64" = 1'-0"
140
0.015625
141
12.0
290
     0
  0
SCALE
  5
CA
102
{ACAD_REACTORS
330
B6
102
}
330
B6
100
AcDbScale
 70
     0
300
1/32" = 1'-0"
140
0.03125
141
12.0
290
     0
  0
SCALE
  5
CB
102
{ACAD_REACTORS
330
B6
102
}
330
B6
100
AcDbScale
 70
     0
300
1/16" = 1'-0"
140
0.0625
141
12.0
290
     0
  0
SCALE
  5
CC
102
{ACAD_REACTORS
330
B6
102
}
330
B6
100
AcDbScale
 70
     0
300
3/32" = 1'-0"
140
0.09375
141
12.0
290
     0
  0
SCALE
  5
CD
102
{ACAD_REACTORS
330
B6
102
}
330
B6
100
AcDbScale
 70
     0
300
1/8" = 1'-0"
140
0.125
141
12.0
290
     0
  0
SCALE
  5
CE
102
{ACAD_REACTORS
330
B6
102
}
330
B6
100
AcDbScale
 70
     0
300
3/16" = 1'-0"
140
0.1875
141
12.0
290
     0
  0
SCALE
  5
CF
102
{ACAD_REACTORS
330
B6
102
}
330
B6
100
AcDbScale
 70
     0
300
1/4" = 1'-0"
140
0.25
141
12.0
290
     0
  0
SCALE
  5
D0
102
{ACAD_REACTORS
330
B6
102
}
330
B6
100
AcDbScale
 70
     0
300
3/8" = 1'-0"
140
0.375
141
12.0
290
     0
  0
SCALE
  5
D1
102
{ACAD_REACTORS
330
B6
102
}
330
B6
100
AcDbScale
 70
     0
300
1/2" = 1'-0"
140
0.5
141
12.0
290
     0
  0
SCALE
  5
D2
102
{ACAD_REACTORS
330
B6
102
}
330
B6
100
AcDbScale
 70
     0
300
3/4" = 1'-0"
140
0.75
141
12.0
290
     0
  0
SCALE
  5
D3
102
{ACAD_REACTORS
330
B6
102
}
330
B6
100
AcDbScale
 70
     0
300
1" = 1'-0"
140
1.0
141
12.0
290
     0
  0
SCALE
  5
D4
102
{ACAD_REACTORS
330
B6
102
}
330
B6
100
AcDbScale
 70
     0
300
1-1/2" = 1'-0"
140
1.5
141
12.0
290
     0
  0
SCALE
  5
D5
102
{ACAD_REACTORS
330
B6
102
}
330
B6
100
AcDbScale
 70
     0
300
3" = 1'-0"
140
3.0
141
12.0
290
     0
  0
SCALE
  5
D6
102
{ACAD_REACTORS
330
B6
102
}
330
B6
100
AcDbScale
 70
     0
300
6" = 1'-0"
140
6.0
141
12.0
290
     0
  0
SCALE
  5
D7
102
{ACAD_REACTORS
330
B6
102
}
330
B6
100
AcDbScale
 70
     0
300
1'-0" = 1'-0"
140
12.0
141
12.0
290
     0
  0
TABLESTYLE
  5
87
102
{ACAD_REACTORS
330
86
102
}
102
{ACAD_XDICTIONARY
360
31E
102
}
330
86
100
AcDbTableStyle
  3
Standard
 70
     0
 71
     0
 40
0.06
 41
0.06
280
     0
281
     0
  7
Standard
140
0.18
170
     2
 62
     0
 63
   257
283
     0
 90
      512
 91
        0
  1

274
    -2
284
     1
 64
     0
275
    -2
285
     1
 65
     0
276
    -2
286
     1
 66
     0
277
    -2
287
     1
 67
     0
278
    -2
288
     1
 68
     0
279
    -2
289
     1
 69
     0
  7
Standard
140
0.25
170
     5
 62
     0
 63
   257
283
     0
 90
      512
 91
        0
  1

274
    -2
284
     1
 64
     0
275
    -2
285
     1
 65
     0
276
    -2
286
     1
 66
     0
277
    -2
287
     1
 67
     0
278
    -2
288
     1
 68
     0
279
    -2
289
     1
 69
     0
  7
Standard
140
0.18
170
     5
 62
     0
 63
   257
283
     0
 90
      512
 91
        0
  1

274
    -2
284
     1
 64
     0
275
    -2
285
     1
 65
     0
276
    -2
286
     1
 66
     0
277
    -2
287
     1
 67
     0
278
    -2
288
     1
 68
     0
279
    -2
289
     1
 69
     0
  0
VISUALSTYLE
  5
9F
102
{ACAD_REACTORS
330
99
102
}
330
99
100
AcDbVisualStyle
  2
2dWireframe
 70
     4
177
     3
291
     0
 70
    58
 90
        0
176
     1
 90
        2
176
     1
 90
        1
176
     1
 90
        0
176
     1
 40
-0.6
176
     1
 40
-30.0
176
     1
 62
     7
420
 16777215
176
     1
 90
        1
176
     1
 90
        4
176
     1
 62
     7
176
     1
 62
   257
176
     1
 90
        1
176
     1
 90
        1
176
     1
 40
1.0
176
     1
 90
        0
176
     1
 62
   257
176
     1
 40
1.0
176
     1
 90
        1
176
     1
 90
        6
176
     1
 90
        2
176
     1
 62
     7
176
     1
 90
        5
176
     1
 90
        0
176
     1
 90
        0
176
     1
290
     0
176
     1
 90
        1
176
     1
 40
0.0
176
     1
 90
        0
176
     1
290
     1
176
     1
290
     1
176
     1
290
     0
176
     1
290
     0
176
     1
290
     0
176
     1
290
     0
176
     1
290
     0
176
     1
290
     0
176
     1
290
     0
176
     1
 90
       50
176
     1
 40
0.0
176
     1
 40
1.0
176
     1
 90
        0
176
     1
 62
   178
420
        0
176
     1
 90
       50
176
     1
 90
        3
176
     1
 62
     5
420
      255
176
     1
290
     0
176
     1
 90
       50
176
     1
 90
       50
176
     1
 90
       50
176
     1
290
     0
176
     1
 90
       50
176
     1
 62
   256
176
     0
 40
1.0
176
     0
 90
        2
176
     1
  1
strokes_ogs.tif
176
     1
290
     0
176
     1
 40
1.0
176
     1
 40
1.0
176
     1
  0
VISUALSTYLE
  5
A1
102
{ACAD_REACTORS
330
99
102
}
330
99
100
AcDbVisualStyle
  2
3D Hidden
 70
     6
177
     3
291
     0
 70
    58
 90
        1
176
     1
 90
        2
176
     1
 90
        2
176
     1
 90
        0
176
     1
 40
-0.6
176
     1
 40
-30.0
176
     1
 62
     7
420
 16777215
176
     1
 90
        2
176
     1
 90
        2
176
     1
 62
     7
176
     1
 62
   257
176
     1
 90
        2
176
     1
 90
        1
176
     1
 40
40.0
176
     1
 90
        0
176
     1
 62
   257
176
     1
 40
1.0
176
     1
 90
        1
176
     1
 90
        6
176
     1
 90
        2
176
     1
 62
     7
176
     1
 90
        3
176
     1
 90
        0
176
     1
 90
        0
176
     1
290
     0
176
     1
 90
        1
176
     1
 40
0.0
176
     1
 90
        0
176
     1
290
     0
176
     1
290
     1
176
     1
290
     1
176
     1
290
     0
176
     1
290
     0
176
     1
290
     0
176
     1
290
     0
176
     1
290
     0
176
     1
290
     0
176
     1
 90
       50
176
     1
 40
0.0
176
     1
 40
1.0
176
     1
 90
        0
176
     1
 62
   178
420
        0
176
     1
 90
       50
176
     1
 90
        3
176
     1
 62
     5
420
      255
176
     1
290
     0
176
     1
 90
       50
176
     1
 90
       50
176
     1
 90
       50
176
     1
290
     0
176
     1
 90
       50
176
     1
 62
   256
176
     0
 40
1.0
176
     0
 90
        2
176
     1
  1
strokes_ogs.tif
176
     1
290
     0
176
     1
 40
1.0
176
     1
 40
1.0
176
     1
  0
VISUALSTYLE
  5
A0
102
{ACAD_REACTORS
330
99
102
}
330
99
100
AcDbVisualStyle
  2
3dWireframe
 70
     5
177
     3
291
     0
 70
    58
 90
        0
176
     1
 90
        2
176
     1
 90
        1
176
     1
 90
        0
176
     1
 40
-0.6
176
     1
 40
-30.0
176
     1
 62
     7
420
 16777215
176
     1
 90
        1
176
     1
 90
        4
176
     1
 62
     7
176
     1
 62
   257
176
     1
 90
        1
176
     1
 90
        1
176
     1
 40
1.0
176
     1
 90
        0
176
     1
 62
   257
176
     1
 40
1.0
176
     1
 90
        1
176
     1
 90
        6
176
     1
 90
        2
176
     1
 62
     7
176
     1
 90
        5
176
     1
 90
        0
176
     1
 90
        0
176
     1
290
     0
176
     1
 90
        1
176
     1
 40
0.0
176
     1
 90
        0
176
     1
290
     0
176
     1
290
     1
176
     1
290
     1
176
     1
290
     0
176
     1
290
     0
176
     1
290
     0
176
     1
290
     0
176
     1
290
     0
176
     1
290
     0
176
     1
 90
       50
176
     1
 40
0.0
176
     1
 40
1.0
176
     1
 90
        0
176
     1
 62
   178
420
        0
176
     1
 90
       50
176
     1
 90
        3
176
     1
 62
     5
420
      255
176
     1
290
     0
176
     1
 90
       50
176
     1
 90
       50
176
     1
 90
       50
176
     1
290
     0
176
     1
 90
       50
176
     1
 62
   256
176
     0
 40
1.0
176
     0
 90
        2
176
     1
  1
strokes_ogs.tif
176
     1
290
     0
176
     1
 40
1.0
176
     1
 40
1.0
176
     1
  0
VISUALSTYLE
  5
9E
102
{ACAD_REACTORS
330
99
102
}
330
99
100
AcDbVisualStyle
  2
Basic
 70
     7
177
     3
291
     1
 70
    58
 90
        1
176
     1
 90
        0
176
     1
 90
        1
176
     1
 90
        0
176
     1
 40
-0.6
176
     1
 40
-30.0
176
     1
 62
     7
420
 16777215
176
     1
 90
        0
176
     1
 90
        4
176
     1
 62
     7
176
     1
 62
   257
176
     1
 90
        1
176
     1
 90
        1
176
     1
 40
1.0
176
     1
 90
        8
176
     1
 62
     7
176
     1
 40
1.0
176
     1
 90
        1
176
     1
 90
        6
176
     1
 90
        2
176
     1
 62
     7
176
     1
 90
        5
176
     1
 90
        0
176
     1
 90
        0
176
     1
290
     0
176
     1
 90
        1
176
     1
 40
0.0
176
     1
 90
        0
176
     1
290
     0
176
     1
290
     1
176
     1
290
     1
176
     1
290
     0
176
     1
290
     0
176
     1
290
     0
176
     1
290
     0
176
     1
290
     0
176
     1
290
     0
176
     1
 90
       50
176
     1
 40
0.0
176
     1
 40
1.0
176
     1
 90
        0
176
     1
 62
   178
420
        0
176
     1
 90
       50
176
     1
 90
        3
176
     1
 62
     5
420
      255
176
     1
290
     0
176
     1
 90
       50
176
     1
 90
       50
176
     1
 90
       50
176
     1
290
     0
176
     1
 90
       50
176
     1
 62
   256
176
     0
 40
1.0
176
     0
 90
        2
176
     1
  1
strokes_ogs.tif
176
     1
290
     0
176
     1
 40
1.0
176
     1
 40
1.0
176
     1
  0
VISUALSTYLE
  5
A5
102
{ACAD_REACTORS
330
99
102
}
330
99
100
AcDbVisualStyle
  2
Brighten
 70
    12
177
     3
291
     1
 70
    58
 90
        2
176
     1
 90
        2
176
     1
 90
        1
176
     1
 90
        0
176
     1
 40
-0.6
176
     1
 40
-30.0
176
     1
 62
     7
420
 16777215
176
     1
 90
        1
176
     1
 90
        4
176
     1
 62
     7
176
     1
 62
   257
176
     1
 90
        1
176
     1
 90
        1
176
     1
 40
1.0
176
     1
 90
        8
176
     1
 62
     7
176
     1
 40
1.0
176
     1
 90
        1
176
     1
 90
        6
176
     1
 90
        2
176
     1
 62
     7
176
     1
 90
        5
176
     1
 90
        0
176
     1
 90
        0
176
     1
290
     0
176
     1
 90
        1
176
     1
 40
50.0
176
     1
 90
        0
176
     1
290
     0
176
     1
290
     1
176
     1
290
     1
176
     1
290
     0
176
     1
290
     0
176
     1
290
     0
176
     1
290
     0
176
     1
290
     0
176
     1
290
     0
176
     1
 90
       50
176
     1
 40
0.0
176
     1
 40
1.0
176
     1
 90
        0
176
     1
 62
   178
420
        0
176
     1
 90
       50
176
     1
 90
        3
176
     1
 62
     5
420
      255
176
     1
290
     0
176
     1
 90
       50
176
     1
 90
       50
176
     1
 90
       50
176
     1
290
     0
176
     1
 90
       50
176
     1
 62
   256
176
     0
 40
1.0
176
     0
 90
        2
176
     1
  1
strokes_ogs.tif
176
     1
290
     0
176
     1
 40
1.0
176
     1
 40
1.0
176
     1
  0
VISUALSTYLE
  5
A9
102
{ACAD_REACTORS
330
99
102
}
330
99
100
AcDbVisualStyle
  2
ColorChange
 70
    16
177
     3
291
     1
 70
    58
 90
        2
176
     1
 90
        2
176
     1
 90
        3
176
     1
 90
        0
176
     1
 40
-0.6
176
     1
 40
-30.0
176
     1
 62
     8
420
  8421504
176
     1
 90
        1
176
     1
 90
        4
176
     1
 62
     7
176
     1
 62
   257
176
     1
 90
        1
176
     1
 90
        1
176
     1
 40
1.0
176
     1
 90
        8
176
     1
 62
     8
420
  8421504
176
     1
 40
1.0
176
     1
 90
        1
176
     1
 90
        6
176
     1
 90
        2
176
     1
 62
     7
176
     1
 90
        5
176
     1
 90
        0
176
     1
 90
        0
176
     1
290
     0
176
     1
 90
        1
176
     1
 40
0.0
176
     1
 90
        0
176
     1
290
     0
176
     1
290
     1
176
     1
290
     1
176
     1
290
     0
176
     1
290
     0
176
     1
290
     0
176
     1
290
     0
176
     1
290
     0
176
     1
290
     0
176
     1
 90
       50
176
     1
 40
0.0
176
     1
 40
1.0
176
     1
 90
        0
176
     1
 62
   178
420
        0
176
     1
 90
       50
176
     1
 90
        3
176
     1
 62
     5
420
      255
176
     1
290
     0
176
     1
 90
       50
176
     1
 90
       50
176
     1
 90
       50
176
     1
290
     0
176
     1
 90
       50
176
     1
 62
   256
176
     0
 40
1.0
176
     0
 90
        2
176
     1
  1
strokes_ogs.tif
176
     1
290
     0
176
     1
 40
1.0
176
     1
 40
1.0
176
     1
  0
VISUALSTYLE
  5
A2
102
{ACAD_REACTORS
330
99
102
}
330
99
100
AcDbVisualStyle
  2
Conceptual
 70
     9
177
     3
291
     0
 70
    58
 90
        3
176
     1
 90
        2
176
     1
 90
        1
176
     1
 90
        0
176
     1
 40
-0.6
176
     1
 40
-30.0
176
     1
 62
     7
420
 16777215
176
     1
 90
        2
176
     1
 90
        2
176
     1
 62
     7
176
     1
 62
   257
176
     1
 90
        1
176
     1
 90
        1
176
     1
 40
40.0
176
     1
 90
        8
176
     1
 62
     7
176
     1
 40
1.0
176
     1
 90
        1
176
     1
 90
        6
176
     1
 90
        2
176
     1
 62
     7
176
     1
 90
        3
176
     1
 90
        0
176
     1
 90
        0
176
     1
290
     0
176
     1
 90
        1
176
     1
 40
0.0
176
     1
 90
        0
176
     1
290
     0
176
     1
290
     1
176
     1
290
     1
176
     1
290
     0
176
     1
290
     0
176
     1
290
     0
176
     1
290
     0
176
     1
290
     0
176
     1
290
     0
176
     1
 90
       50
176
     1
 40
0.0
176
     1
 40
1.0
176
     1
 90
        0
176
     1
 62
   178
420
        0
176
     1
 90
       50
176
     1
 90
        3
176
     1
 62
     5
420
      255
176
     1
290
     0
176
     1
 90
       50
176
     1
 90
       50
176
     1
 90
       50
176
     1
290
     0
176
     1
 90
       50
176
     1
 62
   256
176
     0
 40
1.0
176
     0
 90
        2
176
     1
  1
strokes_ogs.tif
176
     1
290
     0
176
     1
 40
1.0
176
     1
 40
1.0
176
     1
  0
VISUALSTYLE
  5
A4
102
{ACAD_REACTORS
330
99
102
}
330
99
100
AcDbVisualStyle
  2
Dim
 70
    11
177
     3
291
     1
 70
    58
 90
        2
176
     1
 90
        2
176
     1
 90
        1
176
     1
 90
        0
176
     1
 40
-0.6
176
     1
 40
-30.0
176
     1
 62
     7
420
 16777215
176
     1
 90
        1
176
     1
 90
        4
176
     1
 62
     7
176
     1
 62
   257
176
     1
 90
        1
176
     1
 90
        1
176
     1
 40
1.0
176
     1
 90
        8
176
     1
 62
     7
176
     1
 40
1.0
176
     1
 90
        1
176
     1
 90
        6
176
     1
 90
        2
176
     1
 62
     7
176
     1
 90
        5
176
     1
 90
        0
176
     1
 90
        0
176
     1
290
     0
176
     1
 90
        1
176
     1
 40
-50.0
176
     1
 90
        0
176
     1
290
     0
176
     1
290
     1
176
     1
290
     1
176
     1
290
     0
176
     1
290
     0
176
     1
290
     0
176
     1
290
     0
176
     1
290
     0
176
     1
290
     0
176
     1
 90
       50
176
     1
 40
0.0
176
     1
 40
1.0
176
     1
 90
        0
176
     1
 62
   178
420
        0
176
     1
 90
       50
176
     1
 90
        3
176
     1
 62
     5
420
      255
176
     1
290
     0
176
     1
 90
       50
176
     1
 90
       50
176
     1
 90
       50
176
     1
290
     0
176
     1
 90
       50
176
     1
 62
   256
176
     0
 40
1.0
176
     0
 90
        2
176
     1
  1
strokes_ogs.tif
176
     1
290
     0
176
     1
 40
1.0
176
     1
 40
1.0
176
     1
  0
VISUALSTYLE
  5
E7
102
{ACAD_REACTORS
330
99
102
}
330
99
100
AcDbVisualStyle
  2
EdgeColorOff
 70
    22
177
     3
291
     1
 70
    58
 90
        2
176
     0
 90
        2
176
     0
 90
        0
176
     0
 90
        0
176
     0
 40
0.6
176
     0
 40
30.0
176
     0
 62
     7
420
 16777215
176
     0
 90
        1
176
     0
 90
        4
176
     0
 62
     7
176
     0
 62
   257
176
     0
 90
        1
176
     0
 90
        1
176
     0
 40
1.0
176
     0
 90
        8
176
     2
 62
     7
176
     0
 40
1.0
176
     0
 90
        1
176
     0
 90
        6
176
     0
 90
        2
176
     0
 62
     7
176
     0
 90
        5
176
     0
 90
        0
176
     0
 90
        0
176
     0
290
     0
176
     0
 90
        1
176
     0
 40
0.0
176
     0
 90
        0
176
     0
290
     0
176
     0
290
     1
176
     0
290
     1
176
     0
290
     0
176
     0
290
     0
176
     0
290
     0
176
     0
290
     0
176
     0
290
     0
176
     0
290
     0
176
     0
 90
       50
176
     0
 40
0.0
176
     0
 40
1.0
176
     0
 90
        0
176
     0
 62
   178
420
        0
176
     0
 90
       50
176
     0
 90
        3
176
     0
 62
     5
420
      255
176
     0
290
     0
176
     0
 90
       50
176
     0
 90
       50
176
     0
 90
       50
176
     0
290
     0
176
     0
 90
       50
176
     0
 62
   256
176
     0
 40
1.0
176
     0
 90
        2
176
     0
  1
strokes_ogs.tif
176
     0
290
     0
176
     0
 40
1.0
176
     0
 40
1.0
176
     0
  0
VISUALSTYLE
  5
A8
102
{ACAD_REACTORS
330
99
102
}
330
99
100
AcDbVisualStyle
  2
Facepattern
 70
    15
177
     3
291
     1
 70
    58
 90
        2
176
     1
 90
        2
176
     1
 90
        1
176
     1
 90
        0
176
     1
 40
-0.6
176
     1
 40
-30.0
176
     1
 62
     7
420
 16777215
176
     1
 90
        1
176
     1
 90
        4
176
     1
 62
     7
176
     1
 62
   257
176
     1
 90
        1
176
     1
 90
        1
176
     1
 40
1.0
176
     1
 90
        8
176
     1
 62
     7
176
     1
 40
1.0
176
     1
 90
        1
176
     1
 90
        6
176
     1
 90
        2
176
     1
 62
     7
176
     1
 90
        5
176
     1
 90
        0
176
     1
 90
        0
176
     1
290
     0
176
     1
 90
        1
176
     1
 40
0.0
176
     1
 90
        0
176
     1
290
     0
176
     1
290
     1
176
     1
290
     1
176
     1
290
     0
176
     1
290
     0
176
     1
290
     0
176
     1
290
     0
176
     1
290
     0
176
     1
290
     0
176
     1
 90
       50
176
     1
 40
0.0
176
     1
 40
1.0
176
     1
 90
        0
176
     1
 62
   178
420
        0
176
     1
 90
       50
176
     1
 90
        3
176
     1
 62
     5
420
      255
176
     1
290
     0
176
     1
 90
       50
176
     1
 90
       50
176
     1
 90
       50
176
     1
290
     0
176
     1
 90
       50
176
     1
 62
   256
176
     0
 40
1.0
176
     0
 90
        2
176
     1
  1
strokes_ogs.tif
176
     1
290
     0
176
     1
 40
1.0
176
     1
 40
1.0
176
     1
  0
VISUALSTYLE
  5
9A
102
{ACAD_REACTORS
330
99
102
}
330
99
100
AcDbVisualStyle
  2
Flat
 70
     0
177
     3
291
     1
 70
    58
 90
        2
176
     1
 90
        1
176
     1
 90
        1
176
     1
 90
        2
176
     1
 40
-0.6
176
     1
 40
30.0
176
     1
 62
     7
420
 16777215
176
     1
 90
        0
176
     1
 90
        4
176
     1
 62
     7
176
     1
 62
   257
176
     1
 90
        1
176
     1
 90
        1
176
     1
 40
1.0
176
     1
 90
        8
176
     1
 62
     7
176
     1
 40
1.0
176
     1
 90
        1
176
     1
 90
        6
176
     1
 90
        2
176
     1
 62
     7
176
     1
 90
        5
176
     1
 90
        0
176
     1
 90
        0
176
     1
290
     0
176
     1
 90
        1
176
     1
 40
0.0
176
     1
 90
        0
176
     1
290
     0
176
     1
290
     1
176
     1
290
     1
176
     1
290
     0
176
     1
290
     0
176
     1
290
     0
176
     1
290
     0
176
     1
290
     0
176
     1
290
     0
176
     1
 90
       50
176
     1
 40
0.0
176
     1
 40
1.0
176
     1
 90
        0
176
     1
 62
   178
420
        0
176
     1
 90
       50
176
     1
 90
        3
176
     1
 62
     5
420
      255
176
     1
290
     0
176
     1
 90
       50
176
     1
 90
       50
176
     1
 90
       50
176
     1
290
     0
176
     1
 90
       50
176
     1
 62
   256
176
     0
 40
1.0
176
     0
 90
        2
176
     1
  1
strokes_ogs.tif
176
     1
290
     0
176
     1
 40
1.0
176
     1
 40
1.0
176
     1
  0
VISUALSTYLE
  5
9B
102
{ACAD_REACTORS
330
99
102
}
330
99
100
AcDbVisualStyle
  2
FlatWithEdges
 70
     1
177
     3
291
     1
 70
    58
 90
        2
176
     1
 90
        1
176
     1
 90
        1
176
     1
 90
        2
176
     1
 40
-0.6
176
     1
 40
30.0
176
     1
 62
     7
420
 16777215
176
     1
 90
        1
176
     1
 90
        4
176
     1
 62
     7
176
     1
 62
   257
176
     1
 90
        1
176
     1
 90
        1
176
     1
 40
1.0
176
     1
 90
        0
176
     1
 62
   257
176
     1
 40
1.0
176
     1
 90
        1
176
     1
 90
        6
176
     1
 90
        2
176
     1
 62
     7
176
     1
 90
        5
176
     1
 90
        0
176
     1
 90
        0
176
     1
290
     0
176
     1
 90
        1
176
     1
 40
0.0
176
     1
 90
        0
176
     1
290
     0
176
     1
290
     1
176
     1
290
     1
176
     1
290
     0
176
     1
290
     0
176
     1
290
     0
176
     1
290
     0
176
     1
290
     0
176
     1
290
     0
176
     1
 90
       50
176
     1
 40
0.0
176
     1
 40
1.0
176
     1
 90
        0
176
     1
 62
   178
420
        0
176
     1
 90
       50
176
     1
 90
        3
176
     1
 62
     5
420
      255
176
     1
290
     0
176
     1
 90
       50
176
     1
 90
       50
176
     1
 90
       50
176
     1
290
     0
176
     1
 90
       50
176
     1
 62
   256
176
     0
 40
1.0
176
     0
 90
        2
176
     1
  1
strokes_ogs.tif
176
     1
290
     0
176
     1
 40
1.0
176
     1
 40
1.0
176
     1
  0
VISUALSTYLE
  5
9C
102
{ACAD_REACTORS
330
99
102
}
330
99
100
AcDbVisualStyle
  2
Gouraud
 70
     2
177
     3
291
     1
 70
    58
 90
        2
176
     1
 90
        2
176
     1
 90
        1
176
     1
 90
        2
176
     1
 40
-0.6
176
     1
 40
30.0
176
     1
 62
     7
420
 16777215
176
     1
 90
        0
176
     1
 90
        4
176
     1
 62
     7
176
     1
 62
   257
176
     1
 90
        1
176
     1
 90
        1
176
     1
 40
1.0
176
     1
 90
        0
176
     1
 62
     7
176
     1
 40
1.0
176
     1
 90
        1
176
     1
 90
        6
176
     1
 90
        2
176
     1
 62
     7
176
     1
 90
        5
176
     1
 90
        0
176
     1
 90
        0
176
     1
290
     0
176
     1
 90
        1
176
     1
 40
0.0
176
     1
 90
        0
176
     1
290
     0
176
     1
290
     1
176
     1
290
     1
176
     1
290
     0
176
     1
290
     0
176
     1
290
     0
176
     1
290
     0
176
     1
290
     0
176
     1
290
     0
176
     1
 90
       50
176
     1
 40
0.0
176
     1
 40
1.0
176
     1
 90
        0
176
     1
 62
   178
420
        0
176
     1
 90
       50
176
     1
 90
        3
176
     1
 62
     5
420
      255
176
     1
290
     0
176
     1
 90
       50
176
     1
 90
       50
176
     1
 90
       50
176
     1
290
     0
176
     1
 90
       50
176
     1
 62
   256
176
     0
 40
1.0
176
     0
 90
        2
176
     1
  1
strokes_ogs.tif
176
     1
290
     0
176
     1
 40
1.0
176
     1
 40
1.0
176
     1
  0
VISUALSTYLE
  5
9D
102
{ACAD_REACTORS
330
99
102
}
330
99
100
AcDbVisualStyle
  2
GouraudWithEdges
 70
     3
177
     3
291
     1
 70
    58
 90
        2
176
     1
 90
        2
176
     1
 90
        1
176
     1
 90
        2
176
     1
 40
-0.6
176
     1
 40
30.0
176
     1
 62
     7
420
 16777215
176
     1
 90
        1
176
     1
 90
        4
176
     1
 62
     7
176
     1
 62
   257
176
     1
 90
        1
176
     1
 90
        1
176
     1
 40
1.0
176
     1
 90
        0
176
     1
 62
   257
176
     1
 40
1.0
176
     1
 90
        1
176
     1
 90
        6
176
     1
 90
        2
176
     1
 62
     7
176
     1
 90
        5
176
     1
 90
        0
176
     1
 90
        0
176
     1
290
     0
176
     1
 90
        1
176
     1
 40
0.0
176
     1
 90
        0
176
     1
290
     0
176
     1
290
     1
176
     1
290
     1
176
     1
290
     0
176
     1
290
     0
176
     1
290
     0
176
     1
290
     0
176
     1
290
     0
176
     1
290
     0
176
     1
 90
       50
176
     1
 40
0.0
176
     1
 40
1.0
176
     1
 90
        0
176
     1
 62
   178
420
        0
176
     1
 90
       50
176
     1
 90
        3
176
     1
 62
     5
420
      255
176
     1
290
     0
176
     1
 90
       50
176
     1
 90
       50
176
     1
 90
       50
176
     1
290
     0
176
     1
 90
       50
176
     1
 62
   256
176
     0
 40
1.0
176
     0
 90
        2
176
     1
  1
strokes_ogs.tif
176
     1
290
     0
176
     1
 40
1.0
176
     1
 40
1.0
176
     1
  0
VISUALSTYLE
  5
E4
102
{ACAD_REACTORS
330
99
102
}
330
99
100
AcDbVisualStyle
  2
Hidden
 70
     6
177
     3
291
     0
 70
    58
 90
        1
176
     1
 90
        2
176
     1
 90
        2
176
     1
 90
        0
176
     1
 40
0.6
176
     1
 40
30.0
176
     1
 62
     7
420
 16777215
176
     1
 90
        2
176
     1
 90
        2
176
     1
 62
     7
176
     1
 62
   257
176
     1
 90
        2
176
     1
 90
        1
176
     1
 40
40.0
176
     1
 90
        0
176
     1
 62
   257
176
     1
 40
1.0
176
     1
 90
        1
176
     1
 90
        6
176
     1
 90
        2
176
     1
 62
     7
176
     1
 90
        3
176
     1
 90
        0
176
     1
 90
        0
176
     1
290
     0
176
     1
 90
        1
176
     1
 40
0.0
176
     1
 90
        0
176
     1
290
     0
176
     1
290
     1
176
     1
290
     1
176
     1
290
     0
176
     1
290
     0
176
     1
290
     0
176
     1
290
     0
176
     1
290
     0
176
     1
290
     0
176
     1
 90
       50
176
     1
 40
0.0
176
     1
 40
1.0
176
     1
 90
        0
176
     1
 62
   178
420
        0
176
     1
 90
       50
176
     1
 90
        3
176
     1
 62
     5
420
      255
176
     1
290
     0
176
     1
 90
       50
176
     1
 90
       50
176
     1
 90
       50
176
     1
290
     0
176
     1
 90
       50
176
     1
 62
   256
176
     0
 40
1.0
176
     0
 90
        2
176
     1
  1
strokes_ogs.tif
176
     1
290
     0
176
     1
 40
1.0
176
     1
 40
1.0
176
     1
  0
VISUALSTYLE
  5
E5
102
{ACAD_REACTORS
330
99
102
}
330
99
100
AcDbVisualStyle
  2
JitterOff
 70
    20
177
     3
291
     1
 70
    58
 90
        2
176
     0
 90
        2
176
     0
 90
        0
176
     0
 90
        0
176
     0
 40
0.6
176
     0
 40
30.0
176
     0
 62
     7
420
 16777215
176
     0
 90
        1
176
     0
 90
        4
176
     0
 62
     7
176
     0
 62
   257
176
     0
 90
        1
176
     0
 90
        1
176
     0
 40
1.0
176
     0
 90
       10
176
     2
 62
     7
176
     0
 40
1.0
176
     0
 90
        1
176
     0
 90
        6
176
     0
 90
        2
176
     0
 62
     7
176
     0
 90
        5
176
     0
 90
        0
176
     0
 90
        0
176
     0
290
     0
176
     0
 90
        1
176
     0
 40
0.0
176
     0
 90
        0
176
     0
290
     0
176
     0
290
     1
176
     0
290
     1
176
     0
290
     0
176
     0
290
     0
176
     0
290
     0
176
     0
290
     0
176
     0
290
     0
176
     0
290
     0
176
     0
 90
       50
176
     0
 40
0.0
176
     0
 40
1.0
176
     0
 90
        0
176
     0
 62
   178
420
        0
176
     0
 90
       50
176
     0
 90
        3
176
     0
 62
     5
420
      255
176
     0
290
     0
176
     0
 90
       50
176
     0
 90
       50
176
     0
 90
       50
176
     0
290
     0
176
     0
 90
       50
176
     0
 62
   256
176
     0
 40
1.0
176
     0
 90
        2
176
     0
  1
strokes_ogs.tif
176
     0
290
     0
176
     0
 40
1.0
176
     0
 40
1.0
176
     0
  0
VISUALSTYLE
  5
A7
102
{ACAD_REACTORS
330
99
102
}
330
99
100
AcDbVisualStyle
  2
Linepattern
 70
    14
177
     3
291
     1
 70
    58
 90
        2
176
     1
 90
        2
176
     1
 90
        1
176
     1
 90
        0
176
     1
 40
-0.6
176
     1
 40
-30.0
176
     1
 62
     7
420
 16777215
176
     1
 90
        1
176
     1
 90
        4
176
     1
 62
     7
176
     1
 62
   257
176
     1
 90
        7
176
     1
 90
        7
176
     1
 40
1.0
176
     1
 90
        8
176
     1
 62
     7
176
     1
 40
1.0
176
     1
 90
        1
176
     1
 90
        6
176
     1
 90
        2
176
     1
 62
     7
176
     1
 90
        5
176
     1
 90
        0
176
     1
 90
        0
176
     1
290
     0
176
     1
 90
        1
176
     1
 40
0.0
176
     1
 90
        0
176
     1
290
     0
176
     1
290
     1
176
     1
290
     1
176
     1
290
     0
176
     1
290
     0
176
     1
290
     0
176
     1
290
     0
176
     1
290
     0
176
     1
290
     0
176
     1
 90
       50
176
     1
 40
0.0
176
     1
 40
1.0
176
     1
 90
        0
176
     1
 62
   178
420
        0
176
     1
 90
       50
176
     1
 90
        3
176
     1
 62
     5
420
      255
176
     1
290
     0
176
     1
 90
       50
176
     1
 90
       50
176
     1
 90
       50
176
     1
290
     0
176
     1
 90
       50
176
     1
 62
   256
176
     0
 40
1.0
176
     0
 90
        2
176
     1
  1
strokes_ogs.tif
176
     1
290
     0
176
     1
 40
1.0
176
     1
 40
1.0
176
     1
  0
VISUALSTYLE
  5
E6
102
{ACAD_REACTORS
330
99
102
}
330
99
100
AcDbVisualStyle
  2
OverhangOff
 70
    21
177
     3
291
     1
 70
    58
 90
        2
176
     0
 90
        2
176
     0
 90
        0
176
     0
 90
        0
176
     0
 40
0.6
176
     0
 40
30.0
176
     0
 62
     7
420
 16777215
176
     0
 90
        1
176
     0
 90
        4
176
     0
 62
     7
176
     0
 62
   257
176
     0
 90
        1
176
     0
 90
        1
176
     0
 40
1.0
176
     0
 90
        9
176
     2
 62
     7
176
     0
 40
1.0
176
     0
 90
        1
176
     0
 90
        6
176
     0
 90
        2
176
     0
 62
     7
176
     0
 90
        5
176
     0
 90
        0
176
     0
 90
        0
176
     0
290
     0
176
     0
 90
        1
176
     0
 40
0.0
176
     0
 90
        0
176
     0
290
     0
176
     0
290
     1
176
     0
290
     1
176
     0
290
     0
176
     0
290
     0
176
     0
290
     0
176
     0
290
     0
176
     0
290
     0
176
     0
290
     0
176
     0
 90
       50
176
     0
 40
0.0
176
     0
 40
1.0
176
     0
 90
        0
176
     0
 62
   178
420
        0
176
     0
 90
       50
176
     0
 90
        3
176
     0
 62
     5
420
      255
176
     0
290
     0
176
     0
 90
       50
176
     0
 90
       50
176
     0
 90
       50
176
     0
290
     0
176
     0
 90
       50
176
     0
 62
   256
176
     0
 40
1.0
176
     0
 90
        2
176
     0
  1
strokes_ogs.tif
176
     0
290
     0
176
     0
 40
1.0
176
     0
 40
1.0
176
     0
  0
VISUALSTYLE
  5
A3
102
{ACAD_REACTORS
330
99
102
}
330
99
100
AcDbVisualStyle
  2
Realistic
 70
     8
177
     3
291
     0
 70
    58
 90
        2
176
     1
 90
        2
176
     1
 90
        1
176
     1
 90
        0
176
     1
 40
-0.6
176
     1
 40
-30.0
176
     1
 62
     7
420
 16777215
176
     1
 90
        1
176
     1
 90
        0
176
     1
 62
     7
176
     1
 62
   257
176
     1
 90
        1
176
     1
 90
        1
176
     1
 40
1.0
176
     1
 90
        8
176
     1
 62
     8
420
  7895160
176
     1
 40
1.0
176
     1
 90
        1
176
     1
 90
        6
176
     1
 90
        2
176
     1
 62
     7
176
     1
 90
        5
176
     1
 90
        0
176
     1
 90
        0
176
     1
290
     0
176
     1
 90
       13
176
     1
 40
0.0
176
     1
 90
        0
176
     1
290
     0
176
     1
290
     1
176
     1
290
     1
176
     1
290
     0
176
     1
290
     0
176
     1
290
     0
176
     1
290
     0
176
     1
290
     0
176
     1
290
     0
176
     1
 90
       50
176
     1
 40
0.0
176
     1
 40
1.0
176
     1
 90
        0
176
     1
 62
   178
420
        0
176
     1
 90
       50
176
     1
 90
        3
176
     1
 62
     5
420
      255
176
     1
290
     0
176
     1
 90
       50
176
     1
 90
       50
176
     1
 90
       50
176
     1
290
     0
176
     1
 90
       50
176
     1
 62
   256
176
     0
 40
1.0
176
     0
 90
        2
176
     1
  1
strokes_ogs.tif
176
     1
290
     0
176
     1
 40
1.0
176
     1
 40
1.0
176
     1
  0
VISUALSTYLE
  5
EC
102
{ACAD_REACTORS
330
99
102
}
330
99
100
AcDbVisualStyle
  2
Shaded
 70
    27
177
     3
291
     0
 70
    58
 90
        2
176
     1
 90
        2
176
     1
 90
        1
176
     1
 90
        2
176
     1
 40
0.6
176
     1
 40
30.0
176
     1
 62
     7
420
 16777215
176
     1
 90
        0
176
     1
 90
        4
176
     1
 62
     7
176
     1
 62
   257
176
     1
 90
        1
176
     1
 90
        1
176
     1
 40
1.0
176
     1
 90
        8
176
     1
 62
   257
176
     1
 40
1.0
176
     1
 90
        1
176
     1
 90
        6
176
     1
 90
        2
176
     1
 62
     8
420
  7895160
176
     1
 90
        3
176
     1
 90
        0
176
     1
 90
        0
176
     1
290
     0
176
     1
 90
        5
176
     1
 40
0.0
176
     1
 90
        0
176
     1
290
     0
176
     1
290
     1
176
     1
290
     1
176
     1
290
     0
176
     1
290
     0
176
     1
290
     0
176
     1
290
     0
176
     1
290
     0
176
     1
290
     0
176
     1
 90
       50
176
     1
 40
0.0
176
     1
 40
1.0
176
     1
 90
        0
176
     1
 62
   178
420
        0
176
     1
 90
       50
176
     1
 90
        3
176
     1
 62
     5
420
      255
176
     1
290
     0
176
     1
 90
       50
176
     1
 90
       50
176
     1
 90
       50
176
     1
290
     0
176
     1
 90
       50
176
     1
 62
   256
176
     0
 40
1.0
176
     0
 90
        2
176
     1
  1
strokes_ogs.tif
176
     1
290
     0
176
     1
 40
1.0
176
     1
 40
1.0
176
     1
  0
VISUALSTYLE
  5
EB
102
{ACAD_REACTORS
330
99
102
}
330
99
100
AcDbVisualStyle
  2
Shaded with edges
 70
    26
177
     3
291
     0
 70
    58
 90
        2
176
     1
 90
        2
176
     1
 90
        1
176
     1
 90
        2
176
     1
 40
0.6
176
     1
 40
30.0
176
     1
 62
     7
420
 16777215
176
     1
 90
        1
176
     1
 90
       10
176
     1
 62
     7
176
     1
 62
   257
176
     1
 90
        2
176
     1
 90
        1
176
     1
 40
1.0
176
     1
 90
        8
176
     1
 62
   257
176
     1
 40
1.0
176
     1
 90
        1
176
     1
 90
        6
176
     1
 90
        2
176
     1
 62
     7
176
     1
 90
        3
176
     1
 90
        0
176
     1
 90
        0
176
     1
290
     0
176
     1
 90
        5
176
     1
 40
0.0
176
     1
 90
        0
176
     1
290
     0
176
     1
290
     1
176
     1
290
     1
176
     1
290
     0
176
     1
290
     0
176
     1
290
     0
176
     1
290
     0
176
     1
290
     0
176
     1
290
     0
176
     1
 90
       50
176
     1
 40
0.0
176
     1
 40
1.0
176
     1
 90
        0
176
     1
 62
   178
420
        0
176
     1
 90
       50
176
     1
 90
        3
176
     1
 62
     5
420
      255
176
     1
290
     0
176
     1
 90
       50
176
     1
 90
       50
176
     1
 90
       50
176
     1
290
     0
176
     1
 90
       50
176
     1
 62
   256
176
     0
 40
1.0
176
     0
 90
        2
176
     1
  1
strokes_ogs.tif
176
     1
290
     0
176
     1
 40
1.0
176
     1
 40
1.0
176
     1
  0
VISUALSTYLE
  5
E8
102
{ACAD_REACTORS
330
99
102
}
330
99
100
AcDbVisualStyle
  2
Shades of Gray
 70
    23
177
     3
291
     0
 70
    58
 90
        2
176
     1
 90
        2
176
     1
 90
        3
176
     1
 90
        0
176
     1
 40
0.6
176
     1
 40
30.0
176
     1
 62
     7
420
 16777215
176
     1
 90
        2
176
     1
 90
        2
176
     1
 62
     7
176
     1
 62
     7
176
     1
 90
        1
176
     1
 90
        1
176
     1
 40
40.0
176
     1
 90
        8
176
     1
 62
     7
176
     1
 40
1.0
176
     1
 90
        1
176
     1
 90
        6
176
     1
 90
        2
176
     1
 62
     7
176
     1
 90
        3
176
     1
 90
        0
176
     1
 90
        0
176
     1
290
     0
176
     1
 90
        1
176
     1
 40
0.0
176
     1
 90
        0
176
     1
290
     0
176
     1
290
     1
176
     1
290
     1
176
     1
290
     0
176
     1
290
     0
176
     1
290
     0
176
     1
290
     0
176
     1
290
     0
176
     1
290
     0
176
     1
 90
       50
176
     1
 40
0.0
176
     1
 40
1.0
176
     1
 90
        0
176
     1
 62
   178
420
        0
176
     1
 90
       50
176
     1
 90
        3
176
     1
 62
     5
420
      255
176
     1
290
     0
176
     1
 90
       50
176
     1
 90
       50
176
     1
 90
       50
176
     1
290
     0
176
     1
 90
       50
176
     1
 62
   256
176
     0
 40
1.0
176
     0
 90
        2
176
     1
  1
strokes_ogs.tif
176
     1
290
     0
176
     1
 40
1.0
176
     1
 40
1.0
176
     1
  0
VISUALSTYLE
  5
E9
102
{ACAD_REACTORS
330
99
102
}
330
99
100
AcDbVisualStyle
  2
Sketchy
 70
    24
177
     3
291
     0
 70
    58
 90
        1
176
     1
 90
        2
176
     1
 90
        2
176
     1
 90
        0
176
     1
 40
0.6
176
     1
 40
30.0
176
     1
 62
     7
420
 16777215
176
     1
 90
        2
176
     1
 90
        2
176
     1
 62
     7
176
     1
 62
     7
176
     1
 90
        1
176
     1
 90
        1
176
     1
 40
40.0
176
     1
 90
       11
176
     1
 62
     7
176
     1
 40
1.0
176
     1
 90
        1
176
     1
 90
        6
176
     1
 90
        2
176
     1
 62
     7
176
     1
 90
        6
176
     1
 90
        0
176
     1
 90
        0
176
     1
290
     0
176
     1
 90
        1
176
     1
 40
0.0
176
     1
 90
        0
176
     1
290
     0
176
     1
290
     1
176
     1
290
     1
176
     1
290
     0
176
     1
290
     0
176
     1
290
     0
176
     1
290
     0
176
     1
290
     0
176
     1
290
     0
176
     1
 90
       50
176
     1
 40
0.0
176
     1
 40
1.0
176
     1
 90
        0
176
     1
 62
   178
420
        0
176
     1
 90
       50
176
     1
 90
        3
176
     1
 62
     5
420
      255
176
     1
290
     0
176
     1
 90
       50
176
     1
 90
       50
176
     1
 90
       50
176
     1
290
     0
176
     1
 90
       50
176
     1
 62
   256
176
     0
 40
1.0
176
     0
 90
        2
176
     1
  1
strokes_ogs.tif
176
     1
290
     0
176
     1
 40
1.0
176
     1
 40
1.0
176
     1
  0
VISUALSTYLE
  5
A6
102
{ACAD_REACTORS
330
99
102
}
330
99
100
AcDbVisualStyle
  2
Thicken
 70
    13
177
     3
291
     1
 70
    58
 90
        2
176
     1
 90
        2
176
     1
 90
        1
176
     1
 90
        0
176
     1
 40
-0.6
176
     1
 40
-30.0
176
     1
 62
     7
420
 16777215
176
     1
 90
        1
176
     1
 90
        4
176
     1
 62
     7
176
     1
 62
   257
176
     1
 90
        1
176
     1
 90
        1
176
     1
 40
1.0
176
     1
 90
       12
176
     1
 62
     7
176
     1
 40
1.0
176
     1
 90
        1
176
     1
 90
        6
176
     1
 90
        2
176
     1
 62
     7
176
     1
 90
        5
176
     1
 90
        0
176
     1
 90
        0
176
     1
290
     0
176
     1
 90
        1
176
     1
 40
0.0
176
     1
 90
        0
176
     1
290
     0
176
     1
290
     1
176
     1
290
     1
176
     1
290
     0
176
     1
290
     0
176
     1
290
     0
176
     1
290
     0
176
     1
290
     0
176
     1
290
     0
176
     1
 90
       50
176
     1
 40
0.0
176
     1
 40
1.0
176
     1
 90
        0
176
     1
 62
   178
420
        0
176
     1
 90
       50
176
     1
 90
        3
176
     1
 62
     5
420
      255
176
     1
290
     0
176
     1
 90
       50
176
     1
 90
       50
176
     1
 90
       50
176
     1
290
     0
176
     1
 90
       50
176
     1
 62
   256
176
     0
 40
1.0
176
     0
 90
        2
176
     1
  1
strokes_ogs.tif
176
     1
290
     0
176
     1
 40
1.0
176
     1
 40
1.0
176
     1
  0
VISUALSTYLE
  5
E3
102
{ACAD_REACTORS
330
99
102
}
330
99
100
AcDbVisualStyle
  2
Wireframe
 70
     5
177
     3
291
     0
 70
    58
 90
        0
176
     1
 90
        2
176
     1
 90
        0
176
     1
 90
        0
176
     1
 40
0.6
176
     1
 40
30.0
176
     1
 62
     7
420
 16777215
176
     1
 90
        1
176
     1
 90
        4
176
     1
 62
     7
176
     1
 62
   257
176
     1
 90
        1
176
     1
 90
        1
176
     1
 40
1.0
176
     1
 90
        0
176
     1
 62
   257
176
     1
 40
1.0
176
     1
 90
        1
176
     1
 90
        6
176
     1
 90
        2
176
     1
 62
     7
176
     1
 90
        3
176
     1
 90
        0
176
     1
 90
        0
176
     1
290
     0
176
     1
 90
        1
176
     1
 40
0.0
176
     1
 90
        0
176
     1
290
     0
176
     1
290
     1
176
     1
290
     1
176
     1
290
     0
176
     1
290
     0
176
     1
290
     0
176
     1
290
     0
176
     1
290
     0
176
     1
290
     0
176
     1
 90
       50
176
     1
 40
0.0
176
     1
 40
1.0
176
     1
 90
        0
176
     1
 62
   178
420
        0
176
     1
 90
       50
176
     1
 90
        3
176
     1
 62
     5
420
      255
176
     1
290
     0
176
     1
 90
       50
176
     1
 90
       50
176
     1
 90
       50
176
     1
290
     0
176
     1
 90
       50
176
     1
 62
   256
176
     0
 40
1.0
176
     0
 90
        2
176
     1
  1
strokes_ogs.tif
176
     1
290
     0
176
     1
 40
1.0
176
     1
 40
1.0
176
     1
  0
VISUALSTYLE
  5
EA
102
{ACAD_REACTORS
330
99
102
}
330
99
100
AcDbVisualStyle
  2
X-Ray
 70
    25
177
     3
291
     0
 70
    58
 90
        2
176
     1
 90
        2
176
     1
 90
        1
176
     1
 90
        1
176
     1
 40
0.5
176
     1
 40
30.0
176
     1
 62
     7
420
 16777215
176
     1
 90
        1
176
     1
 90
        0
176
     1
 62
     7
176
     1
 62
   257
176
     1
 90
        1
176
     1
 90
        1
176
     1
 40
1.0
176
     1
 90
        8
176
     1
 62
     7
176
     1
 40
1.0
176
     1
 90
        1
176
     1
 90
        6
176
     1
 90
        2
176
     1
 62
     7
176
     1
 90
        3
176
     1
 90
        0
176
     1
 90
        0
176
     1
290
     0
176
     1
 90
       13
176
     1
 40
0.0
176
     1
 90
        0
176
     1
290
     0
176
     1
290
     1
176
     1
290
     1
176
     1
290
     0
176
     1
290
     0
176
     1
290
     0
176
     1
290
     0
176
     1
290
     0
176
     1
290
     0
176
     1
 90
       50
176
     1
 40
0.0
176
     1
 40
1.0
176
     1
 90
        0
176
     1
 62
   178
420
        0
176
     1
 90
       50
176
     1
 90
        3
176
     1
 62
     5
420
      255
176
     1
290
     0
176
     1
 90
       50
176
     1
 90
       50
176
     1
 90
       50
176
     1
290
     0
176
     1
 90
       50
176
     1
 62
   256
176
     0
 40
1.0
176
     0
 90
        2
176
     1
  1
strokes_ogs.tif
176
     1
290
     0
176
     1
 40
1.0
176
     1
 40
1.0
176
     1
  0
DICTIONARYVAR
  5
D8
102
{ACAD_REACTORS
330
66
102
}
330
66
100
DictionaryVariables
280
     0
  1
1:1
  0
DICTIONARYVAR
  5
321
102
{ACAD_REACTORS
330
66
102
}
330
66
100
DictionaryVariables
280
     0
  1
Standard
  0
DICTIONARYVAR
  5
89
102
{ACAD_REACTORS
330
66
102
}
330
66
100
DictionaryVariables
280
     0
  1
Standard
  0
DICTIONARYVAR
  5
67
102
{ACAD_REACTORS
330
66
102
}
330
66
100
DictionaryVariables
280
     0
  1
2
  0
DICTIONARYVAR
  5
6B
102
{ACAD_REACTORS
330
66
102
}
330
66
100
DictionaryVariables
280
     0
  1
1
  0
DICTIONARYVAR
  5
DF
102
{ACAD_REACTORS
330
66
102
}
330
66
100
DictionaryVariables
280
     0
  1
0
  0
DICTIONARYVAR
  5
E0
102
{ACAD_REACTORS
330
66
102
}
330
66
100
DictionaryVariables
280
     0
  1
0
  0
DICTIONARY
  5
31E
330
87
100
AcDbDictionary
280
     1
281
     1
  3
ACAD_ROUNDTRIP_2008_TABLESTYLE_CELLSTYLEMAP
360
31F
  0
CELLSTYLEMAP
  5
31F
102
{ACAD_REACTORS
330
31E
102
}
330
31E
100
AcDbCellStyleMap
 90
        3
300
CELLSTYLE
  1
TABLEFORMAT_BEGIN
 90
        5
170
     1
 91
        0
 92
    32768
 62
   257
 93
        1
300
CONTENTFORMAT
  1
CONTENTFORMAT_BEGIN
 90
        0
 91
        0
 92
      512
 93
        0
300

 40
0.0
140
1.0
 94
        5
 62
     0
340
11
144
0.25
309
CONTENTFORMAT_END
171
     0
 94
        6
 95
        1
302
GRIDFORMAT
  1
GRIDFORMAT_BEGIN
 90
        0
 91
        1
 62
     0
 92
       -2
340
0
 93
        0
 40
0.045
309
GRIDFORMAT_END
 95
        2
302
GRIDFORMAT
  1
GRIDFORMAT_BEGIN
 90
        0
 91
        1
 62
     0
 92
       -2
340
0
 93
        0
 40
0.045
309
GRIDFORMAT_END
 95
        4
302
GRIDFORMAT
  1
GRIDFORMAT_BEGIN
 90
        0
 91
        1
 62
     0
 92
       -2
340
0
 93
        0
 40
0.045
309
GRIDFORMAT_END
 95
        8
302
GRIDFORMAT
  1
GRIDFORMAT_BEGIN
 90
        0
 91
        1
 62
     0
 92
       -2
340
0
 93
        0
 40
0.045
309
GRIDFORMAT_END
 95
       16
302
GRIDFORMAT
  1
GRIDFORMAT_BEGIN
 90
        0
 91
        1
 62
     0
 92
       -2
340
0
 93
        0
 40
0.045
309
GRIDFORMAT_END
 95
       32
302
GRIDFORMAT
  1
GRIDFORMAT_BEGIN
 90
        0
 91
        1
 62
     0
 92
       -2
340
0
 93
        0
 40
0.045
309
GRIDFORMAT_END
309
TABLEFORMAT_END
  1
CELLSTYLE_BEGIN
 90
        1
 91
        1
300
_TITLE
309
CELLSTYLE_END
300
CELLSTYLE
  1
TABLEFORMAT_BEGIN
 90
        5
170
     1
 91
        0
 92
        0
 62
   257
 93
        1
300
CONTENTFORMAT
  1
CONTENTFORMAT_BEGIN
 90
        0
 91
        0
 92
      512
 93
        0
300

 40
0.0
140
1.0
 94
        5
 62
     0
340
11
144
0.18
309
CONTENTFORMAT_END
171
     0
 94
        6
 95
        1
302
GRIDFORMAT
  1
GRIDFORMAT_BEGIN
 90
        0
 91
        1
 62
     0
 92
       -2
340
0
 93
        0
 40
0.045
309
GRIDFORMAT_END
 95
        2
302
GRIDFORMAT
  1
GRIDFORMAT_BEGIN
 90
        0
 91
        1
 62
     0
 92
       -2
340
0
 93
        0
 40
0.045
309
GRIDFORMAT_END
 95
        4
302
GRIDFORMAT
  1
GRIDFORMAT_BEGIN
 90
        0
 91
        1
 62
     0
 92
       -2
340
0
 93
        0
 40
0.045
309
GRIDFORMAT_END
 95
        8
302
GRIDFORMAT
  1
GRIDFORMAT_BEGIN
 90
        0
 91
        1
 62
     0
 92
       -2
340
0
 93
        0
 40
0.045
309
GRIDFORMAT_END
 95
       16
302
GRIDFORMAT
  1
GRIDFORMAT_BEGIN
 90
        0
 91
        1
 62
     0
 92
       -2
340
0
 93
        0
 40
0.045
309
GRIDFORMAT_END
 95
       32
302
GRIDFORMAT
  1
GRIDFORMAT_BEGIN
 90
        0
 91
        1
 62
     0
 92
       -2
340
0
 93
        0
 40
0.045
309
GRIDFORMAT_END
309
TABLEFORMAT_END
  1
CELLSTYLE_BEGIN
 90
        2
 91
        1
300
_HEADER
309
CELLSTYLE_END
300
CELLSTYLE
  1
TABLEFORMAT_BEGIN
 90
        5
170
     1
 91
        0
 92
        0
 62
   257
 93
        1
300
CONTENTFORMAT
  1
CONTENTFORMAT_BEGIN
 90
        0
 91
        0
 92
      512
 93
        0
300

 40
0.0
140
1.0
 94
        2
 62
     0
340
11
144
0.18
309
CONTENTFORMAT_END
171
     0
 94
        6
 95
        1
302
GRIDFORMAT
  1
GRIDFORMAT_BEGIN
 90
        0
 91
        1
 62
     0
 92
       -2
340
0
 93
        0
 40
0.045
309
GRIDFORMAT_END
 95
        2
302
GRIDFORMAT
  1
GRIDFORMAT_BEGIN
 90
        0
 91
        1
 62
     0
 92
       -2
340
0
 93
        0
 40
0.045
309
GRIDFORMAT_END
 95
        4
302
GRIDFORMAT
  1
GRIDFORMAT_BEGIN
 90
        0
 91
        1
 62
     0
 92
       -2
340
0
 93
        0
 40
0.045
309
GRIDFORMAT_END
 95
        8
302
GRIDFORMAT
  1
GRIDFORMAT_BEGIN
 90
        0
 91
        1
 62
     0
 92
       -2
340
0
 93
        0
 40
0.045
309
GRIDFORMAT_END
 95
       16
302
GRIDFORMAT
  1
GRIDFORMAT_BEGIN
 90
        0
 91
        1
 62
     0
 92
       -2
340
0
 93
        0
 40
0.045
309
GRIDFORMAT_END
 95
       32
302
GRIDFORMAT
  1
GRIDFORMAT_BEGIN
 90
        0
 91
        1
 62
     0
 92
       -2
340
0
 93
        0
 40
0.045
309
GRIDFORMAT_END
309
TABLEFORMAT_END
  1
CELLSTYLE_BEGIN
 90
        3
 91
        2
300
_DATA
309
CELLSTYLE_END
  0
ENDSEC
  0
EOF
