  0
SECTION
  2
HEADER
  9
$ACADVER
  1
AC1027
  9
$ACADMAINTVER
 70
     8
  9
$DWGCODEPAGE
  3
ANSI_932
  9
$REQUIREDVERSIONS
160
                 0
  9
$LASTSAVEDBY
  1
aki
  9
$INSBASE
 10
0.0
 20
0.0
 30
0.0
  9
$EXTMIN
 10
8.5935849830867
 20
49.21635390392105
 30
0.0
  9
$EXTMAX
 10
224.5674124502908
 20
238.3042936911666
 30
0.0
  9
$LIMMIN
 10
0.0
 20
0.0
  9
$LIMMAX
 10
420.0
 20
297.0
  9
$ORTHOMODE
 70
     0
  9
$REGENMODE
 70
     1
  9
$FILLMODE
 70
     1
  9
$QTEXTMODE
 70
     0
  9
$MIRRTEXT
 70
     0
  9
$LTSCALE
 40
0.2
  9
$ATTMODE
 70
     1
  9
$TEXTSIZE
 40
3.0
  9
$TRACEWID
 40
1.0
  9
$TEXTSTYLE
  7
Standard
  9
$CLAYER
  8
文字
  9
$CELTYPE
  6
ByLayer
  9
$CECOLOR
 62
   256
  9
$CELTSCALE
 40
1.0
  9
$DISPSILH
 70
     0
  9
$DIMSCALE
 40
1.0
  9
$DIMASZ
 40
2.5
  9
$DIMEXO
 40
0.625
  9
$DIMDLI
 40
3.75
  9
$DIMRND
 40
0.0
  9
$DIMDLE
 40
0.0
  9
$DIMEXE
 40
1.25
  9
$DIMTP
 40
0.0
  9
$DIMTM
 40
0.0
  9
$DIMTXT
 40
2.5
  9
$DIMCEN
 40
2.5
  9
$DIMTSZ
 40
0.0
  9
$DIMTOL
 70
     0
  9
$DIMLIM
 70
     0
  9
$DIMTIH
 70
     0
  9
$DIMTOH
 70
     0
  9
$DIMSE1
 70
     0
  9
$DIMSE2
 70
     0
  9
$DIMTAD
 70
     1
  9
$DIMZIN
 70
     8
  9
$DIMBLK
  1

  9
$DIMASO
 70
     1
  9
$DIMSHO
 70
     1
  9
$DIMPOST
  1

  9
$DIMAPOST
  1

  9
$DIMALT
 70
     0
  9
$DIMALTD
 70
     3
  9
$DIMALTF
 40
0.03937007874016
  9
$DIMLFAC
 40
1.0
  9
$DIMTOFL
 70
     1
  9
$DIMTVP
 40
0.0
  9
$DIMTIX
 70
     0
  9
$DIMSOXD
 70
     0
  9
$DIMSAH
 70
     0
  9
$DIMBLK1
  1

  9
$DIMBLK2
  1

  9
$DIMSTYLE
  2
ISO-25
  9
$DIMCLRD
 70
     0
  9
$DIMCLRE
 70
     0
  9
$DIMCLRT
 70
     0
  9
$DIMTFAC
 40
1.0
  9
$DIMGAP
 40
0.625
  9
$DIMJUST
 70
     0
  9
$DIMSD1
 70
     0
  9
$DIMSD2
 70
     0
  9
$DIMTOLJ
 70
     0
  9
$DIMTZIN
 70
     8
  9
$DIMALTZ
 70
     0
  9
$DIMALTTZ
 70
     0
  9
$DIMUPT
 70
     0
  9
$DIMDEC
 70
     2
  9
$DIMTDEC
 70
     2
  9
$DIMALTU
 70
     2
  9
$DIMALTTD
 70
     3
  9
$DIMTXSTY
  7
Standard
  9
$DIMAUNIT
 70
     0
  9
$DIMADEC
 70
     0
  9
$DIMALTRND
 40
0.0
  9
$DIMAZIN
 70
     0
  9
$DIMDSEP
 70
    46
  9
$DIMATFIT
 70
     3
  9
$DIMFRAC
 70
     0
  9
$DIMLDRBLK
  1

  9
$DIMLUNIT
 70
     2
  9
$DIMLWD
 70
    -2
  9
$DIMLWE
 70
    -2
  9
$DIMTMOVE
 70
     0
  9
$DIMFXL
 40
1.0
  9
$DIMFXLON
 70
     0
  9
$DIMJOGANG
 40
0.7853981633974483
  9
$DIMTFILL
 70
     0
  9
$DIMTFILLCLR
 70
     0
  9
$DIMARCSYM
 70
     0
  9
$DIMLTYPE
  6

  9
$DIMLTEX1
  6

  9
$DIMLTEX2
  6

  9
$DIMTXTDIRECTION
 70
     0
  9
$LUNITS
 70
     2
  9
$LUPREC
 70
     4
  9
$SKETCHINC
 40
1.0
  9
$FILLETRAD
 40
2.0
  9
$AUNITS
 70
     0
  9
$AUPREC
 70
     0
  9
$MENU
  1
.
  9
$ELEVATION
 40
0.0
  9
$PELEVATION
 40
0.0
  9
$THICKNESS
 40
0.0
  9
$LIMCHECK
 70
     0
  9
$CHAMFERA
 40
0.0
  9
$CHAMFERB
 40
0.0
  9
$CHAMFERC
 40
0.0
  9
$CHAMFERD
 40
0.0
  9
$SKPOLY
 70
     0
  9
$TDCREATE
 40
2452936.788310347
  9
$TDUCREATE
 40
2452936.413310359
  9
$TDUPDATE
 40
2456757.694120359
  9
$TDUUPDATE
 40
2456757.31912037
  9
$TDINDWG
 40
0.9389103125
  9
$TDUSRTIMER
 40
2456757.318854167
  9
$USRTIMER
 70
     1
  9
$ANGBASE
 50
0.0
  9
$ANGDIR
 70
     0
  9
$PDMODE
 70
     0
  9
$PDSIZE
 40
0.0
  9
$PLINEWID
 40
0.0
  9
$SPLFRAME
 70
     0
  9
$SPLINETYPE
 70
     6
  9
$SPLINESEGS
 70
     8
  9
$HANDSEED
  5
2496
  9
$SURFTAB1
 70
     6
  9
$SURFTAB2
 70
     6
  9
$SURFTYPE
 70
     6
  9
$SURFU
 70
     6
  9
$SURFV
 70
     6
  9
$UCSBASE
  2

  9
$UCSNAME
  2

  9
$UCSORG
 10
0.0
 20
0.0
 30
0.0
  9
$UCSXDIR
 10
1.0
 20
0.0
 30
0.0
  9
$UCSYDIR
 10
0.0
 20
1.0
 30
0.0
  9
$UCSORTHOREF
  2

  9
$UCSORTHOVIEW
 70
     0
  9
$UCSORGTOP
 10
0.0
 20
0.0
 30
0.0
  9
$UCSORGBOTTOM
 10
0.0
 20
0.0
 30
0.0
  9
$UCSORGLEFT
 10
0.0
 20
0.0
 30
0.0
  9
$UCSORGRIGHT
 10
0.0
 20
0.0
 30
0.0
  9
$UCSORGFRONT
 10
0.0
 20
0.0
 30
0.0
  9
$UCSORGBACK
 10
0.0
 20
0.0
 30
0.0
  9
$PUCSBASE
  2

  9
$PUCSNAME
  2

  9
$PUCSORG
 10
0.0
 20
0.0
 30
0.0
  9
$PUCSXDIR
 10
1.0
 20
0.0
 30
0.0
  9
$PUCSYDIR
 10
0.0
 20
1.0
 30
0.0
  9
$PUCSORTHOREF
  2

  9
$PUCSORTHOVIEW
 70
     0
  9
$PUCSORGTOP
 10
0.0
 20
0.0
 30
0.0
  9
$PUCSORGBOTTOM
 10
0.0
 20
0.0
 30
0.0
  9
$PUCSORGLEFT
 10
0.0
 20
0.0
 30
0.0
  9
$PUCSORGRIGHT
 10
0.0
 20
0.0
 30
0.0
  9
$PUCSORGFRONT
 10
0.0
 20
0.0
 30
0.0
  9
$PUCSORGBACK
 10
0.0
 20
0.0
 30
0.0
  9
$USERI1
 70
     0
  9
$USERI2
 70
     0
  9
$USERI3
 70
     0
  9
$USERI4
 70
     0
  9
$USERI5
 70
     0
  9
$USERR1
 40
0.0
  9
$USERR2
 40
0.0
  9
$USERR3
 40
0.0
  9
$USERR4
 40
0.0
  9
$USERR5
 40
0.0
  9
$WORLDVIEW
 70
     1
  9
$SHADEDGE
 70
     3
  9
$SHADEDIF
 70
    70
  9
$TILEMODE
 70
     1
  9
$MAXACTVP
 70
    64
  9
$PINSBASE
 10
0.0
 20
0.0
 30
0.0
  9
$PLIMCHECK
 70
     0
  9
$PEXTMIN
 10
0.0
 20
0.0
 30
0.0
  9
$PEXTMAX
 10
0.0
 20
0.0
 30
0.0
  9
$PLIMMIN
 10
-6.35
 20
-6.35
  9
$PLIMMAX
 10
413.8083333333333
 20
290.6888888888888
  9
$UNITMODE
 70
     0
  9
$VISRETAIN
 70
     1
  9
$PLINEGEN
 70
     0
  9
$PSLTSCALE
 70
     1
  9
$TREEDEPTH
 70
  3020
  9
$CMLSTYLE
  2
Standard
  9
$CMLJUST
 70
     0
  9
$CMLSCALE
 40
20.0
  9
$PROXYGRAPHICS
 70
     1
  9
$MEASUREMENT
 70
     1
  9
$CELWEIGHT
370
    -1
  9
$ENDCAPS
280
     0
  9
$JOINSTYLE
280
     0
  9
$LWDISPLAY
290
     0
  9
$INSUNITS
 70
     4
  9
$HYPERLINKBASE
  1

  9
$STYLESHEET
  1

  9
$XEDIT
290
     1
  9
$CEPSNTYPE
380
     0
  9
$PSTYLEMODE
290
     1
  9
$FINGERPRINTGUID
  2
{86E58535-AB5B-4AFE-AB1B-6758AAB7EA7D}
  9
$VERSIONGUID
  2
{3A13CB67-ED55-45B8-9929-723A35F48FC3}
  9
$EXTNAMES
290
     1
  9
$PSVPSCALE
 40
0.0
  9
$OLESTARTUP
290
     0
  9
$SORTENTS
280
   127
  9
$INDEXCTL
280
     0
  9
$HIDETEXT
280
     1
  9
$XCLIPFRAME
280
     2
  9
$HALOGAP
280
     0
  9
$OBSCOLOR
 70
   257
  9
$OBSLTYPE
280
     0
  9
$INTERSECTIONDISPLAY
280
     0
  9
$INTERSECTIONCOLOR
 70
   257
  9
$DIMASSOC
280
     2
  9
$PROJECTNAME
  1

  9
$CAMERADISPLAY
290
     0
  9
$LENSLENGTH
 40
50.0
  9
$CAMERAHEIGHT
 40
0.0
  9
$STEPSPERSEC
 40
2.0
  9
$STEPSIZE
 40
6.0
  9
$3DDWFPREC
 40
2.0
  9
$PSOLWIDTH
 40
0.25
  9
$PSOLHEIGHT
 40
4.0
  9
$LOFTANG1
 40
1.570796326794897
  9
$LOFTANG2
 40
1.570796326794897
  9
$LOFTMAG1
 40
0.0
  9
$LOFTMAG2
 40
0.0
  9
$LOFTPARAM
 70
     7
  9
$LOFTNORMALS
280
     1
  9
$LATITUDE
 40
37.795
  9
$LONGITUDE
 40
-122.394
  9
$NORTHDIRECTION
 40
0.0
  9
$TIMEZONE
 70
 -8000
  9
$LIGHTGLYPHDISPLAY
280
     1
  9
$TILEMODELIGHTSYNCH
280
     1
  9
$SOLIDHIST
280
     1
  9
$SHOWHIST
280
     1
  9
$DWFFRAME
280
     2
  9
$DGNFRAME
280
     2
  9
$REALWORLDSCALE
290
     1
  9
$INTERFERECOLOR
 62
   256
  9
$CSHADOW
280
     0
  9
$SHADOWPLANELOCATION
 40
0.0
  0
ENDSEC
  0
SECTION
  2
CLASSES
  0
CLASS
  1
ACDBDICTIONARYWDFLT
  2
AcDbDictionaryWithDefault
  3
ObjectDBX Classes
 90
        0
 91
        6
280
     0
281
     0
  0
CLASS
  1
DIMASSOC
  2
AcDbDimAssoc
  3
"AcDbDimAssoc|Product Desc:     AcDim ARX App For Dimension|Company:          Autodesk, Inc.|WEB Address:      www.autodesk.com"
 90
        0
 91
        6
280
     0
281
     0
  0
CLASS
  1
DICTIONARYVAR
  2
AcDbDictionaryVar
  3
ObjectDBX Classes
 90
        0
 91
        6
280
     0
281
     0
  0
CLASS
  1
ACDBPLACEHOLDER
  2
AcDbPlaceHolder
  3
ObjectDBX Classes
 90
        0
 91
        1
280
     0
281
     0
  0
CLASS
  1
LAYOUT
  2
AcDbLayout
  3
ObjectDBX Classes
 90
        0
 91
        1
280
     0
281
     0
  0
CLASS
  1
VISUALSTYLE
  2
AcDbVisualStyle
  3
ObjectDBX Classes
 90
     4095
 91
        6
280
     0
281
     0
  0
CLASS
  1
SCALE
  2
AcDbScale
  3
ObjectDBX Classes
 90
     1153
 91
        6
280
     0
281
     0
  0
CLASS
  1
MATERIAL
  2
AcDbMaterial
  3
ObjectDBX Classes
 90
     1153
 91
        6
280
     0
281
     0
  0
CLASS
  1
TABLESTYLE
  2
AcDbTableStyle
  3
ObjectDBX Classes
 90
     4095
 91
        6
280
     0
281
     0
  0
CLASS
  1
SUN
  2
AcDbSun
  3
SCENEOE
 90
     1153
 91
        6
280
     0
281
     0
  0
CLASS
  1
RASTERVARIABLES
  2
AcDbRasterVariables
  3
ISM
 90
        0
 91
        6
280
     0
281
     0
  0
CLASS
  1
CELLSTYLEMAP
  2
AcDbCellStyleMap
  3
ObjectDBX Classes
 90
     1152
 91
        6
280
     0
281
     0
  0
ENDSEC
  0
SECTION
  2
TABLES
  0
TABLE
  2
VPORT
  5
8
330
0
100
AcDbSymbolTable
 70
     1
  0
VPORT
  5
1ED2
330
8
100
AcDbSymbolTableRecord
100
AcDbViewportTableRecord
  2
*Active
 70
     0
 10
0.0
 20
0.0
 11
1.0
 21
1.0
 12
116.5804987166888
 22
143.7603237975438
 13
0.0
 23
0.0
 14
10.0
 24
10.0
 15
10.0
 25
10.0
 16
0.0
 26
0.0
 36
1.0
 17
0.0
 27
0.0
 37
0.0
 40
192.8696985829905
 41
1.360169491525424
 42
50.0
 43
0.0
 44
0.0
 50
0.0
 51
0.0
 71
    16
 72
  1000
 73
     1
 74
     3
 75
     0
 76
     0
 77
     0
 78
     0
281
     0
 65
     1
110
0.0
120
0.0
130
0.0
111
1.0
121
0.0
131
0.0
112
0.0
122
1.0
132
0.0
 79
     0
146
0.0
348
1EE3
 60
     3
 61
     5
292
     1
282
     1
141
0.0
142
0.0
 63
   256
361
1F28
  0
ENDTAB
  0
TABLE
  2
LTYPE
  5
5
330
0
100
AcDbSymbolTable
 70
     6
  0
LTYPE
  5
14
330
5
100
AcDbSymbolTableRecord
100
AcDbLinetypeTableRecord
  2
ByBlock
 70
     0
  3

 72
    65
 73
     0
 40
0.0
  0
LTYPE
  5
15
330
5
100
AcDbSymbolTableRecord
100
AcDbLinetypeTableRecord
  2
ByLayer
 70
     0
  3

 72
    65
 73
     0
 40
0.0
  0
LTYPE
  5
16
330
5
100
AcDbSymbolTableRecord
100
AcDbLinetypeTableRecord
  2
Continuous
 70
     0
  3
Solid line
 72
    65
 73
     0
 40
0.0
  0
LTYPE
  5
35
330
5
100
AcDbSymbolTableRecord
100
AcDbLinetypeTableRecord
  2
ACAD_ISO08W100
 70
     0
  3
ISO long-dash short-dash ____ __ ____ __ ____ _
 72
    65
 73
     4
 40
36.0
 49
24.0
 74
     0
 49
-3.0
 74
     0
 49
6.0
 74
     0
 49
-3.0
 74
     0
  0
LTYPE
  5
127
330
5
100
AcDbSymbolTableRecord
100
AcDbLinetypeTableRecord
  2
HIDDENX2
 70
     0
  3
Hidden (2x) ____ ____ ____ ____ ____ ____ ____
 72
    65
 73
     2
 40
19.05
 49
12.7
 74
     0
 49
-6.35
 74
     0
  0
LTYPE
  5
5EC
330
5
100
AcDbSymbolTableRecord
100
AcDbLinetypeTableRecord
  2
CENTER
 70
     0
  3
Center ____ _ ____ _ ____ _ ____ _ ____ _ ____
 72
    65
 73
     4
 40
50.8
 49
31.75
 74
     0
 49
-6.35
 74
     0
 49
6.35
 74
     0
 49
-6.35
 74
     0
  0
LTYPE
  5
5ED
330
5
100
AcDbSymbolTableRecord
100
AcDbLinetypeTableRecord
  2
ACAD_ISO02W100
 70
     0
  3
ISO dash __ __ __ __ __ __ __ __ __ __ __ __ __
 72
    65
 73
     2
 40
15.0
 49
12.0
 74
     0
 49
-3.0
 74
     0
  0
LTYPE
  5
605
330
5
100
AcDbSymbolTableRecord
100
AcDbLinetypeTableRecord
  2
DASHED
 70
     0
  3
Dashed __ __ __ __ __ __ __ __ __ __ __ __ __ _
 72
    65
 73
     2
 40
19.05
 49
12.7
 74
     0
 49
-6.35
 74
     0
  0
ENDTAB
  0
TABLE
  2
LAYER
  5
2
330
0
100
AcDbSymbolTable
 70
     9
  0
LAYER
  5
10
330
2
100
AcDbSymbolTableRecord
100
AcDbLayerTableRecord
  2
0
 70
     0
 62
     7
  6
Continuous
370
    -3
390
F
347
1F1B
348
0
  0
LAYER
  5
2E
330
2
100
AcDbSymbolTableRecord
100
AcDbLayerTableRecord
  2
枠
 70
     0
 62
     1
  6
Continuous
370
    30
390
F
347
1F1B
348
0
  0
LAYER
  5
2F
330
2
100
AcDbSymbolTableRecord
100
AcDbLayerTableRecord
  2
文字
 70
     0
 62
     7
  6
Continuous
370
    18
390
F
347
1F1B
348
0
  0
LAYER
  5
36
330
2
100
AcDbSymbolTableRecord
100
AcDbLayerTableRecord
  2
中心線
 70
     0
 62
     7
  6
CENTER
370
    15
390
F
347
1F1B
348
0
  0
LAYER
  5
52
330
2
100
AcDbSymbolTableRecord
100
AcDbLayerTableRecord
  2
隠れ線
 70
     0
 62
     2
  6
Continuous
290
     0
370
    -3
390
F
347
1F1B
348
0
  0
LAYER
  5
128
330
2
100
AcDbSymbolTableRecord
100
AcDbLayerTableRecord
  2
実線
 70
     0
 62
     7
  6
Continuous
370
    20
390
F
347
1F1B
348
0
  0
LAYER
  5
129
330
2
100
AcDbSymbolTableRecord
100
AcDbLayerTableRecord
  2
破線
 70
     0
 62
     7
  6
DASHED
370
    15
390
F
347
1F1B
348
0
  0
LAYER
  5
677
330
2
100
AcDbSymbolTableRecord
100
AcDbLayerTableRecord
  2
Defpoints
 70
     0
 62
     7
  6
Continuous
290
     0
370
    -3
390
F
347
1F1B
348
0
  0
LAYER
  5
217E
330
2
100
AcDbSymbolTableRecord
100
AcDbLayerTableRecord
  2
文字・寸法線
 70
     0
 62
     7
  6
Continuous
370
    -3
390
F
347
1F1B
348
0
  0
ENDTAB
  0
TABLE
  2
STYLE
  5
3
330
0
100
AcDbSymbolTable
 70
     2
  0
STYLE
  5
11
330
3
100
AcDbSymbolTableRecord
100
AcDbTextStyleTableRecord
  2
Standard
 70
     0
 40
0.0
 41
1.0
 50
0.0
 71
     0
 42
3.0
  3
txt.shx
  4
bigfont.shx
  0
STYLE
  5
34
330
3
100
AcDbSymbolTableRecord
100
AcDbTextStyleTableRecord
  2

 70
     1
 40
0.0
 41
1.0
 50
0.0
 71
     0
 42
2.5
  3
ltypeshp.shx
  4

  0
ENDTAB
  0
TABLE
  2
VIEW
  5
6
330
0
100
AcDbSymbolTable
 70
     0
  0
ENDTAB
  0
TABLE
  2
UCS
  5
7
330
0
100
AcDbSymbolTable
 70
     0
  0
ENDTAB
  0
TABLE
  2
APPID
  5
9
330
0
100
AcDbSymbolTable
 70
     4
  0
APPID
  5
12
330
9
100
AcDbSymbolTableRecord
100
AcDbRegAppTableRecord
  2
ACAD
 70
     0
  0
APPID
  5
1282
330
9
100
AcDbSymbolTableRecord
100
AcDbRegAppTableRecord
  2
ACAD_DIMASSOC_CALC_DIMLFAC
 70
     0
  0
APPID
  5
1283
330
9
100
AcDbSymbolTableRecord
100
AcDbRegAppTableRecord
  2
ACAD_DIMASSOC_DIMLFAC
 70
     0
  0
APPID
  5
1284
330
9
100
AcDbSymbolTableRecord
100
AcDbRegAppTableRecord
  2
ACAD_DIMASSOC_OVERRIDDEN_DIMLFAC
 70
     0
  0
ENDTAB
  0
TABLE
  2
DIMSTYLE
  5
A
330
0
100
AcDbSymbolTable
 70
     2
100
AcDbDimStyleTable
  0
DIMSTYLE
105
29
102
{ACAD_REACTORS
330
1DC6
330
21F9
330
21FF
330
2285
330
2396
330
2410
330
2474
330
2485
102
}
330
A
100
AcDbSymbolTableRecord
100
AcDbDimStyleTableRecord
  2
ISO-25
 70
     0
 41
2.5
 42
0.625
 43
3.75
 44
1.25
 73
     0
 74
     0
 77
     1
 78
     8
140
2.5
141
2.5
143
0.03937007874016
147
0.625
171
     3
172
     1
178
     0
271
     2
272
     2
274
     3
283
     0
284
     8
340
11
  0
DIMSTYLE
105
1F3B
102
{ACAD_REACTORS
330
2420
102
}
330
A
100
AcDbSymbolTableRecord
100
AcDbDimStyleTableRecord
  2
Standard
 70
     0
178
     0
340
11
  0
ENDTAB
  0
TABLE
  2
BLOCK_RECORD
  5
1
330
0
100
AcDbSymbolTable
 70
    47
  0
BLOCK_RECORD
  5
21
330
1
100
AcDbSymbolTableRecord
100
AcDbBlockTableRecord
  2
*Model_Space
340
24
 70
     0
280
     1
281
     0
  0
BLOCK_RECORD
  5
1F21
330
1
100
AcDbSymbolTableRecord
100
AcDbBlockTableRecord
  2
*Paper_Space
340
1F22
 70
     0
280
     1
281
     0
  0
BLOCK_RECORD
  5
1581
330
1
100
AcDbSymbolTableRecord
100
AcDbBlockTableRecord
  2
_Dot
340
0
 70
     0
280
     1
281
     0
  0
BLOCK_RECORD
  5
1591
330
1
100
AcDbSymbolTableRecord
100
AcDbBlockTableRecord
  2
_None
340
0
 70
     0
280
     1
281
     0
  0
BLOCK_RECORD
  5
15A6
330
1
100
AcDbSymbolTableRecord
100
AcDbBlockTableRecord
  2
_DatumFilled
340
0
 70
     0
280
     1
281
     0
  0
BLOCK_RECORD
  5
16CF
330
1
100
AcDbSymbolTableRecord
100
AcDbBlockTableRecord
  2
_DotSmall
340
0
 70
     0
280
     1
281
     0
  0
BLOCK_RECORD
  5
1992
330
1
100
AcDbSymbolTableRecord
100
AcDbBlockTableRecord
  2
*D4
340
0
 70
     0
280
     1
281
     0
  0
BLOCK_RECORD
  5
199E
330
1
100
AcDbSymbolTableRecord
100
AcDbBlockTableRecord
  2
*D5
340
0
 70
     0
280
     1
281
     0
  0
BLOCK_RECORD
  5
19AC
330
1
100
AcDbSymbolTableRecord
100
AcDbBlockTableRecord
  2
*D6
340
0
 70
     0
280
     1
281
     0
  0
BLOCK_RECORD
  5
19B8
330
1
100
AcDbSymbolTableRecord
100
AcDbBlockTableRecord
  2
*D7
340
0
 70
     0
280
     1
281
     0
  0
BLOCK_RECORD
  5
19C4
330
1
100
AcDbSymbolTableRecord
100
AcDbBlockTableRecord
  2
*D8
340
0
 70
     0
280
     1
281
     0
  0
BLOCK_RECORD
  5
19D0
330
1
100
AcDbSymbolTableRecord
100
AcDbBlockTableRecord
  2
*D9
340
0
 70
     0
280
     1
281
     0
  0
BLOCK_RECORD
  5
19DC
330
1
100
AcDbSymbolTableRecord
100
AcDbBlockTableRecord
  2
*D10
340
0
 70
     0
280
     1
281
     0
  0
BLOCK_RECORD
  5
19ED
330
1
100
AcDbSymbolTableRecord
100
AcDbBlockTableRecord
  2
*D11
340
0
 70
     0
280
     1
281
     0
  0
BLOCK_RECORD
  5
19F9
330
1
100
AcDbSymbolTableRecord
100
AcDbBlockTableRecord
  2
*D12
340
0
 70
     0
280
     1
281
     0
  0
BLOCK_RECORD
  5
1A05
330
1
100
AcDbSymbolTableRecord
100
AcDbBlockTableRecord
  2
A$C76A36C9E
340
0
 70
     0
280
     1
281
     0
  0
BLOCK_RECORD
  5
1DF1
330
1
100
AcDbSymbolTableRecord
100
AcDbBlockTableRecord
  2
*D14
340
0
 70
     0
280
     1
281
     0
  0
BLOCK_RECORD
  5
1DFD
330
1
100
AcDbSymbolTableRecord
100
AcDbBlockTableRecord
  2
*D15
340
0
 70
     0
280
     1
281
     0
  0
BLOCK_RECORD
  5
1E09
330
1
100
AcDbSymbolTableRecord
100
AcDbBlockTableRecord
  2
*D16
340
0
 70
     0
280
     1
281
     0
  0
BLOCK_RECORD
  5
1E15
330
1
100
AcDbSymbolTableRecord
100
AcDbBlockTableRecord
  2
*D17
340
0
 70
     0
280
     1
281
     0
  0
BLOCK_RECORD
  5
1F71
330
1
100
AcDbSymbolTableRecord
100
AcDbBlockTableRecord
  2
*D18
340
0
 70
     0
280
     1
281
     0
  0
BLOCK_RECORD
  5
2156
330
1
100
AcDbSymbolTableRecord
100
AcDbBlockTableRecord
  2
*D19
340
0
 70
     0
280
     1
281
     0
  0
BLOCK_RECORD
  5
2162
330
1
100
AcDbSymbolTableRecord
100
AcDbBlockTableRecord
  2
*D20
340
0
 70
     0
280
     1
281
     0
  0
BLOCK_RECORD
  5
216E
330
1
100
AcDbSymbolTableRecord
100
AcDbBlockTableRecord
  2
*D21
340
0
 70
     0
280
     1
281
     0
  0
BLOCK_RECORD
  5
21CC
330
1
100
AcDbSymbolTableRecord
100
AcDbBlockTableRecord
  2
*D22
340
0
 70
     0
280
     1
281
     0
  0
BLOCK_RECORD
  5
21E0
330
1
100
AcDbSymbolTableRecord
100
AcDbBlockTableRecord
  2
*D23
340
0
 70
     0
280
     1
281
     0
  0
BLOCK_RECORD
  5
220C
330
1
100
AcDbSymbolTableRecord
100
AcDbBlockTableRecord
  2
*D24
340
0
 70
     0
280
     1
281
     0
  0
BLOCK_RECORD
  5
2218
330
1
100
AcDbSymbolTableRecord
100
AcDbBlockTableRecord
  2
*D25
340
0
 70
     0
280
     1
281
     0
  0
BLOCK_RECORD
  5
2253
330
1
100
AcDbSymbolTableRecord
100
AcDbBlockTableRecord
  2
*D26
340
0
 70
     0
280
     1
281
     0
  0
BLOCK_RECORD
  5
2262
330
1
100
AcDbSymbolTableRecord
100
AcDbBlockTableRecord
  2
*D27
340
0
 70
     0
280
     1
281
     0
  0
BLOCK_RECORD
  5
2295
330
1
100
AcDbSymbolTableRecord
100
AcDbBlockTableRecord
  2
*D28
340
0
 70
     0
280
     1
281
     0
  0
BLOCK_RECORD
  5
22A1
330
1
100
AcDbSymbolTableRecord
100
AcDbBlockTableRecord
  2
*D29
340
0
 70
     0
280
     1
281
     0
  0
BLOCK_RECORD
  5
22D6
330
1
100
AcDbSymbolTableRecord
100
AcDbBlockTableRecord
  2
*D30
340
0
 70
     0
280
     1
281
     0
  0
BLOCK_RECORD
  5
22F3
330
1
100
AcDbSymbolTableRecord
100
AcDbBlockTableRecord
  2
*D31
340
0
 70
     0
280
     1
281
     0
  0
BLOCK_RECORD
  5
2301
330
1
100
AcDbSymbolTableRecord
100
AcDbBlockTableRecord
  2
*D32
340
0
 70
     0
280
     1
281
     0
  0
BLOCK_RECORD
  5
2333
330
1
100
AcDbSymbolTableRecord
100
AcDbBlockTableRecord
  2
*D33
340
0
 70
     0
280
     1
281
     0
  0
BLOCK_RECORD
  5
233F
330
1
100
AcDbSymbolTableRecord
100
AcDbBlockTableRecord
  2
*D34
340
0
 70
     0
280
     1
281
     0
  0
BLOCK_RECORD
  5
234B
330
1
100
AcDbSymbolTableRecord
100
AcDbBlockTableRecord
  2
*D35
340
0
 70
     0
280
     1
281
     0
  0
BLOCK_RECORD
  5
2384
330
1
100
AcDbSymbolTableRecord
100
AcDbBlockTableRecord
  2
*D36
340
0
 70
     0
280
     1
281
     0
  0
BLOCK_RECORD
  5
2399
330
1
100
AcDbSymbolTableRecord
100
AcDbBlockTableRecord
  2
*D37
340
0
 70
     0
280
     1
281
     0
  0
BLOCK_RECORD
  5
23D1
330
1
100
AcDbSymbolTableRecord
100
AcDbBlockTableRecord
  2
*D38
340
0
 70
     0
280
     1
281
     0
  0
BLOCK_RECORD
  5
23EA
330
1
100
AcDbSymbolTableRecord
100
AcDbBlockTableRecord
  2
*D39
340
0
 70
     0
280
     1
281
     0
  0
BLOCK_RECORD
  5
23F8
330
1
100
AcDbSymbolTableRecord
100
AcDbBlockTableRecord
  2
*D40
340
0
 70
     0
280
     1
281
     0
  0
BLOCK_RECORD
  5
242B
330
1
100
AcDbSymbolTableRecord
100
AcDbBlockTableRecord
  2
*D41
340
0
 70
     0
280
     1
281
     0
  0
BLOCK_RECORD
  5
2437
330
1
100
AcDbSymbolTableRecord
100
AcDbBlockTableRecord
  2
*D42
340
0
 70
     0
280
     1
281
     0
  0
BLOCK_RECORD
  5
2443
330
1
100
AcDbSymbolTableRecord
100
AcDbBlockTableRecord
  2
*D43
340
0
 70
     0
280
     1
281
     0
  0
BLOCK_RECORD
  5
2476
330
1
100
AcDbSymbolTableRecord
100
AcDbBlockTableRecord
  2
*D45
340
0
 70
     0
280
     1
281
     0
  0
BLOCK_RECORD
  5
2487
330
1
100
AcDbSymbolTableRecord
100
AcDbBlockTableRecord
  2
*D46
340
0
 70
     0
280
     1
281
     0
  0
ENDTAB
  0
ENDSEC
  0
SECTION
  2
BLOCKS
  0
BLOCK
  5
22
330
21
100
AcDbEntity
  8
0
100
AcDbBlockBegin
  2
*Model_Space
 70
     0
 10
0.0
 20
0.0
 30
0.0
  3
*Model_Space
  1
*Model_Space
  0
ENDBLK
  5
23
330
21
100
AcDbEntity
  8
0
100
AcDbBlockEnd
  0
BLOCK
  5
1F23
330
1F21
100
AcDbEntity
 67
     1
  8
0
100
AcDbBlockBegin
  2
*Paper_Space
 70
     0
 10
0.0
 20
0.0
 30
0.0
  3
*Paper_Space
  1
*Paper_Space
  0
ENDBLK
  5
1F24
330
1F21
100
AcDbEntity
 67
     1
  8
0
100
AcDbBlockEnd
  0
BLOCK
  5
1584
330
1581
100
AcDbEntity
  8
0
 62
     0
100
AcDbBlockBegin
  2
_Dot
 70
     0
 10
0.0
 20
0.0
 30
0.0
  3
_Dot
  1
_Dot
  0
LWPOLYLINE
  5
1582
330
1581
100
AcDbEntity
  8
0
  6
ByBlock
 62
     0
100
AcDbPolyline
 90
        2
 70
     1
 43
0.5
 10
-0.25
 20
0.0
 42
1.0
 10
0.25
 20
0.0
 42
1.0
  0
LINE
  5
1583
330
1581
100
AcDbEntity
  8
0
  6
ByBlock
 62
     0
370
    -2
100
AcDbLine
 10
-0.5
 20
0.0
 30
0.0
 11
-1.0
 21
0.0
 31
0.0
  0
ENDBLK
  5
1585
330
1581
100
AcDbEntity
  8
0
 62
     0
100
AcDbBlockEnd
  0
BLOCK
  5
1592
330
1591
100
AcDbEntity
  8
0
 62
     0
100
AcDbBlockBegin
  2
_None
 70
     0
 10
0.0
 20
0.0
 30
0.0
  3
_None
  1
_None
  0
ENDBLK
  5
1593
330
1591
100
AcDbEntity
  8
0
 62
     0
100
AcDbBlockEnd
  0
BLOCK
  5
15A8
330
15A6
100
AcDbEntity
  8
0
 62
     0
100
AcDbBlockBegin
  2
_DatumFilled
 70
     0
 10
0.0
 20
0.0
 30
0.0
  3
_DatumFilled
  1
_DatumFilled
  0
SOLID
  5
15A7
330
15A6
100
AcDbEntity
  8
0
  6
ByBlock
 62
     0
100
AcDbTrace
 10
0.0
 20
0.57735027
 30
0.0
 11
-1.0
 21
0.0
 31
0.0
 12
0.0
 22
-0.57735027
 32
0.0
 13
0.0
 23
-0.57735027
 33
0.0
  0
ENDBLK
  5
15A9
330
15A6
100
AcDbEntity
  8
0
 62
     0
100
AcDbBlockEnd
  0
BLOCK
  5
16D1
330
16CF
100
AcDbEntity
  8
0
 62
     0
100
AcDbBlockBegin
  2
_DotSmall
 70
     0
 10
0.0
 20
0.0
 30
0.0
  3
_DotSmall
  1
_DotSmall
  0
LWPOLYLINE
  5
16D0
330
16CF
100
AcDbEntity
  8
0
  6
ByBlock
 62
     0
100
AcDbPolyline
 90
        2
 70
     1
 43
0.5
 10
-0.0625
 20
0.0
 42
1.0
 10
0.0625
 20
0.0
 42
1.0
  0
ENDBLK
  5
16D2
330
16CF
100
AcDbEntity
  8
0
 62
     0
100
AcDbBlockEnd
  0
BLOCK
  5
1993
330
1992
100
AcDbEntity
  8
0
370
    30
100
AcDbBlockBegin
  2
*D4
 70
     1
 10
0.0
 20
0.0
 30
0.0
  3
*D4
  1
*D13
  0
LINE
  5
1994
330
1992
100
AcDbEntity
  8
文字
 62
     0
370
    -2
100
AcDbLine
 10
192.2214242466307
 20
115.3847432098993
 30
0.0
 11
192.2214242466307
 21
74.91396239368606
 31
0.0
  0
LINE
  5
1995
330
1992
100
AcDbEntity
  8
文字
 62
     0
370
    -2
100
AcDbLine
 10
220.2214242466307
 20
115.3847432098993
 30
0.0
 11
220.2214242466307
 21
74.91396239368606
 31
0.0
  0
LINE
  5
1996
330
1992
100
AcDbEntity
  8
文字
 62
     0
370
    -2
100
AcDbLine
 10
194.7214242466307
 20
76.16396239368606
 30
0.0
 11
217.7214242466307
 21
76.16396239368606
 31
0.0
  0
SOLID
  5
1997
330
1992
100
AcDbEntity
  8
文字
 62
     0
100
AcDbTrace
 10
194.7214242466307
 20
76.58062906035273
 30
0.0
 11
194.7214242466307
 21
75.74729572701939
 31
0.0
 12
192.2214242466307
 22
76.16396239368606
 32
0.0
 13
192.2214242466307
 23
76.16396239368606
 33
0.0
  0
SOLID
  5
1998
330
1992
100
AcDbEntity
  8
文字
 62
     0
100
AcDbTrace
 10
217.7214242466307
 20
76.58062906035273
 30
0.0
 11
217.7214242466307
 21
75.74729572701939
 31
0.0
 12
220.2214242466307
 22
76.16396239368606
 32
0.0
 13
220.2214242466307
 23
76.16396239368606
 33
0.0
  0
MTEXT
  5
1999
330
1992
100
AcDbEntity
  8
文字
 62
     0
100
AcDbMText
 10
206.2214242466307
 20
78.03896239368606
 30
0.0
 40
2.5
 41
0.0
 46
0.0
 71
     5
 72
     1
  1
%%c28
 73
     1
 44
1.0
  0
POINT
  5
199A
330
1992
100
AcDbEntity
  8
Defpoints
 62
     0
100
AcDbPoint
 10
192.2214242466307
 20
116.0097432098993
 30
0.0
  0
POINT
  5
199B
330
1992
100
AcDbEntity
  8
Defpoints
 62
     0
100
AcDbPoint
 10
220.2214242466307
 20
116.0097432098993
 30
0.0
  0
POINT
  5
199C
330
1992
100
AcDbEntity
  8
Defpoints
 62
     0
100
AcDbPoint
 10
220.2214242466307
 20
76.16396239368606
 30
0.0
  0
ENDBLK
  5
199D
330
1992
100
AcDbEntity
  8
0
370
    30
100
AcDbBlockEnd
  0
BLOCK
  5
199F
330
199E
100
AcDbEntity
  8
0
370
    30
100
AcDbBlockBegin
  2
*D5
 70
     1
 10
0.0
 20
0.0
 30
0.0
  3
*D5
  1
*D14
  0
LINE
  5
19A0
330
199E
100
AcDbEntity
  8
文字
 62
     0
370
    -2
100
AcDbLine
 10
71.59625003018851
 20
83.94882055485836
 30
0.0
 11
55.97592567393417
 21
83.94882055485836
 31
0.0
  0
LINE
  5
19A1
330
199E
100
AcDbEntity
  8
文字
 62
     0
370
    -2
100
AcDbLine
 10
71.59625003018851
 20
82.34882055485836
 30
0.0
 11
55.97592567393417
 21
82.34882055485836
 31
0.0
  0
LINE
  5
19A2
330
199E
100
AcDbEntity
  8
文字
 62
     0
370
    -2
100
AcDbLine
 10
57.22592567393417
 20
86.44882055485836
 30
0.0
 11
57.22592567393417
 21
88.94882055485836
 31
0.0
  0
LINE
  5
19A3
330
199E
100
AcDbEntity
  8
文字
 62
     0
370
    -2
100
AcDbLine
 10
57.22592567393416
 20
79.84882055485836
 30
0.0
 11
57.22592567393416
 21
71.93215388819169
 31
0.0
  0
LINE
  5
19A4
330
199E
100
AcDbEntity
  8
文字
 62
     0
370
    -2
100
AcDbLine
 10
57.22592567393417
 20
83.94882055485836
 30
0.0
 11
57.22592567393417
 21
82.34882055485836
 31
0.0
  0
SOLID
  5
19A5
330
199E
100
AcDbEntity
  8
文字
 62
     0
100
AcDbTrace
 10
56.80925900726751
 20
86.44882055485836
 30
0.0
 11
57.64259234060084
 21
86.44882055485836
 31
0.0
 12
57.22592567393417
 22
83.94882055485836
 32
0.0
 13
57.22592567393417
 23
83.94882055485836
 33
0.0
  0
SOLID
  5
19A6
330
199E
100
AcDbEntity
  8
文字
 62
     0
100
AcDbTrace
 10
56.8092590072675
 20
79.84882055485836
 30
0.0
 11
57.64259234060083
 21
79.84882055485836
 31
0.0
 12
57.22592567393417
 22
82.34882055485836
 32
0.0
 13
57.22592567393417
 23
82.34882055485836
 33
0.0
  0
MTEXT
  5
19A7
330
199E
100
AcDbEntity
  8
文字
 62
     0
100
AcDbMText
 10
55.35092567393416
 20
74.64048722152505
 30
0.0
 40
2.5
 41
0.0
 46
0.0
 71
     5
 72
     1
  1
1.5
 11
6.123031769111886E-17
 21
1.0
 31
0.0
 73
     1
 44
1.0
  0
POINT
  5
19A8
330
199E
100
AcDbEntity
  8
Defpoints
 62
     0
100
AcDbPoint
 10
72.22125003018851
 20
83.94882055485836
 30
0.0
  0
POINT
  5
19A9
330
199E
100
AcDbEntity
  8
Defpoints
 62
     0
100
AcDbPoint
 10
72.22125003018851
 20
82.34882055485836
 30
0.0
  0
POINT
  5
19AA
330
199E
100
AcDbEntity
  8
Defpoints
 62
     0
100
AcDbPoint
 10
57.22592567393417
 20
82.34882055485836
 30
0.0
  0
ENDBLK
  5
19AB
330
199E
100
AcDbEntity
  8
0
370
    30
100
AcDbBlockEnd
  0
BLOCK
  5
19AD
330
19AC
100
AcDbEntity
  8
0
370
    30
100
AcDbBlockBegin
  2
*D6
 70
     1
 10
0.0
 20
0.0
 30
0.0
  3
*D6
  1
*D15
  0
LINE
  5
19AE
330
19AC
100
AcDbEntity
  8
文字
 62
     0
370
    -2
100
AcDbLine
 10
199.7262337182474
 20
115.3847432098993
 30
0.0
 11
199.7262337182474
 21
82.51985031794277
 31
0.0
  0
LINE
  5
19AF
330
19AC
100
AcDbEntity
  8
文字
 62
     0
370
    -2
100
AcDbLine
 10
212.716614775014
 20
115.3847432098993
 30
0.0
 11
212.716614775014
 21
82.51985031794277
 31
0.0
  0
LINE
  5
19B0
330
19AC
100
AcDbEntity
  8
文字
 62
     0
370
    -2
100
AcDbLine
 10
202.2262337182474
 20
83.76985031794277
 30
0.0
 11
210.216614775014
 21
83.76985031794277
 31
0.0
  0
SOLID
  5
19B1
330
19AC
100
AcDbEntity
  8
文字
 62
     0
100
AcDbTrace
 10
202.2262337182474
 20
84.18651698460944
 30
0.0
 11
202.2262337182474
 21
83.3531836512761
 31
0.0
 12
199.7262337182474
 22
83.76985031794277
 32
0.0
 13
199.7262337182474
 23
83.76985031794277
 33
0.0
  0
SOLID
  5
19B2
330
19AC
100
AcDbEntity
  8
文字
 62
     0
100
AcDbTrace
 10
210.216614775014
 20
84.18651698460944
 30
0.0
 11
210.216614775014
 21
83.3531836512761
 31
0.0
 12
212.716614775014
 22
83.76985031794277
 32
0.0
 13
212.716614775014
 23
83.76985031794277
 33
0.0
  0
MTEXT
  5
19B3
330
19AC
100
AcDbEntity
  8
文字
 62
     0
100
AcDbMText
 10
206.4041474863344
 20
85.64485031794277
 30
0.0
 40
2.5
 41
0.0
 46
0.0
 71
     5
 72
     1
  1
13
 73
     1
 44
1.0
  0
POINT
  5
19B4
330
19AC
100
AcDbEntity
  8
Defpoints
 62
     0
100
AcDbPoint
 10
199.7262337182474
 20
116.0097432098993
 30
0.0
  0
POINT
  5
19B5
330
19AC
100
AcDbEntity
  8
Defpoints
 62
     0
100
AcDbPoint
 10
212.716614775014
 20
116.0097432098993
 30
0.0
  0
POINT
  5
19B6
330
19AC
100
AcDbEntity
  8
Defpoints
 62
     0
100
AcDbPoint
 10
212.716614775014
 20
83.76985031794277
 30
0.0
  0
ENDBLK
  5
19B7
330
19AC
100
AcDbEntity
  8
0
370
    30
100
AcDbBlockEnd
  0
BLOCK
  5
19B9
330
19B8
100
AcDbEntity
  8
0
100
AcDbBlockBegin
  2
*D7
 70
     1
 10
0.0
 20
0.0
 30
0.0
  3
*D7
  1
*D16
  0
LINE
  5
19BA
330
19B8
100
AcDbEntity
  8
文字
 62
     0
370
    -2
100
AcDbLine
 10
87.2212500301885
 20
135.0570527207158
 30
0.0
 11
87.2212500301885
 21
147.9015722211
 31
0.0
  0
LINE
  5
19BB
330
19B8
100
AcDbEntity
  8
文字
 62
     0
370
    -2
100
AcDbLine
 10
95.22125003018851
 20
135.0570527207158
 30
0.0
 11
95.22125003018851
 21
147.9015722211
 31
0.0
  0
LINE
  5
19BC
330
19B8
100
AcDbEntity
  8
文字
 62
     0
370
    -2
100
AcDbLine
 10
89.7212500301885
 20
146.6515722211
 30
0.0
 11
92.72125003018851
 21
146.6515722211
 31
0.0
  0
SOLID
  5
19BD
330
19B8
100
AcDbEntity
  8
文字
 62
     0
100
AcDbTrace
 10
89.7212500301885
 20
147.0682388877666
 30
0.0
 11
89.7212500301885
 21
146.2349055544333
 31
0.0
 12
87.2212500301885
 22
146.6515722211
 32
0.0
 13
87.2212500301885
 23
146.6515722211
 33
0.0
  0
SOLID
  5
19BE
330
19B8
100
AcDbEntity
  8
文字
 62
     0
100
AcDbTrace
 10
92.72125003018851
 20
147.0682388877666
 30
0.0
 11
92.72125003018851
 21
146.2349055544333
 31
0.0
 12
95.22125003018851
 22
146.6515722211
 32
0.0
 13
95.22125003018851
 23
146.6515722211
 33
0.0
  0
MTEXT
  5
19BF
330
19B8
100
AcDbEntity
  8
文字
 62
     0
100
AcDbMText
 10
91.22125003018851
 20
148.5265722211
 30
0.0
 40
2.5
 41
0.0
 46
0.0
 71
     5
 72
     1
  1
{\fArial|b0|i0|c0|p32;M}8
 73
     1
 44
1.0
  0
POINT
  5
19C0
330
19B8
100
AcDbEntity
  8
Defpoints
 62
     0
100
AcDbPoint
 10
87.2212500301885
 20
134.4320527207158
 30
0.0
  0
POINT
  5
19C1
330
19B8
100
AcDbEntity
  8
Defpoints
 62
     0
100
AcDbPoint
 10
95.22125003018851
 20
134.4320527207158
 30
0.0
  0
POINT
  5
19C2
330
19B8
100
AcDbEntity
  8
Defpoints
 62
     0
100
AcDbPoint
 10
95.22125003018851
 20
146.6515722211
 30
0.0
  0
ENDBLK
  5
19C3
330
19B8
100
AcDbEntity
  8
0
100
AcDbBlockEnd
  0
BLOCK
  5
19C5
330
19C4
100
AcDbEntity
  8
0
100
AcDbBlockBegin
  2
*D8
 70
     1
 10
0.0
 20
0.0
 30
0.0
  3
*D8
  1
*D17
  0
LINE
  5
19C6
330
19C4
100
AcDbEntity
  8
文字
 62
     0
370
    -2
100
AcDbLine
 10
72.22125003018851
 20
81.72382055485836
 30
0.0
 11
72.22125003018851
 21
61.64683633055239
 31
0.0
  0
LINE
  5
19C7
330
19C4
100
AcDbEntity
  8
文字
 62
     0
370
    -2
100
AcDbLine
 10
110.2212500301885
 20
81.72382055485835
 30
0.0
 11
110.2212500301885
 21
61.64683633055239
 31
0.0
  0
LINE
  5
19C8
330
19C4
100
AcDbEntity
  8
文字
 62
     0
370
    -2
100
AcDbLine
 10
74.72125003018851
 20
62.89683633055239
 30
0.0
 11
107.7212500301885
 21
62.89683633055239
 31
0.0
  0
SOLID
  5
19C9
330
19C4
100
AcDbEntity
  8
文字
 62
     0
100
AcDbTrace
 10
74.72125003018851
 20
63.31350299721905
 30
0.0
 11
74.72125003018851
 21
62.48016966388573
 31
0.0
 12
72.22125003018851
 22
62.89683633055239
 32
0.0
 13
72.22125003018851
 23
62.89683633055239
 33
0.0
  0
SOLID
  5
19CA
330
19C4
100
AcDbEntity
  8
文字
 62
     0
100
AcDbTrace
 10
107.7212500301885
 20
63.31350299721905
 30
0.0
 11
107.7212500301885
 21
62.48016966388573
 31
0.0
 12
110.2212500301885
 22
62.89683633055239
 32
0.0
 13
110.2212500301885
 23
62.89683633055239
 33
0.0
  0
MTEXT
  5
19CB
330
19C4
100
AcDbEntity
  8
文字
 62
     0
100
AcDbMText
 10
91.22125003018851
 20
64.77183633055239
 30
0.0
 40
2.5
 41
0.0
 46
0.0
 71
     5
 72
     1
  1
%%c38
 73
     1
 44
1.0
  0
POINT
  5
19CC
330
19C4
100
AcDbEntity
  8
Defpoints
 62
     0
100
AcDbPoint
 10
72.22125003018851
 20
82.34882055485836
 30
0.0
  0
POINT
  5
19CD
330
19C4
100
AcDbEntity
  8
Defpoints
 62
     0
100
AcDbPoint
 10
110.2212500301885
 20
82.34882055485835
 30
0.0
  0
POINT
  5
19CE
330
19C4
100
AcDbEntity
  8
Defpoints
 62
     0
100
AcDbPoint
 10
110.2212500301885
 20
62.89683633055239
 30
0.0
  0
ENDBLK
  5
19CF
330
19C4
100
AcDbEntity
  8
0
100
AcDbBlockEnd
  0
BLOCK
  5
19D1
330
19D0
100
AcDbEntity
  8
0
100
AcDbBlockBegin
  2
*D9
 70
     1
 10
0.0
 20
0.0
 30
0.0
  3
*D9
  1
*D18
  0
LINE
  5
19D2
330
19D0
100
AcDbEntity
  8
文字
 62
     0
370
    -2
100
AcDbLine
 10
110.8462500301885
 20
82.34882055485835
 30
0.0
 11
126.0779593090463
 21
82.34882055485835
 31
0.0
  0
LINE
  5
19D3
330
19D0
100
AcDbEntity
  8
文字
 62
     0
370
    -2
100
AcDbLine
 10
96.86248092256537
 20
94.93228662189009
 30
0.0
 11
126.0779593090463
 21
94.93228662189009
 31
0.0
  0
LINE
  5
19D4
330
19D0
100
AcDbEntity
  8
文字
 62
     0
370
    -2
100
AcDbLine
 10
124.8279593090463
 20
84.84882055485835
 30
0.0
 11
124.8279593090463
 21
92.43228662189009
 31
0.0
  0
SOLID
  5
19D5
330
19D0
100
AcDbEntity
  8
文字
 62
     0
100
AcDbTrace
 10
124.4112926423796
 20
84.84882055485835
 30
0.0
 11
125.2446259757129
 21
84.84882055485835
 31
0.0
 12
124.8279593090463
 22
82.34882055485835
 32
0.0
 13
124.8279593090463
 23
82.34882055485835
 33
0.0
  0
SOLID
  5
19D6
330
19D0
100
AcDbEntity
  8
文字
 62
     0
100
AcDbTrace
 10
124.4112926423796
 20
92.43228662189009
 30
0.0
 11
125.2446259757129
 21
92.43228662189009
 31
0.0
 12
124.8279593090463
 22
94.93228662189009
 32
0.0
 13
124.8279593090463
 23
94.93228662189009
 33
0.0
  0
MTEXT
  5
19D7
330
19D0
100
AcDbEntity
  8
文字
 62
     0
100
AcDbMText
 10
122.9529593090462
 20
88.64055358837423
 30
0.0
 40
2.5
 41
0.0
 46
0.0
 71
     5
 72
     1
  1
13
 11
6.123031769111886E-17
 21
1.0
 31
0.0
 73
     1
 44
1.0
  0
POINT
  5
19D8
330
19D0
100
AcDbEntity
  8
Defpoints
 62
     0
100
AcDbPoint
 10
110.2212500301885
 20
82.34882055485835
 30
0.0
  0
POINT
  5
19D9
330
19D0
100
AcDbEntity
  8
Defpoints
 62
     0
100
AcDbPoint
 10
96.23748092256537
 20
94.93228662189009
 30
0.0
  0
POINT
  5
19DA
330
19D0
100
AcDbEntity
  8
Defpoints
 62
     0
100
AcDbPoint
 10
124.8279593090463
 20
94.93228662189009
 30
0.0
  0
ENDBLK
  5
19DB
330
19D0
100
AcDbEntity
  8
0
100
AcDbBlockEnd
  0
BLOCK
  5
19DD
330
19DC
100
AcDbEntity
  8
0
100
AcDbBlockBegin
  2
*D10
 70
     1
 10
0.0
 20
0.0
 30
0.0
  3
*D10
  1
*D19
  0
LINE
  5
19DE
330
19DC
100
AcDbEntity
  8
文字
 62
     0
370
    -2
100
AcDbLine
 10
96.86248092256537
 20
94.93228662189009
 30
0.0
 11
126.0779593090463
 21
94.93228662189009
 31
0.0
  0
LINE
  5
19DF
330
19DC
100
AcDbEntity
  8
文字
 62
     0
370
    -2
100
AcDbLine
 10
99.37863313321532
 20
100.4320527207158
 30
0.0
 11
126.0779593090463
 21
100.4320527207158
 31
0.0
  0
LINE
  5
19E0
330
19DC
100
AcDbEntity
  8
文字
 62
     0
370
    -2
100
AcDbLine
 10
124.8279593090463
 20
92.43228662189009
 30
0.0
 11
124.8279593090463
 21
89.93228662189009
 31
0.0
  0
LINE
  5
19E1
330
19DC
100
AcDbEntity
  8
文字
 62
     0
370
    -2
100
AcDbLine
 10
124.8279593090463
 20
102.9320527207158
 30
0.0
 11
124.8279593090463
 21
105.4320527207158
 31
0.0
  0
LINE
  5
19E2
330
19DC
100
AcDbEntity
  8
文字
 62
     0
370
    -2
100
AcDbLine
 10
124.8279593090463
 20
97.68216967130294
 30
0.0
 11
130.7654593090463
 21
99.46341967130294
 31
0.0
  0
LINE
  5
19E3
330
19DC
100
AcDbEntity
  8
文字
 62
     0
370
    -2
100
AcDbLine
 10
130.7654593090463
 20
99.46341967130294
 30
0.0
 11
130.7654593090463
 21
105.7134196713029
 31
0.0
  0
MTEXT
  5
19E4
330
19DC
100
AcDbEntity
  8
文字
 62
     0
100
AcDbMText
 10
128.8904593090463
 20
102.588419671303
 30
0.0
 40
2.5
 41
0.0
 46
0.0
 71
     5
 72
     1
  1
5.5
 11
6.123031769111886E-17
 21
1.0
 31
0.0
 73
     1
 44
1.0
  0
LINE
  5
19E5
330
19DC
100
AcDbEntity
  8
文字
 62
     0
370
    -2
100
AcDbLine
 10
124.8279593090463
 20
94.93228662189009
 30
0.0
 11
124.8279593090463
 21
100.4320527207158
 31
0.0
  0
LINE
  5
19E6
330
19DC
100
AcDbEntity
  8
文字
 62
     0
370
    -2
100
AcDbLine
 10
124.8279593090463
 20
94.93228662189009
 30
0.0
 11
124.8279593090463
 21
100.4320527207158
 31
0.0
  0
SOLID
  5
19E7
330
19DC
100
AcDbEntity
  8
文字
 62
     0
100
AcDbTrace
 10
124.4112926423796
 20
92.43228662189009
 30
0.0
 11
125.2446259757129
 21
92.43228662189009
 31
0.0
 12
124.8279593090463
 22
94.93228662189009
 32
0.0
 13
124.8279593090463
 23
94.93228662189009
 33
0.0
  0
SOLID
  5
19E8
330
19DC
100
AcDbEntity
  8
文字
 62
     0
100
AcDbTrace
 10
124.4112926423796
 20
102.9320527207158
 30
0.0
 11
125.2446259757129
 21
102.9320527207158
 31
0.0
 12
124.8279593090463
 22
100.4320527207158
 32
0.0
 13
124.8279593090463
 23
100.4320527207158
 33
0.0
  0
POINT
  5
19E9
330
19DC
100
AcDbEntity
  8
Defpoints
 62
     0
100
AcDbPoint
 10
96.23748092256537
 20
94.93228662189009
 30
0.0
  0
POINT
  5
19EA
330
19DC
100
AcDbEntity
  8
Defpoints
 62
     0
100
AcDbPoint
 10
98.75363313321532
 20
100.4320527207158
 30
0.0
  0
POINT
  5
19EB
330
19DC
100
AcDbEntity
  8
Defpoints
 62
     0
100
AcDbPoint
 10
124.8279593090463
 20
100.4320527207158
 30
0.0
  0
ENDBLK
  5
19EC
330
19DC
100
AcDbEntity
  8
0
100
AcDbBlockEnd
  0
BLOCK
  5
19EE
330
19ED
100
AcDbEntity
  8
0
100
AcDbBlockBegin
  2
*D11
 70
     1
 10
0.0
 20
0.0
 30
0.0
  3
*D11
  1
*D20
  0
LINE
  5
19EF
330
19ED
100
AcDbEntity
  8
文字
 62
     0
370
    -2
100
AcDbLine
 10
99.37863313321532
 20
100.4320527207158
 30
0.0
 11
126.0779593090463
 21
100.4320527207158
 31
0.0
  0
LINE
  5
19F0
330
19ED
100
AcDbEntity
  8
文字
 62
     0
370
    -2
100
AcDbLine
 10
94.84625003018851
 20
135.4320527207158
 30
0.0
 11
126.0779593090463
 21
135.4320527207158
 31
0.0
  0
LINE
  5
19F1
330
19ED
100
AcDbEntity
  8
文字
 62
     0
370
    -2
100
AcDbLine
 10
124.8279593090463
 20
102.9320527207158
 30
0.0
 11
124.8279593090463
 21
132.9320527207158
 31
0.0
  0
SOLID
  5
19F2
330
19ED
100
AcDbEntity
  8
文字
 62
     0
100
AcDbTrace
 10
124.4112926423796
 20
102.9320527207158
 30
0.0
 11
125.2446259757129
 21
102.9320527207158
 31
0.0
 12
124.8279593090463
 22
100.4320527207158
 32
0.0
 13
124.8279593090463
 23
100.4320527207158
 33
0.0
  0
SOLID
  5
19F3
330
19ED
100
AcDbEntity
  8
文字
 62
     0
100
AcDbTrace
 10
124.4112926423796
 20
132.9320527207158
 30
0.0
 11
125.2446259757129
 21
132.9320527207158
 31
0.0
 12
124.8279593090463
 22
135.4320527207158
 32
0.0
 13
124.8279593090463
 23
135.4320527207158
 33
0.0
  0
MTEXT
  5
19F4
330
19ED
100
AcDbEntity
  8
文字
 62
     0
100
AcDbMText
 10
122.9529593090463
 20
117.9320527207158
 30
0.0
 40
2.5
 41
0.0
 46
0.0
 71
     5
 72
     1
  1
35
 11
6.123031769111886E-17
 21
1.0
 31
0.0
 73
     1
 44
1.0
  0
POINT
  5
19F5
330
19ED
100
AcDbEntity
  8
Defpoints
 62
     0
100
AcDbPoint
 10
98.75363313321532
 20
100.4320527207158
 30
0.0
  0
POINT
  5
19F6
330
19ED
100
AcDbEntity
  8
Defpoints
 62
     0
100
AcDbPoint
 10
94.22125003018851
 20
135.4320527207158
 30
0.0
  0
POINT
  5
19F7
330
19ED
100
AcDbEntity
  8
Defpoints
 62
     0
100
AcDbPoint
 10
124.8279593090463
 20
135.4320527207158
 30
0.0
  0
ENDBLK
  5
19F8
330
19ED
100
AcDbEntity
  8
0
100
AcDbBlockEnd
  0
BLOCK
  5
19FA
330
19F9
100
AcDbEntity
  8
0
100
AcDbBlockBegin
  2
*D12
 70
     1
 10
0.0
 20
0.0
 30
0.0
  3
*D12
  1
*D21
  0
LINE
  5
19FB
330
19F9
100
AcDbEntity
  8
文字
 62
     0
370
    -2
100
AcDbLine
 10
110.8462500301885
 20
82.34882055485835
 30
0.0
 11
141.6100264422735
 21
82.34882055485835
 31
0.0
  0
LINE
  5
19FC
330
19F9
100
AcDbEntity
  8
文字
 62
     0
370
    -2
100
AcDbLine
 10
94.84625003018851
 20
135.4320527207158
 30
0.0
 11
141.6100264422735
 21
135.4320527207158
 31
0.0
  0
LINE
  5
19FD
330
19F9
100
AcDbEntity
  8
文字
 62
     0
370
    -2
100
AcDbLine
 10
140.3600264422735
 20
84.84882055485835
 30
0.0
 11
140.3600264422735
 21
132.9320527207158
 31
0.0
  0
SOLID
  5
19FE
330
19F9
100
AcDbEntity
  8
文字
 62
     0
100
AcDbTrace
 10
139.9433597756068
 20
84.84882055485835
 30
0.0
 11
140.7766931089401
 21
84.84882055485835
 31
0.0
 12
140.3600264422735
 22
82.34882055485835
 32
0.0
 13
140.3600264422735
 23
82.34882055485835
 33
0.0
  0
SOLID
  5
19FF
330
19F9
100
AcDbEntity
  8
文字
 62
     0
100
AcDbTrace
 10
139.9433597756068
 20
132.9320527207158
 30
0.0
 11
140.7766931089401
 21
132.9320527207158
 31
0.0
 12
140.3600264422735
 22
135.4320527207158
 32
0.0
 13
140.3600264422735
 23
135.4320527207158
 33
0.0
  0
MTEXT
  5
1A00
330
19F9
100
AcDbEntity
  8
文字
 62
     0
100
AcDbMText
 10
138.4850264422734
 20
108.8904366377871
 30
0.0
 40
2.5
 41
0.0
 46
0.0
 71
     5
 72
     1
  1
53.5
 11
6.123031769111886E-17
 21
1.0
 31
0.0
 73
     1
 44
1.0
  0
POINT
  5
1A01
330
19F9
100
AcDbEntity
  8
Defpoints
 62
     0
100
AcDbPoint
 10
110.2212500301885
 20
82.34882055485835
 30
0.0
  0
POINT
  5
1A02
330
19F9
100
AcDbEntity
  8
Defpoints
 62
     0
100
AcDbPoint
 10
94.22125003018851
 20
135.4320527207158
 30
0.0
  0
POINT
  5
1A03
330
19F9
100
AcDbEntity
  8
Defpoints
 62
     0
100
AcDbPoint
 10
140.3600264422735
 20
135.4320527207158
 30
0.0
  0
ENDBLK
  5
1A04
330
19F9
100
AcDbEntity
  8
0
100
AcDbBlockEnd
  0
BLOCK
  5
1A4C
330
1A05
100
AcDbEntity
  8
0
 62
     0
100
AcDbBlockBegin
  2
A$C76A36C9E
 70
     0
 10
0.0
 20
0.0
 30
0.0
  3
A$C76A36C9E
  1
A$C76A36C9E
  0
LWPOLYLINE
  5
1A06
330
1A05
100
AcDbEntity
  8
実線
370
    50
100
AcDbPolyline
 90
        6
 70
     0
 43
0.0
 10
-136.9787502058973
 20
95.18495711771044
 10
-136.9787502058973
 20
115.6320525348278
 10
-137.9787502058973
 20
116.6320525348278
 10
-143.9787502058973
 20
116.6320525348278
 10
-144.9787502058973
 20
115.6320525348278
 10
-144.9787502058973
 20
95.18495711771044
  0
LINE
  5
1A07
330
1A05
100
AcDbEntity
  8
実線
370
    20
100
AcDbLine
 10
-137.9787502058973
 20
88.68519101888472
 30
0.0
 11
-137.9787502058973
 21
81.6320525348278
 31
0.0
  0
LINE
  5
1A08
330
1A05
100
AcDbEntity
  8
実線
370
    20
100
AcDbLine
 10
-143.9787502058973
 20
88.68519101888475
 30
0.0
 11
-143.9787502058973
 21
81.6320525348278
 31
0.0
  0
LWPOLYLINE
  5
1A09
330
1A05
100
AcDbEntity
  8
実線
370
    50
100
AcDbPolyline
 90
        4
 70
     0
 43
0.0
 10
-133.4463671028705
 20
89.68495711771044
 10
-133.4463671028705
 20
95.18495711771044
 10
-148.4463671028705
 20
95.18495711771044
 10
-148.4463671028705
 20
89.68495711771044
  0
LINE
  5
1A0A
330
1A05
100
AcDbEntity
  8
実線
370
    50
100
AcDbLine
 10
-144.3456442458684
 20
95.18495711771044
 30
0.0
 11
-144.3456442458684
 21
89.68495711771044
 31
0.0
  0
LINE
  5
1A0B
330
1A05
100
AcDbEntity
  8
実線
370
    50
100
AcDbLine
 10
-137.4873226877818
 20
95.18495711771044
 30
0.0
 11
-137.4873226877818
 21
89.68495711771044
 31
0.0
  0
ARC
  5
1A0C
330
1A05
100
AcDbEntity
  8
実線
370
    50
100
AcDbCircle
 10
-146.3960056743694
 20
91.28535523740777
 30
0.0
 40
2.601010597636193
100
AcDbArc
 50
217.973618634994
 51
322.0263813650058
  0
ARC
  5
1A0D
330
1A05
100
AcDbEntity
  8
実線
370
    50
100
AcDbCircle
 10
-140.916483466825
 20
95.06408242612318
 30
0.0
 40
6.379195304435764
100
AcDbArc
 50
237.4827287485465
 51
302.5172712514534
  0
ARC
  5
1A0E
330
1A05
100
AcDbEntity
  8
実線
370
    50
100
AcDbCircle
 10
-135.4668448953261
 20
91.22496313739819
 30
0.0
 40
2.540462369428222
100
AcDbArc
 50
217.3146110078773
 51
322.6853889921216
  0
LINE
  5
1A0F
330
1A05
100
AcDbEntity
  8
実線
370
    50
100
AcDbLine
 10
-140.9787502058973
 20
88.68519101888472
 30
0.0
 11
-145.9949810982741
 21
88.68519101888472
 31
0.0
  0
LINE
  5
1A10
330
1A05
100
AcDbEntity
  8
実線
370
    50
100
AcDbLine
 10
-140.9787502058976
 20
88.68519101888472
 30
0.0
 11
-135.9625193135205
 21
88.68519101888472
 31
0.0
  0
DIMENSION
  5
1A11
102
{ACAD_REACTORS
330
1A13
102
}
102
{ACAD_XDICTIONARY
360
1A12
102
}
330
1A05
100
AcDbEntity
  8
文字
100
AcDbDimension
280
     0
  2
*D12
 10
-91.83997379381236
 20
116.6320525348278
 30
0.0
 11
-93.71497379381239
 21
90.09043645189911
 31
0.0
 12
-232.2000002360858
 22
-18.80000018588799
 32
0.0
 70
    32
  1
53.5
 71
     5
 42
53.08323216585745
 73
     0
 74
     0
 75
     0
  3
ISO-25
100
AcDbAlignedDimension
 13
-121.9787502058973
 23
63.54882036897036
 33
0.0
 14
-137.9787502058973
 24
116.6320525348278
 34
0.0
 50
90.0
100
AcDbRotatedDimension
  0
LINE
  5
1A14
330
1A05
100
AcDbEntity
  8
中心線
100
AcDbLine
 10
-25.97857598945512
 20
97.20974302401129
 30
0.0
 11
-25.97857598945512
 21
73.28463913907507
 31
0.0
  0
LINE
  5
1A15
330
1A05
100
AcDbEntity
  8
中心線
100
AcDbLine
 10
-25.97857598945512
 20
97.20974302401129
 30
0.0
 11
-25.97857598945512
 21
122.905154338709
 31
0.0
  0
DIMENSION
  5
1A16
102
{ACAD_REACTORS
330
1A18
102
}
102
{ACAD_XDICTIONARY
360
1A17
102
}
330
1A05
100
AcDbEntity
  8
文字
100
AcDbDimension
280
     0
  2
*D11
 10
-107.3720409270395
 20
116.6320525348278
 30
0.0
 11
-109.2470409270396
 21
99.13205253482784
 31
0.0
 12
-232.2000002360858
 22
-18.80000018588799
 32
0.0
 70
    32
 71
     5
 42
35.0
 73
     0
 74
     0
 75
     0
  3
ISO-25
100
AcDbAlignedDimension
 13
-133.4463671028705
 23
81.6320525348278
 33
0.0
 14
-137.9787502058973
 24
116.6320525348278
 34
0.0
 50
90.0
100
AcDbRotatedDimension
1001
ACAD
1000
DSTYLE
1002
{
1070
   279
1070
     1
1002
}
  0
DIMENSION
  5
1A19
102
{ACAD_REACTORS
330
1A1B
102
}
102
{ACAD_XDICTIONARY
360
1A1A
102
}
330
1A05
100
AcDbEntity
  8
文字
100
AcDbDimension
280
     0
  2
*D10
 10
-107.3720409270395
 20
81.6320525348278
 30
0.0
 11
-103.3095409270396
 21
81.28841948541498
 31
0.0
 12
-232.2000002360858
 22
-18.80000018588799
 32
0.0
 70
    32
 71
     5
 42
5.499766098825717
 73
     0
 74
     0
 75
     0
  3
ISO-25
100
AcDbAlignedDimension
 13
-135.9625193135205
 23
76.13228643600209
 33
0.0
 14
-133.4463671028705
 24
81.6320525348278
 34
0.0
 50
90.0
100
AcDbRotatedDimension
1001
ACAD
1000
DSTYLE
1002
{
1070
   279
1070
     1
1002
}
  0
DIMENSION
  5
1A1C
102
{ACAD_REACTORS
330
1A1E
102
}
102
{ACAD_XDICTIONARY
360
1A1D
102
}
330
1A05
100
AcDbEntity
  8
文字
100
AcDbDimension
280
     0
  2
*D9
 10
-107.3720409270396
 20
76.13228643600209
 30
0.0
 11
-109.2470409270396
 21
69.84055340248625
 31
0.0
 12
-232.2000002360858
 22
-18.80000018588799
 32
0.0
 70
    32
  1
13
 71
     5
 42
12.58346606703174
 73
     0
 74
     0
 75
     0
  3
ISO-25
100
AcDbAlignedDimension
 13
-121.9787502058973
 23
63.54882036897036
 33
0.0
 14
-135.9625193135205
 24
76.13228643600209
 34
0.0
 50
90.0
100
AcDbRotatedDimension
  0
DIMENSION
  5
1A1F
330
1A05
100
AcDbEntity
  8
文字
100
AcDbDimension
280
     0
  2
*D8
 10
-121.9787502058973
 20
44.0968361446644
 30
0.0
 11
-140.9787502058973
 21
45.9718361446644
 31
0.0
 12
-232.2000002360858
 22
-18.80000018588799
 32
0.0
 70
    32
  1
%%c<>
 71
     5
 42
38.0
 73
     0
 74
     0
 75
     0
  3
ISO-25
100
AcDbAlignedDimension
 13
-159.9787502058973
 23
63.54882036897038
 33
0.0
 14
-121.9787502058973
 24
63.54882036897036
 34
0.0
100
AcDbRotatedDimension
  0
DIMENSION
  5
1A20
102
{ACAD_REACTORS
330
1A22
102
}
102
{ACAD_XDICTIONARY
360
1A21
102
}
330
1A05
100
AcDbEntity
  8
文字
100
AcDbDimension
280
     0
  2
*D7
 10
-136.9787502058973
 20
127.851572035212
 30
0.0
 11
-140.9787502058973
 21
129.726572035212
 31
0.0
 12
-232.2000002360858
 22
-18.80000018588799
 32
0.0
 70
    32
  1
{\fArial|b0|i0|c0|p32;M}<>
 71
     5
 42
8.000000000000014
 73
     0
 74
     0
 75
     0
  3
ISO-25
100
AcDbAlignedDimension
 13
-144.9787502058973
 23
115.6320525348278
 33
0.0
 14
-136.9787502058973
 24
115.6320525348278
 34
0.0
100
AcDbRotatedDimension
  0
LINE
  5
1A23
102
{ACAD_REACTORS
330
1A18
330
1A13
102
}
330
1A05
100
AcDbEntity
  8
実線
370
    20
100
AcDbLine
 10
-137.9787502058973
 20
116.6320525348278
 30
0.0
 11
-137.9787502058973
 21
95.18495711771044
 31
0.0
  0
LINE
  5
1A24
330
1A05
100
AcDbEntity
  8
実線
370
    20
100
AcDbLine
 10
-143.9787502058973
 20
116.6320525348278
 30
0.0
 11
-143.9787502058973
 21
95.18495711771044
 31
0.0
  0
LINE
  5
1A25
102
{ACAD_REACTORS
330
1A22
102
}
330
1A05
100
AcDbEntity
  8
実線
370
    20
100
AcDbLine
 10
-144.9787502058973
 20
115.6320525348278
 30
0.0
 11
-136.9787502058973
 21
115.6320525348278
 31
0.0
  0
LWPOLYLINE
  5
1A26
330
1A05
100
AcDbEntity
  8
実線
370
    50
100
AcDbPolyline
 90
        4
 70
     0
 43
0.0
 10
-144.9787502058973
 20
88.68519101888472
 10
-144.9787502058973
 20
81.6320525348278
 10
-136.9787502058973
 20
81.6320525348278
 10
-136.9787502058973
 20
88.68519101888472
  0
DIMENSION
  5
1A27
102
{ACAD_REACTORS
330
1A29
102
}
102
{ACAD_XDICTIONARY
360
1A28
102
}
330
1A05
100
AcDbEntity
  8
文字
100
AcDbDimension
280
     0
  2
*D6
 10
-19.48338546107183
 20
64.96985013205477
 30
0.0
 11
-25.79585274975142
 21
64.96985013205477
 31
0.0
 12
-232.2000002360858
 22
-18.80000018588799
 32
0.0
 70
   128
  1
13
 71
     5
 42
12.99038105676658
 73
     0
 74
     0
 75
     0
  3
ISO-25
100
AcDbAlignedDimension
 13
-32.47376651783841
 23
97.20974302401126
 33
0.0
 14
-19.48338546107183
 24
97.20974302401129
 34
0.0
100
AcDbRotatedDimension
  0
DIMENSION
  5
1A2A
102
{ACAD_REACTORS
330
1A2C
102
}
102
{ACAD_XDICTIONARY
360
1A2B
102
}
330
1A05
100
AcDbEntity
  8
文字
100
AcDbDimension
280
     0
  2
*D5
 10
-174.9740745621517
 20
63.54882036897038
 30
0.0
 11
-176.8490745621517
 21
55.84048703563706
 31
0.0
 12
-232.2000002360858
 22
-18.80000018588799
 32
0.0
 70
    32
  1
1.5
 71
     5
 42
1.599999999999994
 73
     0
 74
     0
 75
     0
  3
ISO-25
100
AcDbAlignedDimension
 13
-159.9787502058973
 23
65.14882036897038
 33
0.0
 14
-159.9787502058973
 24
63.54882036897038
 34
0.0
 50
90.0
100
AcDbRotatedDimension
  0
CIRCLE
  5
1A2D
330
1A05
100
AcDbEntity
  8
実線
370
    20
100
AcDbCircle
 10
-25.97857598945512
 20
97.20974302401129
 30
0.0
 40
3.4
  0
CIRCLE
  5
1A2E
330
1A05
100
AcDbEntity
  8
実線
370
    50
100
AcDbCircle
 10
-25.97857598945512
 20
97.20974302401129
 30
0.0
 40
4.0
  0
LWPOLYLINE
  5
1A2F
102
{ACAD_REACTORS
330
1A29
102
}
330
1A05
100
AcDbEntity
  8
実線
370
    50
100
AcDbPolyline
 90
        6
 70
     1
 43
0.0
 10
-19.48338546107183
 20
100.9597430240113
 10
-25.97857598945512
 20
104.7097430240113
 10
-32.47376651783841
 20
100.9597430240113
 10
-32.47376651783841
 20
93.45974302401126
 10
-25.97857598945512
 20
89.70974302401126
 10
-19.48338546107183
 20
93.45974302401126
  0
DIMENSION
  5
1A30
102
{ACAD_REACTORS
330
1A32
102
}
102
{ACAD_XDICTIONARY
360
1A31
102
}
330
1A05
100
AcDbEntity
  8
文字
100
AcDbDimension
280
     0
  2
*D4
 10
-11.97857598945512
 20
57.36396220779807
 30
0.0
 11
-25.97857598945512
 21
59.23896220779807
 31
0.0
 12
-232.2000002360858
 22
-18.80000018588799
 32
0.0
 70
    32
  1
%%c<>
 71
     5
 42
28.0
 73
     0
 74
     0
 75
     0
  3
ISO-25
100
AcDbAlignedDimension
 13
-39.97857598945512
 23
97.20974302401129
 33
0.0
 14
-11.97857598945512
 24
97.20974302401129
 34
0.0
100
AcDbRotatedDimension
  0
ARC
  5
1A33
330
1A05
100
AcDbEntity
  8
実線
370
    50
100
AcDbCircle
 10
-140.9787502058973
 20
62.86352625132333
 30
0.0
 40
14.18529411764706
100
AcDbArc
 50
110.7090084471018
 51
164.6470298493059
  0
LINE
  5
1A34
102
{ACAD_REACTORS
330
1A1E
330
1A1B
102
}
330
1A05
100
AcDbEntity
  8
実線
370
    50
100
AcDbLine
 10
-140.9787502058976
 20
76.13228643600209
 30
0.0
 11
-135.9625193135205
 21
76.13228643600209
 31
0.0
  0
LINE
  5
1A35
330
1A05
100
AcDbEntity
  8
実線
370
    50
100
AcDbLine
 10
-140.9787502058973
 20
76.13228643600209
 30
0.0
 11
-145.9949810982741
 21
76.13228643600209
 31
0.0
  0
ARC
  5
1A36
330
1A05
100
AcDbEntity
  8
実線
370
    50
100
AcDbCircle
 10
-135.4668448953261
 20
78.67205855451556
 30
0.0
 40
2.540462369428222
100
AcDbArc
 50
217.3146110078773
 51
322.6853889921216
  0
ARC
  5
1A37
330
1A05
100
AcDbEntity
  8
実線
370
    50
100
AcDbCircle
 10
-140.916483466825
 20
82.51117784324055
 30
0.0
 40
6.379195304435764
100
AcDbArc
 50
237.4827287485465
 51
302.5172712514534
  0
ARC
  5
1A38
330
1A05
100
AcDbEntity
  8
実線
370
    50
100
AcDbCircle
 10
-146.3960056743694
 20
78.73245065452514
 30
0.0
 40
2.601010597636193
100
AcDbArc
 50
217.973618634994
 51
322.0263813650058
  0
LINE
  5
1A39
330
1A05
100
AcDbEntity
  8
実線
370
    50
100
AcDbLine
 10
-137.4873226877818
 20
81.6320525348278
 30
0.0
 11
-137.4873226877818
 21
77.1320525348278
 31
0.0
  0
LINE
  5
1A3A
330
1A05
100
AcDbEntity
  8
実線
370
    50
100
AcDbLine
 10
-144.3456442458684
 20
81.6320525348278
 30
0.0
 11
-144.3456442458684
 21
77.1320525348278
 31
0.0
  0
LWPOLYLINE
  5
1A3B
102
{ACAD_REACTORS
330
1A1B
330
1A18
102
}
330
1A05
100
AcDbEntity
  8
実線
370
    50
100
AcDbPolyline
 90
        4
 70
     0
 43
0.0
 10
-133.4463671028705
 20
77.1320525348278
 10
-133.4463671028705
 20
81.6320525348278
 10
-148.4463671028705
 20
81.6320525348278
 10
-148.4463671028705
 20
77.1320525348278
  0
LINE
  5
1A3C
102
{ACAD_REACTORS
330
1A29
102
}
330
1A05
100
AcDbEntity
  8
中心線
100
AcDbLine
 10
-56.39333659375262
 20
97.20974302401129
 30
0.0
 11
-16.39090544331049
 21
97.20974302401129
 31
0.0
  0
LINE
  5
1A3D
330
1A05
100
AcDbEntity
  8
実線
370
    50
100
AcDbLine
 10
-156.4653650853308
 20
65.14882036897038
 30
0.0
 11
-125.371059793796
 21
65.14882036897035
 31
0.0
  0
LINE
  5
1A3E
330
1A05
100
AcDbEntity
  8
中心線
100
AcDbLine
 10
-16.39090544331049
 20
97.20974302401129
 30
0.0
 11
4.251392774196745
 21
97.20974302401129
 31
0.0
  0
CIRCLE
  5
1A3F
330
1A05
100
AcDbEntity
  8
実線
370
    50
100
AcDbCircle
 10
-25.97857598945512
 20
97.20974302401129
 30
0.0
 40
19.0
  0
CIRCLE
  5
1A40
102
{ACAD_REACTORS
330
1A32
102
}
330
1A05
100
AcDbEntity
  8
実線
370
    50
100
AcDbCircle
 10
-25.97857598945512
 20
97.20974302401129
 30
0.0
 40
14.0
  0
ARC
  5
1A41
330
1A05
100
AcDbEntity
  8
実線
370
    50
100
AcDbCircle
 10
-125.371059793796
 20
67.14882036897038
 30
0.0
 40
2.0
100
AcDbArc
 50
195.3529701506943
 51
270.0
  0
LINE
  5
1A42
330
1A05
100
AcDbEntity
  8
実線
370
    50
100
AcDbLine
 10
-125.371059793796
 20
65.14882036897035
 30
0.0
 11
-121.9787502058973
 21
65.14882036897035
 31
0.0
  0
ARC
  5
1A43
330
1A05
100
AcDbEntity
  8
実線
370
    50
100
AcDbCircle
 10
-156.5864406179986
 20
67.14882036897038
 30
0.0
 40
2.0
100
AcDbArc
 50
270.0
 51
344.6470298493056
  0
ARC
  5
1A44
102
{ACAD_REACTORS
330
1A1E
330
1A1B
102
}
330
1A05
100
AcDbEntity
  8
実線
370
    50
100
AcDbCircle
 10
-140.9787502058973
 20
62.86352625132333
 30
0.0
 40
14.18529411764706
100
AcDbArc
 50
15.35297015069416
 51
69.29099155289825
  0
LINE
  5
1A45
330
1A05
100
AcDbEntity
  8
実線
370
    50
100
AcDbLine
 10
-156.4653650853308
 20
65.14882036897038
 30
0.0
 11
-156.5864406179986
 21
65.14882036897038
 31
0.0
  0
LINE
  5
1A46
102
{ACAD_REACTORS
330
1A2C
102
}
330
1A05
100
AcDbEntity
  8
実線
370
    50
100
AcDbLine
 10
-159.9787502058973
 20
65.14882036897038
 30
0.0
 11
-156.4653650853308
 21
65.14882036897038
 31
0.0
  0
LINE
  5
1A47
330
1A05
100
AcDbEntity
  8
中心線
100
AcDbLine
 10
-140.9787502058973
 20
52.63205253482781
 30
0.0
 11
-140.9787502058973
 21
125.3376695381868
 31
0.0
  0
LINE
  5
1A48
102
{ACAD_REACTORS
330
1A1E
330
1A13
102
}
330
1A05
100
AcDbEntity
  8
実線
370
    50
100
AcDbLine
 10
-121.9787502058973
 20
65.14882036897035
 30
0.0
 11
-121.9787502058973
 21
63.54882036897036
 31
0.0
  0
LINE
  5
1A49
102
{ACAD_REACTORS
330
1A2C
102
}
330
1A05
100
AcDbEntity
  8
実線
370
    50
100
AcDbLine
 10
-159.9787502058973
 20
63.54882036897038
 30
0.0
 11
-159.9787502058973
 21
65.14882036897038
 31
0.0
  0
LINE
  5
1A4A
330
1A05
100
AcDbEntity
  8
実線
370
    50
100
AcDbLine
 10
-121.9787502058973
 20
63.54882036897036
 30
0.0
 11
-159.9787502058973
 21
63.54882036897038
 31
0.0
  0
TEXT
  5
1A4B
330
1A05
100
AcDbEntity
  8
文字
100
AcDbText
 10
2.672502397611936
 20
1.442331116837359
 30
0.0
 40
3.0
  1
ＳＵＳ304Ｊ3
100
AcDbText
  0
ENDBLK
  5
1A4D
330
1A05
100
AcDbEntity
  8
0
 62
     0
100
AcDbBlockEnd
  0
BLOCK
  5
1DFB
330
1DF1
100
AcDbEntity
  8
0
100
AcDbBlockBegin
  2
*D14
 70
     1
 10
0.0
 20
0.0
 30
0.0
  3
*D14
  1
*D48
  0
LINE
  5
1E6A
330
1DF1
100
AcDbEntity
  8
文字
 62
     0
370
    -2
100
AcDbLine
 10
185.4512012015398
 20
138.1136215969877
 30
0.0
 11
185.4512012015398
 21
98.12386819960864
 31
0.0
  0
LINE
  5
1E6B
330
1DF1
100
AcDbEntity
  8
文字
 62
     0
370
    -2
100
AcDbLine
 10
215.4156801724814
 20
138.1136215969877
 30
0.0
 11
215.4156801724814
 21
98.12386819960864
 31
0.0
  0
LINE
  5
1E6C
330
1DF1
100
AcDbEntity
  8
文字
 62
     0
370
    -2
100
AcDbLine
 10
187.9512012015398
 20
99.37386819960864
 30
0.0
 11
212.9156801724814
 21
99.37386819960864
 31
0.0
  0
SOLID
  5
1E6D
330
1DF1
100
AcDbEntity
  8
文字
 62
     0
100
AcDbTrace
 10
187.9512012015398
 20
99.79053486627531
 30
0.0
 11
187.9512012015398
 21
98.95720153294197
 31
0.0
 12
185.4512012015398
 22
99.37386819960864
 32
0.0
 13
185.4512012015398
 23
99.37386819960864
 33
0.0
  0
SOLID
  5
1E6E
330
1DF1
100
AcDbEntity
  8
文字
 62
     0
100
AcDbTrace
 10
212.9156801724814
 20
99.79053486627531
 30
0.0
 11
212.9156801724814
 21
98.95720153294197
 31
0.0
 12
215.4156801724814
 22
99.37386819960864
 32
0.0
 13
215.4156801724814
 23
99.37386819960864
 33
0.0
  0
MTEXT
  5
1E6F
330
1DF1
100
AcDbEntity
  8
文字
 62
     0
100
AcDbMText
 10
200.4334406870106
 20
101.2488681996086
 30
0.0
 40
2.5
 41
0.0
 46
0.0
 71
     5
 72
     1
  1
30
 73
     1
 44
1.0
  0
POINT
  5
1E70
330
1DF1
100
AcDbEntity
  8
Defpoints
 62
     0
100
AcDbPoint
 10
185.4512012015398
 20
138.7386215969877
 30
0.0
  0
POINT
  5
1E71
330
1DF1
100
AcDbEntity
  8
Defpoints
 62
     0
100
AcDbPoint
 10
215.4156801724814
 20
138.7386215969877
 30
0.0
  0
POINT
  5
1E72
330
1DF1
100
AcDbEntity
  8
Defpoints
 62
     0
100
AcDbPoint
 10
215.4156801724814
 20
99.37386819960864
 30
0.0
  0
ENDBLK
  5
1DFC
330
1DF1
100
AcDbEntity
  8
0
100
AcDbBlockEnd
  0
BLOCK
  5
1E07
330
1DFD
100
AcDbEntity
  8
0
100
AcDbBlockBegin
  2
*D15
 70
     1
 10
0.0
 20
0.0
 30
0.0
  3
*D15
  1
*D49
  0
LINE
  5
1EA7
330
1DFD
100
AcDbEntity
  8
文字
 62
     0
370
    -2
100
AcDbLine
 10
75.09013676882928
 20
203.7714942758096
 30
0.0
 11
117.938268796606
 21
203.7714942758096
 31
0.0
  0
LINE
  5
1EA8
330
1DFD
100
AcDbEntity
  8
文字
 62
     0
370
    -2
100
AcDbLine
 10
85.01513676882932
 20
103.7714942758096
 30
0.0
 11
117.938268796606
 21
103.7714942758096
 31
0.0
  0
LINE
  5
1EA9
330
1DFD
100
AcDbEntity
  8
文字
 62
     0
370
    -2
100
AcDbLine
 10
116.688268796606
 20
201.2714942758096
 30
0.0
 11
116.688268796606
 21
106.2714942758096
 31
0.0
  0
SOLID
  5
1EAA
330
1DFD
100
AcDbEntity
  8
文字
 62
     0
100
AcDbTrace
 10
116.2716021299393
 20
201.2714942758096
 30
0.0
 11
117.1049354632727
 21
201.2714942758096
 31
0.0
 12
116.688268796606
 22
203.7714942758096
 32
0.0
 13
116.688268796606
 23
203.7714942758096
 33
0.0
  0
SOLID
  5
1EAB
330
1DFD
100
AcDbEntity
  8
文字
 62
     0
100
AcDbTrace
 10
116.2716021299393
 20
106.2714942758096
 30
0.0
 11
117.1049354632727
 21
106.2714942758096
 31
0.0
 12
116.688268796606
 22
103.7714942758096
 32
0.0
 13
116.688268796606
 23
103.7714942758096
 33
0.0
  0
MTEXT
  5
1EAC
330
1DFD
100
AcDbEntity
  8
文字
 62
     0
100
AcDbMText
 10
114.813268796606
 20
153.7714942758096
 30
0.0
 40
2.5
 41
0.0
 46
0.0
 71
     5
 72
     1
  1
100
 11
6.123031769111886E-17
 21
1.0
 31
0.0
 73
     1
 44
1.0
  0
POINT
  5
1EAD
330
1DFD
100
AcDbEntity
  8
Defpoints
 62
     0
100
AcDbPoint
 10
74.46513676882928
 20
203.7714942758096
 30
0.0
  0
POINT
  5
1EAE
330
1DFD
100
AcDbEntity
  8
Defpoints
 62
     0
100
AcDbPoint
 10
84.39013676882932
 20
103.7714942758096
 30
0.0
  0
POINT
  5
1EAF
330
1DFD
100
AcDbEntity
  8
Defpoints
 62
     0
100
AcDbPoint
 10
116.688268796606
 20
103.7714942758096
 30
0.0
  0
ENDBLK
  5
1E08
330
1DFD
100
AcDbEntity
  8
0
100
AcDbBlockEnd
  0
BLOCK
  5
1E13
330
1E09
100
AcDbEntity
  8
0
100
AcDbBlockBegin
  2
*D16
 70
     1
 10
0.0
 20
0.0
 30
0.0
  3
*D16
  1
*D50
  0
LINE
  5
1E58
330
1E09
100
AcDbEntity
  8
文字
 62
     0
370
    -2
100
AcDbLine
 10
84.39013676882932
 20
103.7714942758096
 30
0.0
 11
117.938268796606
 21
103.7714942758096
 31
0.0
  0
LINE
  5
1E59
330
1E09
100
AcDbEntity
  8
文字
 62
     0
370
    -2
100
AcDbLine
 10
84.39013676882932
 20
90.77149427580957
 30
0.0
 11
117.938268796606
 21
90.77149427580956
 31
0.0
  0
LINE
  5
1E5A
330
1E09
100
AcDbEntity
  8
文字
 62
     0
370
    -2
100
AcDbLine
 10
116.688268796606
 20
101.2714942758096
 30
0.0
 11
116.688268796606
 21
93.27149427580956
 31
0.0
  0
SOLID
  5
1E5B
330
1E09
100
AcDbEntity
  8
文字
 62
     0
100
AcDbTrace
 10
116.2716021299393
 20
101.2714942758096
 30
0.0
 11
117.1049354632727
 21
101.2714942758096
 31
0.0
 12
116.688268796606
 22
103.7714942758096
 32
0.0
 13
116.688268796606
 23
103.7714942758096
 33
0.0
  0
SOLID
  5
1E5C
330
1E09
100
AcDbEntity
  8
文字
 62
     0
100
AcDbTrace
 10
116.2716021299393
 20
93.27149427580956
 30
0.0
 11
117.1049354632727
 21
93.27149427580956
 31
0.0
 12
116.688268796606
 22
90.77149427580956
 32
0.0
 13
116.688268796606
 23
90.77149427580956
 33
0.0
  0
MTEXT
  5
1E5D
330
1E09
100
AcDbEntity
  8
文字
 62
     0
100
AcDbMText
 10
114.813268796606
 20
97.27149427580959
 30
0.0
 40
2.5
 41
0.0
 46
0.0
 71
     5
 72
     1
  1
13
 11
6.123031769111886E-17
 21
1.0
 31
0.0
 73
     1
 44
1.0
  0
POINT
  5
1E5E
330
1E09
100
AcDbEntity
  8
Defpoints
 62
     0
100
AcDbPoint
 10
83.76513676882932
 20
103.7714942758096
 30
0.0
  0
POINT
  5
1E5F
330
1E09
100
AcDbEntity
  8
Defpoints
 62
     0
100
AcDbPoint
 10
83.76513676882932
 20
90.77149427580957
 30
0.0
  0
POINT
  5
1E60
330
1E09
100
AcDbEntity
  8
Defpoints
 62
     0
100
AcDbPoint
 10
116.688268796606
 20
90.77149427580956
 30
0.0
  0
ENDBLK
  5
1E14
330
1E09
100
AcDbEntity
  8
0
100
AcDbBlockEnd
  0
BLOCK
  5
1E1F
330
1E15
100
AcDbEntity
  8
0
100
AcDbBlockBegin
  2
*D17
 70
     1
 10
0.0
 20
0.0
 30
0.0
  3
*D17
  1
*D51
  0
LINE
  5
1EB0
330
1E15
100
AcDbEntity
  8
文字
 62
     0
370
    -2
100
AcDbLine
 10
56.46513676882928
 20
202.3964942758096
 30
0.0
 11
56.46513676882928
 21
218.5117457581504
 31
0.0
  0
LINE
  5
1EB1
330
1E15
100
AcDbEntity
  8
文字
 62
     0
370
    -2
100
AcDbLine
 10
76.46513676882928
 20
202.3964942758096
 30
0.0
 11
76.46513676882928
 21
218.5117457581504
 31
0.0
  0
LINE
  5
1EB2
330
1E15
100
AcDbEntity
  8
文字
 62
     0
370
    -2
100
AcDbLine
 10
58.96513676882928
 20
217.2617457581504
 30
0.0
 11
73.96513676882928
 21
217.2617457581504
 31
0.0
  0
SOLID
  5
1EB3
330
1E15
100
AcDbEntity
  8
文字
 62
     0
100
AcDbTrace
 10
58.96513676882928
 20
217.6784124248171
 30
0.0
 11
58.96513676882928
 21
216.8450790914838
 31
0.0
 12
56.46513676882928
 22
217.2617457581504
 32
0.0
 13
56.46513676882928
 23
217.2617457581504
 33
0.0
  0
SOLID
  5
1EB4
330
1E15
100
AcDbEntity
  8
文字
 62
     0
100
AcDbTrace
 10
73.96513676882928
 20
217.6784124248171
 30
0.0
 11
73.96513676882928
 21
216.8450790914838
 31
0.0
 12
76.46513676882928
 22
217.2617457581504
 32
0.0
 13
76.46513676882928
 23
217.2617457581504
 33
0.0
  0
MTEXT
  5
1EB5
330
1E15
100
AcDbEntity
  8
文字
 62
     0
100
AcDbMText
 10
66.46513676882928
 20
219.1367457581504
 30
0.0
 40
2.5
 41
0.0
 46
0.0
 71
     5
 72
     1
  1
M20
 73
     1
 44
1.0
  0
POINT
  5
1EB6
330
1E15
100
AcDbEntity
  8
Defpoints
 62
     0
100
AcDbPoint
 10
56.46513676882928
 20
201.7714942758096
 30
0.0
  0
POINT
  5
1EB7
330
1E15
100
AcDbEntity
  8
Defpoints
 62
     0
100
AcDbPoint
 10
76.46513676882928
 20
201.7714942758096
 30
0.0
  0
POINT
  5
1EB8
330
1E15
100
AcDbEntity
  8
Defpoints
 62
     0
100
AcDbPoint
 10
76.46513676882928
 20
217.2617457581504
 30
0.0
  0
ENDBLK
  5
1E20
330
1E15
100
AcDbEntity
  8
0
100
AcDbBlockEnd
  0
BLOCK
  5
1F72
330
1F71
100
AcDbEntity
  8
0
100
AcDbBlockBegin
  2
*D18
 70
     1
 10
0.0
 20
0.0
 30
0.0
  3
*D18
  1
*D24
  0
LINE
  5
1F74
330
1F71
100
AcDbEntity
  8
0
 62
     0
370
    -2
100
AcDbLine
 10
174.4334406870105
 20
146.3886215969877
 30
0.0
 11
174.4334406870105
 21
68.27990190625388
 31
0.0
  0
LINE
  5
1F75
330
1F71
100
AcDbEntity
  8
0
 62
     0
370
    -2
100
AcDbLine
 10
226.4334406870105
 20
146.3886215969877
 30
0.0
 11
226.4334406870105
 21
68.27990190625388
 31
0.0
  0
LINE
  5
1F76
330
1F71
100
AcDbEntity
  8
0
 62
     0
370
    -2
100
AcDbLine
 10
176.4334406870105
 20
69.27990190625388
 30
0.0
 11
195.5517740203438
 21
69.27990190625388
 31
0.0
  0
LINE
  5
1F77
330
1F71
100
AcDbEntity
  8
0
 62
     0
370
    -2
100
AcDbLine
 10
224.4334406870105
 20
69.27990190625388
 30
0.0
 11
205.3151073536771
 21
69.27990190625388
 31
0.0
  0
SOLID
  5
1F78
330
1F71
100
AcDbEntity
  8
0
 62
     0
100
AcDbTrace
 10
176.4334406870105
 20
69.61323523958721
 30
0.0
 11
176.4334406870105
 21
68.94656857292055
 31
0.0
 12
174.4334406870105
 22
69.27990190625388
 32
0.0
 13
174.4334406870105
 23
69.27990190625388
 33
0.0
  0
SOLID
  5
1F79
330
1F71
100
AcDbEntity
  8
0
 62
     0
100
AcDbTrace
 10
224.4334406870105
 20
68.94656857292055
 30
0.0
 11
224.4334406870105
 21
69.61323523958721
 31
0.0
 12
226.4334406870105
 22
69.27990190625388
 32
0.0
 13
226.4334406870105
 23
69.27990190625388
 33
0.0
  0
MTEXT
  5
1F7A
330
1F71
100
AcDbEntity
  8
0
 62
     0
100
AcDbMText
 10
200.4334406870105
 20
69.27990190625388
 30
0.0
 40
2.5
 41
0.0
 46
0.0
 71
     5
 72
     1
  1
\A1;%%c52.0
 73
     1
 44
1.0
  0
POINT
  5
1F7B
330
1F71
100
AcDbEntity
  8
Defpoints
 62
     0
100
AcDbPoint
 10
174.4334406870105
 20
147.3886215969877
 30
0.0
  0
POINT
  5
1F7C
330
1F71
100
AcDbEntity
  8
Defpoints
 62
     0
100
AcDbPoint
 10
226.4334406870105
 20
147.3886215969877
 30
0.0
  0
POINT
  5
1F7D
330
1F71
100
AcDbEntity
  8
Defpoints
 62
     0
100
AcDbPoint
 10
226.4334406870105
 20
69.27990190625388
 30
0.0
  0
ENDBLK
  5
1F73
330
1F71
100
AcDbEntity
  8
0
100
AcDbBlockEnd
  0
BLOCK
  5
2157
330
2156
100
AcDbEntity
  8
0
100
AcDbBlockBegin
  2
*D19
 70
     1
 10
0.0
 20
0.0
 30
0.0
  3
*D19
  1
*D32
  0
LINE
  5
2159
330
2156
100
AcDbEntity
  8
文字
 62
     0
370
    -2
100
AcDbLine
 10
76.81922238481698
 20
90.68643022490079
 30
0.0
 11
118.0803719840392
 21
90.68643022490079
 31
0.0
  0
LINE
  5
215A
330
2156
100
AcDbEntity
  8
文字
 62
     0
370
    -2
100
AcDbLine
 10
104.742440477554
 20
68.68645623772858
 30
0.0
 11
118.0803719840392
 21
68.68645623772858
 31
0.0
  0
LINE
  5
215B
330
2156
100
AcDbEntity
  8
文字
 62
     0
370
    -2
100
AcDbLine
 10
116.8303719840392
 20
88.18643022490079
 30
0.0
 11
116.8303719840392
 21
71.18645623772858
 31
0.0
  0
SOLID
  5
215C
330
2156
100
AcDbEntity
  8
文字
 62
     0
100
AcDbTrace
 10
117.2470386507058
 20
88.18643022490079
 30
0.0
 11
116.4137053173725
 21
88.18643022490079
 31
0.0
 12
116.8303719840392
 22
90.68643022490079
 32
0.0
 13
116.8303719840392
 23
90.68643022490079
 33
0.0
  0
SOLID
  5
215D
330
2156
100
AcDbEntity
  8
文字
 62
     0
100
AcDbTrace
 10
116.4137053173725
 20
71.18645623772858
 30
0.0
 11
117.2470386507058
 21
71.18645623772858
 31
0.0
 12
116.8303719840392
 22
68.68645623772858
 32
0.0
 13
116.8303719840392
 23
68.68645623772858
 33
0.0
  0
MTEXT
  5
215E
330
2156
100
AcDbEntity
  8
文字
 62
     0
100
AcDbMText
 10
114.9553719840392
 20
79.68644323131468
 30
0.0
 40
2.5
 41
0.0
 46
0.0
 71
     5
 72
     1
  1
22
 11
0.0
 21
1.0
 31
0.0
 73
     1
 44
1.0
  0
POINT
  5
215F
330
2156
100
AcDbEntity
  8
Defpoints
 62
     0
100
AcDbPoint
 10
76.19422238481698
 20
90.68643022490079
 30
0.0
  0
POINT
  5
2160
330
2156
100
AcDbEntity
  8
Defpoints
 62
     0
100
AcDbPoint
 10
104.117440477554
 20
68.68645623772858
 30
0.0
  0
POINT
  5
2161
330
2156
100
AcDbEntity
  8
Defpoints
 62
     0
100
AcDbPoint
 10
116.8303719840392
 20
68.68645623772858
 30
0.0
  0
ENDBLK
  5
2158
330
2156
100
AcDbEntity
  8
0
100
AcDbBlockEnd
  0
BLOCK
  5
2163
330
2162
100
AcDbEntity
  8
0
100
AcDbBlockBegin
  2
*D20
 70
     1
 10
0.0
 20
0.0
 30
0.0
  3
*D20
  1
*D33
  0
LINE
  5
2165
330
2162
100
AcDbEntity
  8
0
 62
     0
370
    -2
100
AcDbLine
 10
25.08169418566587
 20
76.89239378927648
 30
0.0
 11
8.11166596047407
 21
76.89239378927648
 31
0.0
  0
LINE
  5
2166
330
2162
100
AcDbEntity
  8
0
 62
     0
370
    -2
100
AcDbLine
 10
25.05057662569331
 20
68.69287805780382
 30
0.0
 11
8.11166596047407
 21
68.69287805780382
 31
0.0
  0
LINE
  5
2167
330
2162
100
AcDbEntity
  8
0
 62
     0
370
    -2
100
AcDbLine
 10
8.29166596047407
 20
74.89239378927648
 30
0.0
 11
8.29166596047407
 21
70.69287805780382
 31
0.0
  0
SOLID
  5
2168
330
2162
100
AcDbEntity
  8
0
 62
     0
100
AcDbTrace
 10
8.624999293807404
 20
74.89239378927648
 30
0.0
 11
7.958332627140737
 21
74.89239378927648
 31
0.0
 12
8.29166596047407
 22
76.89239378927648
 32
0.0
 13
8.29166596047407
 23
76.89239378927648
 33
0.0
  0
SOLID
  5
2169
330
2162
100
AcDbEntity
  8
0
 62
     0
100
AcDbTrace
 10
7.958332627140737
 20
70.69287805780382
 30
0.0
 11
8.624999293807404
 21
70.69287805780382
 31
0.0
 12
8.29166596047407
 22
68.69287805780382
 32
0.0
 13
8.29166596047407
 23
68.69287805780382
 33
0.0
  0
MTEXT
  5
216A
330
2162
100
AcDbEntity
  8
0
 62
     0
100
AcDbMText
 10
5.70166596047407
 20
72.79263592354016
 30
0.0
 40
2.5
 41
0.0
 46
0.0
 71
     5
 72
     1
  1
\A1;8.2
 73
     1
 44
1.0
  0
POINT
  5
216B
330
2162
100
AcDbEntity
  8
Defpoints
 62
     0
100
AcDbPoint
 10
25.14419418566587
 20
76.89239378927648
 30
0.0
  0
POINT
  5
216C
330
2162
100
AcDbEntity
  8
Defpoints
 62
     0
100
AcDbPoint
 10
25.11307662569331
 20
68.69287805780382
 30
0.0
  0
POINT
  5
216D
330
2162
100
AcDbEntity
  8
Defpoints
 62
     0
100
AcDbPoint
 10
8.29166596047407
 20
68.69287805780382
 30
0.0
  0
ENDBLK
  5
2164
330
2162
100
AcDbEntity
  8
0
100
AcDbBlockEnd
  0
BLOCK
  5
216F
330
216E
100
AcDbEntity
  8
0
100
AcDbBlockBegin
  2
*D21
 70
     1
 10
0.0
 20
0.0
 30
0.0
  3
*D21
  1
*D34
  0
LINE
  5
2171
330
216E
100
AcDbEntity
  8
0
 62
     0
370
    -2
100
AcDbLine
 10
25.1734505386603
 20
68.72703868523521
 30
0.0
 11
25.17345053866029
 21
50.15761025604331
 31
0.0
  0
LINE
  5
2172
330
216E
100
AcDbEntity
  8
0
 62
     0
370
    -2
100
AcDbLine
 10
108.1734505386602
 20
68.72703868523521
 30
0.0
 11
108.1734505386602
 21
50.15761025604331
 31
0.0
  0
LINE
  5
2173
330
216E
100
AcDbEntity
  8
0
 62
     0
370
    -2
100
AcDbLine
 10
27.17345053866029
 20
51.15761025604331
 30
0.0
 11
62.02773299877647
 21
51.15761025604331
 31
0.0
  0
LINE
  5
2174
330
216E
100
AcDbEntity
  8
0
 62
     0
370
    -2
100
AcDbLine
 10
106.1734505386602
 20
51.15761025604331
 30
0.0
 11
71.79106633210982
 21
51.15761025604331
 31
0.0
  0
SOLID
  5
2175
330
216E
100
AcDbEntity
  8
0
 62
     0
100
AcDbTrace
 10
27.17345053866029
 20
51.49094358937665
 30
0.0
 11
27.17345053866029
 21
50.82427692270998
 31
0.0
 12
25.17345053866029
 22
51.15761025604331
 32
0.0
 13
25.17345053866029
 23
51.15761025604331
 33
0.0
  0
SOLID
  5
2176
330
216E
100
AcDbEntity
  8
0
 62
     0
100
AcDbTrace
 10
106.1734505386602
 20
50.82427692270998
 30
0.0
 11
106.1734505386602
 21
51.49094358937665
 31
0.0
 12
108.1734505386602
 22
51.15761025604331
 32
0.0
 13
108.1734505386602
 23
51.15761025604331
 33
0.0
  0
MTEXT
  5
2177
330
216E
100
AcDbEntity
  8
0
 62
     0
100
AcDbMText
 10
66.90939966544315
 20
51.15761025604331
 30
0.0
 40
2.5
 41
0.0
 46
0.0
 71
     5
 72
     1
  1
\A1;%%c83.0
 73
     1
 44
1.0
  0
POINT
  5
2178
330
216E
100
AcDbEntity
  8
Defpoints
 62
     0
100
AcDbPoint
 10
25.1734505386603
 20
69.72703868523521
 30
0.0
  0
POINT
  5
2179
330
216E
100
AcDbEntity
  8
Defpoints
 62
     0
100
AcDbPoint
 10
108.1734505386602
 20
69.72703868523521
 30
0.0
  0
POINT
  5
217A
330
216E
100
AcDbEntity
  8
Defpoints
 62
     0
100
AcDbPoint
 10
108.1734505386602
 20
51.15761025604331
 30
0.0
  0
ENDBLK
  5
2170
330
216E
100
AcDbEntity
  8
0
100
AcDbBlockEnd
  0
BLOCK
  5
21CD
330
21CC
100
AcDbEntity
  8
0
100
AcDbBlockBegin
  2
*D22
 70
     1
 10
0.0
 20
0.0
 30
0.0
  3
*D22
  1
*D49
  0
LINE
  5
21CE
330
21CC
100
AcDbEntity
  8
文字
 62
     0
370
    -2
100
AcDbLine
 10
22.90685894857616
 20
138.0576553046929
 30
0.0
 11
65.75499097635287
 21
138.0576553046929
 31
0.0
  0
LINE
  5
21CF
330
21CC
100
AcDbEntity
  8
文字
 62
     0
370
    -2
100
AcDbLine
 10
32.8318589485762
 20
38.05765530469293
 30
0.0
 11
65.75499097635287
 21
38.05765530469293
 31
0.0
  0
LINE
  5
21D0
330
21CC
100
AcDbEntity
  8
文字
 62
     0
370
    -2
100
AcDbLine
 10
64.50499097635287
 20
135.5576553046929
 30
0.0
 11
64.50499097635287
 21
40.55765530469293
 31
0.0
  0
SOLID
  5
21D1
330
21CC
100
AcDbEntity
  8
文字
 62
     0
100
AcDbTrace
 10
64.92165764301954
 20
135.5576553046929
 30
0.0
 11
64.0883243096862
 21
135.5576553046929
 31
0.0
 12
64.50499097635287
 22
138.0576553046929
 32
0.0
 13
64.50499097635287
 23
138.0576553046929
 33
0.0
  0
SOLID
  5
21D2
330
21CC
100
AcDbEntity
  8
文字
 62
     0
100
AcDbTrace
 10
64.0883243096862
 20
40.55765530469293
 30
0.0
 11
64.92165764301954
 21
40.55765530469293
 31
0.0
 12
64.50499097635287
 22
38.05765530469293
 32
0.0
 13
64.50499097635287
 23
38.05765530469293
 33
0.0
  0
MTEXT
  5
21D3
330
21CC
100
AcDbEntity
  8
文字
 62
     0
100
AcDbMText
 10
62.62999097635287
 20
88.05765530469293
 30
0.0
 40
2.5
 41
0.0
 46
0.0
 71
     5
 72
     1
  1
180
 11
0.0
 21
1.0
 31
0.0
 73
     1
 44
1.0
  0
POINT
  5
21D4
330
21CC
100
AcDbEntity
  8
Defpoints
 62
     0
100
AcDbPoint
 10
22.28185894857616
 20
138.0576553046929
 30
0.0
  0
POINT
  5
21D5
330
21CC
100
AcDbEntity
  8
Defpoints
 62
     0
100
AcDbPoint
 10
32.2068589485762
 20
38.05765530469293
 30
0.0
  0
POINT
  5
21D6
330
21CC
100
AcDbEntity
  8
Defpoints
 62
     0
100
AcDbPoint
 10
64.50499097635287
 20
38.05765530469293
 30
0.0
  0
ENDBLK
  5
21D7
330
21CC
100
AcDbEntity
  8
0
100
AcDbBlockEnd
  0
BLOCK
  5
21E1
330
21E0
100
AcDbEntity
  8
0
100
AcDbBlockBegin
  2
*D23
 70
     1
 10
0.0
 20
0.0
 30
0.0
  3
*D23
  1
*D51
  0
LINE
  5
21E2
330
21E0
100
AcDbEntity
  8
文字
 62
     0
370
    -2
100
AcDbLine
 10
4.281858948576165
 20
136.6826553046929
 30
0.0
 11
4.281858948576165
 21
152.7979067870337
 31
0.0
  0
LINE
  5
21E3
330
21E0
100
AcDbEntity
  8
文字
 62
     0
370
    -2
100
AcDbLine
 10
24.28185894857616
 20
136.6826553046929
 30
0.0
 11
24.28185894857616
 21
152.7979067870337
 31
0.0
  0
LINE
  5
21E4
330
21E0
100
AcDbEntity
  8
文字
 62
     0
370
    -2
100
AcDbLine
 10
6.781858948576165
 20
151.5479067870337
 30
0.0
 11
21.78185894857616
 21
151.5479067870337
 31
0.0
  0
SOLID
  5
21E5
330
21E0
100
AcDbEntity
  8
文字
 62
     0
100
AcDbTrace
 10
6.781858948576165
 20
151.9645734537004
 30
0.0
 11
6.781858948576165
 21
151.1312401203671
 31
0.0
 12
4.281858948576165
 22
151.5479067870337
 32
0.0
 13
4.281858948576165
 23
151.5479067870337
 33
0.0
  0
SOLID
  5
21E6
330
21E0
100
AcDbEntity
  8
文字
 62
     0
100
AcDbTrace
 10
21.78185894857616
 20
151.1312401203671
 30
0.0
 11
21.78185894857616
 21
151.9645734537004
 31
0.0
 12
24.28185894857616
 22
151.5479067870337
 32
0.0
 13
24.28185894857616
 23
151.5479067870337
 33
0.0
  0
MTEXT
  5
21E7
330
21E0
100
AcDbEntity
  8
文字
 62
     0
100
AcDbMText
 10
14.28185894857616
 20
153.4229067870337
 30
0.0
 40
2.5
 41
0.0
 46
0.0
 71
     5
 72
     1
  1
M20
 73
     1
 44
1.0
  0
POINT
  5
21E8
330
21E0
100
AcDbEntity
  8
Defpoints
 62
     0
100
AcDbPoint
 10
4.281858948576165
 20
136.0576553046929
 30
0.0
  0
POINT
  5
21E9
330
21E0
100
AcDbEntity
  8
Defpoints
 62
     0
100
AcDbPoint
 10
24.28185894857616
 20
136.0576553046929
 30
0.0
  0
POINT
  5
21EA
330
21E0
100
AcDbEntity
  8
Defpoints
 62
     0
100
AcDbPoint
 10
24.28185894857616
 20
151.5479067870337
 30
0.0
  0
ENDBLK
  5
21EB
330
21E0
100
AcDbEntity
  8
0
100
AcDbBlockEnd
  0
BLOCK
  5
220D
330
220C
100
AcDbEntity
  8
0
100
AcDbBlockBegin
  2
*D24
 70
     1
 10
0.0
 20
0.0
 30
0.0
  3
*D24
  1
*D38
  0
LINE
  5
220F
330
220C
100
AcDbEntity
  8
文字
 62
     0
370
    -2
100
AcDbLine
 10
75.10858128912241
 20
203.8264009922762
 30
0.0
 11
117.9567133168991
 21
203.8264009922762
 31
0.0
  0
LINE
  5
2210
330
220C
100
AcDbEntity
  8
文字
 62
     0
370
    -2
100
AcDbLine
 10
85.03358128912245
 20
103.8264009922762
 30
0.0
 11
117.9567133168991
 21
103.8264009922762
 31
0.0
  0
LINE
  5
2211
330
220C
100
AcDbEntity
  8
文字
 62
     0
370
    -2
100
AcDbLine
 10
116.7067133168991
 20
201.3264009922762
 30
0.0
 11
116.7067133168991
 21
106.3264009922762
 31
0.0
  0
SOLID
  5
2212
330
220C
100
AcDbEntity
  8
文字
 62
     0
100
AcDbTrace
 10
117.1233799835658
 20
201.3264009922762
 30
0.0
 11
116.2900466502325
 21
201.3264009922762
 31
0.0
 12
116.7067133168991
 22
203.8264009922762
 32
0.0
 13
116.7067133168991
 23
203.8264009922762
 33
0.0
  0
SOLID
  5
2213
330
220C
100
AcDbEntity
  8
文字
 62
     0
100
AcDbTrace
 10
116.2900466502325
 20
106.3264009922762
 30
0.0
 11
117.1233799835658
 21
106.3264009922762
 31
0.0
 12
116.7067133168991
 22
103.8264009922762
 32
0.0
 13
116.7067133168991
 23
103.8264009922762
 33
0.0
  0
MTEXT
  5
2214
330
220C
100
AcDbEntity
  8
文字
 62
     0
100
AcDbMText
 10
114.8317133168991
 20
153.8264009922762
 30
0.0
 40
2.5
 41
0.0
 46
0.0
 71
     5
 72
     1
  1
180
 11
0.0
 21
1.0
 31
0.0
 73
     1
 44
1.0
  0
POINT
  5
2215
330
220C
100
AcDbEntity
  8
Defpoints
 62
     0
100
AcDbPoint
 10
74.48358128912241
 20
203.8264009922762
 30
0.0
  0
POINT
  5
2216
330
220C
100
AcDbEntity
  8
Defpoints
 62
     0
100
AcDbPoint
 10
84.40858128912245
 20
103.8264009922762
 30
0.0
  0
POINT
  5
2217
330
220C
100
AcDbEntity
  8
Defpoints
 62
     0
100
AcDbPoint
 10
116.7067133168991
 20
103.8264009922762
 30
0.0
  0
ENDBLK
  5
220E
330
220C
100
AcDbEntity
  8
0
100
AcDbBlockEnd
  0
BLOCK
  5
2219
330
2218
100
AcDbEntity
  8
0
100
AcDbBlockBegin
  2
*D25
 70
     1
 10
0.0
 20
0.0
 30
0.0
  3
*D25
  1
*D39
  0
LINE
  5
221B
330
2218
100
AcDbEntity
  8
文字
 62
     0
370
    -2
100
AcDbLine
 10
56.48358128912242
 20
202.4514009922762
 30
0.0
 11
56.48358128912242
 21
218.566652474617
 31
0.0
  0
LINE
  5
221C
330
2218
100
AcDbEntity
  8
文字
 62
     0
370
    -2
100
AcDbLine
 10
76.48358128912241
 20
202.4514009922762
 30
0.0
 11
76.48358128912241
 21
218.566652474617
 31
0.0
  0
LINE
  5
221D
330
2218
100
AcDbEntity
  8
文字
 62
     0
370
    -2
100
AcDbLine
 10
58.98358128912242
 20
217.316652474617
 30
0.0
 11
73.98358128912241
 21
217.316652474617
 31
0.0
  0
SOLID
  5
221E
330
2218
100
AcDbEntity
  8
文字
 62
     0
100
AcDbTrace
 10
58.98358128912242
 20
217.7333191412837
 30
0.0
 11
58.98358128912242
 21
216.8999858079504
 31
0.0
 12
56.48358128912242
 22
217.316652474617
 32
0.0
 13
56.48358128912242
 23
217.316652474617
 33
0.0
  0
SOLID
  5
221F
330
2218
100
AcDbEntity
  8
文字
 62
     0
100
AcDbTrace
 10
73.98358128912241
 20
216.8999858079504
 30
0.0
 11
73.98358128912241
 21
217.7333191412837
 31
0.0
 12
76.48358128912241
 22
217.316652474617
 32
0.0
 13
76.48358128912241
 23
217.316652474617
 33
0.0
  0
MTEXT
  5
2220
330
2218
100
AcDbEntity
  8
文字
 62
     0
100
AcDbMText
 10
66.48358128912241
 20
219.191652474617
 30
0.0
 40
2.5
 41
0.0
 46
0.0
 71
     5
 72
     1
  1
M20
 73
     1
 44
1.0
  0
POINT
  5
2221
330
2218
100
AcDbEntity
  8
Defpoints
 62
     0
100
AcDbPoint
 10
56.48358128912242
 20
201.8264009922762
 30
0.0
  0
POINT
  5
2222
330
2218
100
AcDbEntity
  8
Defpoints
 62
     0
100
AcDbPoint
 10
76.48358128912241
 20
201.8264009922762
 30
0.0
  0
POINT
  5
2223
330
2218
100
AcDbEntity
  8
Defpoints
 62
     0
100
AcDbPoint
 10
76.48358128912241
 20
217.316652474617
 30
0.0
  0
ENDBLK
  5
221A
330
2218
100
AcDbEntity
  8
0
100
AcDbBlockEnd
  0
BLOCK
  5
2254
330
2253
100
AcDbEntity
  8
0
 62
     1
100
AcDbBlockBegin
  2
*D26
 70
     1
 10
0.0
 20
0.0
 30
0.0
  3
*D26
  1
*D27
  0
LINE
  5
2255
330
2253
100
AcDbEntity
  8
文字
 62
     0
370
    -2
100
AcDbLine
 10
36.3763631607072
 20
54.03714754716593
 30
0.0
 11
36.3763631607072
 21
10.59066723248316
 31
0.0
  0
LINE
  5
2256
330
2253
100
AcDbEntity
  8
文字
 62
     0
370
    -2
100
AcDbLine
 10
60.3652668455361
 20
54.03714754716593
 30
0.0
 11
60.3652668455361
 21
10.59066723248316
 31
0.0
  0
LINE
  5
2257
330
2253
100
AcDbEntity
  8
文字
 62
     0
370
    -2
100
AcDbLine
 10
38.8763631607072
 20
11.84066723248316
 30
0.0
 11
57.8652668455361
 21
11.84066723248316
 31
0.0
  0
SOLID
  5
2258
330
2253
100
AcDbEntity
  8
文字
 62
     0
100
AcDbTrace
 10
38.8763631607072
 20
12.25733389914982
 30
0.0
 11
38.8763631607072
 21
11.42400056581649
 31
0.0
 12
36.3763631607072
 22
11.84066723248316
 32
0.0
 13
36.3763631607072
 23
11.84066723248316
 33
0.0
  0
SOLID
  5
2259
330
2253
100
AcDbEntity
  8
文字
 62
     0
100
AcDbTrace
 10
57.8652668455361
 20
11.42400056581649
 30
0.0
 11
57.8652668455361
 21
12.25733389914982
 31
0.0
 12
60.3652668455361
 22
11.84066723248316
 32
0.0
 13
60.3652668455361
 23
11.84066723248316
 33
0.0
  0
MTEXT
  5
225A
330
2253
100
AcDbEntity
  8
文字
 62
     0
100
AcDbMText
 10
48.37081500312165
 20
13.71566723248316
 30
0.0
 40
2.5
 41
0.0
 46
0.0
 71
     5
 72
     1
  1
24
 73
     1
 44
1.0
  0
POINT
  5
225B
330
2253
100
AcDbEntity
  8
Defpoints
 62
     0
100
AcDbPoint
 10
36.3763631607072
 20
54.66214754716593
 30
0.0
  0
POINT
  5
225C
330
2253
100
AcDbEntity
  8
Defpoints
 62
     0
100
AcDbPoint
 10
60.3652668455361
 20
54.66214754716593
 30
0.0
  0
POINT
  5
225D
330
2253
100
AcDbEntity
  8
Defpoints
 62
     0
100
AcDbPoint
 10
60.3652668455361
 20
11.84066723248316
 30
0.0
  0
ENDBLK
  5
225E
330
2253
100
AcDbEntity
  8
0
 62
     1
100
AcDbBlockEnd
  0
BLOCK
  5
2263
330
2262
100
AcDbEntity
  8
0
 62
     1
100
AcDbBlockBegin
  2
*D27
 70
     1
 10
0.0
 20
0.0
 30
0.0
  3
*D27
  1
*D29
  0
LINE
  5
2264
330
2262
100
AcDbEntity
  8
文字
 62
     0
370
    -2
100
AcDbLine
 10
22.37081500312161
 20
60.96214754716583
 30
0.0
 11
22.37081500312161
 21
0.0
 31
0.0
  0
LINE
  5
2265
330
2262
100
AcDbEntity
  8
文字
 62
     0
370
    -2
100
AcDbLine
 10
74.3708150031216
 20
60.96214754716583
 30
0.0
 11
74.3708150031216
 21
0.0
 31
0.0
  0
LINE
  5
2266
330
2262
100
AcDbEntity
  8
文字
 62
     0
370
    -2
100
AcDbLine
 10
24.87081500312161
 20
1.25
 30
0.0
 11
71.8708150031216
 21
1.25
 31
0.0
  0
SOLID
  5
2267
330
2262
100
AcDbEntity
  8
文字
 62
     0
100
AcDbTrace
 10
24.87081500312161
 20
1.666666666666667
 30
0.0
 11
24.87081500312161
 21
0.8333333333333333
 31
0.0
 12
22.37081500312161
 22
1.25
 32
0.0
 13
22.37081500312161
 23
1.25
 33
0.0
  0
SOLID
  5
2268
330
2262
100
AcDbEntity
  8
文字
 62
     0
100
AcDbTrace
 10
71.8708150031216
 20
0.8333333333333333
 30
0.0
 11
71.8708150031216
 21
1.666666666666667
 31
0.0
 12
74.3708150031216
 22
1.25
 32
0.0
 13
74.3708150031216
 23
1.25
 33
0.0
  0
MTEXT
  5
2269
330
2262
100
AcDbEntity
  8
文字
 62
     0
100
AcDbMText
 10
48.44507934527701
 20
3.125
 30
0.0
 40
2.5
 41
0.0
 46
0.0
 71
     5
 72
     1
  1
%%c52
 73
     1
 44
1.0
  0
POINT
  5
226A
330
2262
100
AcDbEntity
  8
Defpoints
 62
     0
100
AcDbPoint
 10
22.37081500312161
 20
61.58714754716583
 30
0.0
  0
POINT
  5
226B
330
2262
100
AcDbEntity
  8
Defpoints
 62
     0
100
AcDbPoint
 10
74.3708150031216
 20
61.58714754716583
 30
0.0
  0
POINT
  5
226C
330
2262
100
AcDbEntity
  8
Defpoints
 62
     0
100
AcDbPoint
 10
74.3708150031216
 20
1.25
 30
0.0
  0
ENDBLK
  5
226D
330
2262
100
AcDbEntity
  8
0
 62
     1
100
AcDbBlockEnd
  0
BLOCK
  5
2296
330
2295
100
AcDbEntity
  8
0
100
AcDbBlockBegin
  2
*D28
 70
     1
 10
0.0
 20
0.0
 30
0.0
  3
*D28
  1
*D29
  0
LINE
  5
2298
330
2295
100
AcDbEntity
  8
文字
 62
     0
370
    -2
100
AcDbLine
 10
165.1009533826196
 20
103.963410940183
 30
0.0
 11
165.1009533826196
 21
60.51693062550025
 31
0.0
  0
LINE
  5
2299
330
2295
100
AcDbEntity
  8
文字
 62
     0
370
    -2
100
AcDbLine
 10
189.0898570674485
 20
103.963410940183
 30
0.0
 11
189.0898570674485
 21
60.51693062550025
 31
0.0
  0
LINE
  5
229A
330
2295
100
AcDbEntity
  8
文字
 62
     0
370
    -2
100
AcDbLine
 10
167.6009533826196
 20
61.76693062550025
 30
0.0
 11
186.5898570674485
 21
61.76693062550025
 31
0.0
  0
SOLID
  5
229B
330
2295
100
AcDbEntity
  8
文字
 62
     0
100
AcDbTrace
 10
167.6009533826196
 20
62.18359729216692
 30
0.0
 11
167.6009533826196
 21
61.35026395883359
 31
0.0
 12
165.1009533826196
 22
61.76693062550025
 32
0.0
 13
165.1009533826196
 23
61.76693062550025
 33
0.0
  0
SOLID
  5
229C
330
2295
100
AcDbEntity
  8
文字
 62
     0
100
AcDbTrace
 10
186.5898570674485
 20
61.35026395883359
 30
0.0
 11
186.5898570674485
 21
62.18359729216692
 31
0.0
 12
189.0898570674485
 22
61.76693062550025
 32
0.0
 13
189.0898570674485
 23
61.76693062550025
 33
0.0
  0
MTEXT
  5
229D
330
2295
100
AcDbEntity
  8
文字
 62
     0
100
AcDbMText
 10
177.095405225034
 20
63.64193062550025
 30
0.0
 40
2.5
 41
0.0
 46
0.0
 71
     5
 72
     1
  1
24
 73
     1
 44
1.0
  0
POINT
  5
229E
330
2295
100
AcDbEntity
  8
Defpoints
 62
     0
100
AcDbPoint
 10
165.1009533826196
 20
104.588410940183
 30
0.0
  0
POINT
  5
229F
330
2295
100
AcDbEntity
  8
Defpoints
 62
     0
100
AcDbPoint
 10
189.0898570674485
 20
104.588410940183
 30
0.0
  0
POINT
  5
22A0
330
2295
100
AcDbEntity
  8
Defpoints
 62
     0
100
AcDbPoint
 10
189.0898570674485
 20
61.76693062550025
 30
0.0
  0
ENDBLK
  5
2297
330
2295
100
AcDbEntity
  8
0
100
AcDbBlockEnd
  0
BLOCK
  5
22A2
330
22A1
100
AcDbEntity
  8
0
100
AcDbBlockBegin
  2
*D29
 70
     1
 10
0.0
 20
0.0
 30
0.0
  3
*D29
  1
*D30
  0
LINE
  5
22A4
330
22A1
100
AcDbEntity
  8
文字
 62
     0
370
    -2
100
AcDbLine
 10
151.095405225034
 20
110.8884109401829
 30
0.0
 11
151.095405225034
 21
49.92626339301709
 31
0.0
  0
LINE
  5
22A5
330
22A1
100
AcDbEntity
  8
文字
 62
     0
370
    -2
100
AcDbLine
 10
203.095405225034
 20
110.8884109401829
 30
0.0
 11
203.095405225034
 21
49.92626339301709
 31
0.0
  0
LINE
  5
22A6
330
22A1
100
AcDbEntity
  8
文字
 62
     0
370
    -2
100
AcDbLine
 10
153.595405225034
 20
51.17626339301709
 30
0.0
 11
200.595405225034
 21
51.17626339301709
 31
0.0
  0
SOLID
  5
22A7
330
22A1
100
AcDbEntity
  8
文字
 62
     0
100
AcDbTrace
 10
153.595405225034
 20
51.59293005968376
 30
0.0
 11
153.595405225034
 21
50.75959672635043
 31
0.0
 12
151.095405225034
 22
51.17626339301709
 32
0.0
 13
151.095405225034
 23
51.17626339301709
 33
0.0
  0
SOLID
  5
22A8
330
22A1
100
AcDbEntity
  8
文字
 62
     0
100
AcDbTrace
 10
200.595405225034
 20
50.75959672635043
 30
0.0
 11
200.595405225034
 21
51.59293005968376
 31
0.0
 12
203.095405225034
 22
51.17626339301709
 32
0.0
 13
203.095405225034
 23
51.17626339301709
 33
0.0
  0
MTEXT
  5
22A9
330
22A1
100
AcDbEntity
  8
文字
 62
     0
100
AcDbMText
 10
177.1696695671894
 20
53.05126339301709
 30
0.0
 40
2.5
 41
0.0
 46
0.0
 71
     5
 72
     1
  1
%%c52
 73
     1
 44
1.0
  0
POINT
  5
22AA
330
22A1
100
AcDbEntity
  8
Defpoints
 62
     0
100
AcDbPoint
 10
151.095405225034
 20
111.5134109401829
 30
0.0
  0
POINT
  5
22AB
330
22A1
100
AcDbEntity
  8
Defpoints
 62
     0
100
AcDbPoint
 10
203.095405225034
 20
111.5134109401829
 30
0.0
  0
POINT
  5
22AC
330
22A1
100
AcDbEntity
  8
Defpoints
 62
     0
100
AcDbPoint
 10
203.095405225034
 20
51.17626339301709
 30
0.0
  0
ENDBLK
  5
22A3
330
22A1
100
AcDbEntity
  8
0
100
AcDbBlockEnd
  0
BLOCK
  5
22D7
330
22D6
100
AcDbEntity
  8
0
 62
     1
100
AcDbBlockBegin
  2
*D30
 70
     1
 10
0.0
 20
0.0
 30
0.0
  3
*D30
  1
*D24
  0
LINE
  5
22D8
330
22D6
100
AcDbEntity
  8
文字
 62
     0
370
    -2
100
AcDbLine
 10
73.61755642434291
 20
41.74524453773132
 30
0.0
 11
114.8787060235651
 21
41.74524453773131
 31
0.0
  0
LINE
  5
22D9
330
22D6
100
AcDbEntity
  8
文字
 62
     0
370
    -2
100
AcDbLine
 10
101.6707023398686
 20
18.74448046105953
 30
0.0
 11
114.8787060235651
 21
18.74448046105953
 31
0.0
  0
LINE
  5
22DA
330
22D6
100
AcDbEntity
  8
文字
 62
     0
370
    -2
100
AcDbLine
 10
113.6287060235651
 20
39.24524453773131
 30
0.0
 11
113.6287060235651
 21
21.24448046105953
 31
0.0
  0
SOLID
  5
22DB
330
22D6
100
AcDbEntity
  8
文字
 62
     0
100
AcDbTrace
 10
114.0453726902318
 20
39.24524453773131
 30
0.0
 11
113.2120393568984
 21
39.24524453773131
 31
0.0
 12
113.6287060235651
 22
41.74524453773131
 32
0.0
 13
113.6287060235651
 23
41.74524453773131
 33
0.0
  0
SOLID
  5
22DC
330
22D6
100
AcDbEntity
  8
文字
 62
     0
100
AcDbTrace
 10
113.2120393568984
 20
21.24448046105953
 30
0.0
 11
114.0453726902318
 21
21.24448046105953
 31
0.0
 12
113.6287060235651
 22
18.74448046105953
 32
0.0
 13
113.6287060235651
 23
18.74448046105953
 33
0.0
  0
MTEXT
  5
22DD
330
22D6
100
AcDbEntity
  8
文字
 62
     0
100
AcDbMText
 10
111.7537060235651
 20
30.24486249939542
 30
0.0
 40
2.5
 41
0.0
 46
0.0
 71
     5
 72
     1
  1
23
 11
0.0
 21
1.0
 31
0.0
 73
     1
 44
1.0
  0
POINT
  5
22DE
330
22D6
100
AcDbEntity
  8
Defpoints
 62
     0
100
AcDbPoint
 10
72.99255642434291
 20
41.74524453773132
 30
0.0
  0
POINT
  5
22DF
330
22D6
100
AcDbEntity
  8
Defpoints
 62
     0
100
AcDbPoint
 10
101.0457023398686
 20
18.74448046105953
 30
0.0
  0
POINT
  5
22E0
330
22D6
100
AcDbEntity
  8
Defpoints
 62
     0
100
AcDbPoint
 10
113.6287060235651
 20
18.74448046105953
 30
0.0
  0
ENDBLK
  5
22E1
330
22D6
100
AcDbEntity
  8
0
 62
     1
100
AcDbBlockEnd
  0
BLOCK
  5
22F4
330
22F3
100
AcDbEntity
  8
0
100
AcDbBlockBegin
  2
*D31
 70
     1
 10
0.0
 20
0.0
 30
0.0
  3
*D31
  1
*D27
  0
LINE
  5
22F5
330
22F3
100
AcDbEntity
  8
0
 62
     0
370
    -2
100
AcDbLine
 10
21.88002822519181
 20
26.98478353323317
 30
0.0
 11
4.910000000000005
 21
26.98478353323317
 31
0.0
  0
LINE
  5
22F6
330
22F3
100
AcDbEntity
  8
0
 62
     0
370
    -2
100
AcDbLine
 10
21.84891066521924
 20
18.78526780176052
 30
0.0
 11
4.910000000000004
 21
18.78526780176052
 31
0.0
  0
LINE
  5
22F7
330
22F3
100
AcDbEntity
  8
0
 62
     0
370
    -2
100
AcDbLine
 10
5.090000000000004
 20
24.98478353323317
 30
0.0
 11
5.090000000000003
 21
20.78526780176052
 31
0.0
  0
SOLID
  5
22F8
330
22F3
100
AcDbEntity
  8
0
 62
     0
100
AcDbTrace
 10
5.423333333333337
 20
24.98478353323317
 30
0.0
 11
4.756666666666671
 21
24.98478353323317
 31
0.0
 12
5.090000000000004
 22
26.98478353323317
 32
0.0
 13
5.090000000000004
 23
26.98478353323317
 33
0.0
  0
SOLID
  5
22F9
330
22F3
100
AcDbEntity
  8
0
 62
     0
100
AcDbTrace
 10
4.75666666666667
 20
20.78526780176052
 30
0.0
 11
5.423333333333336
 21
20.78526780176052
 31
0.0
 12
5.090000000000003
 22
18.78526780176052
 32
0.0
 13
5.090000000000003
 23
18.78526780176052
 33
0.0
  0
MTEXT
  5
22FA
330
22F3
100
AcDbEntity
  8
0
 62
     0
100
AcDbMText
 10
2.500000000000004
 20
22.88502566749684
 30
0.0
 40
2.5
 41
0.0
 46
0.0
 71
     5
 72
     1
  1
\A1;8.2
 73
     1
 44
1.0
  0
POINT
  5
22FB
330
22F3
100
AcDbEntity
  8
Defpoints
 62
     0
100
AcDbPoint
 10
21.94252822519181
 20
26.98478353323317
 30
0.0
  0
POINT
  5
22FC
330
22F3
100
AcDbEntity
  8
Defpoints
 62
     0
100
AcDbPoint
 10
21.91141066521924
 20
18.78526780176052
 30
0.0
  0
POINT
  5
22FD
330
22F3
100
AcDbEntity
  8
Defpoints
 62
     0
100
AcDbPoint
 10
5.090000000000003
 20
18.78526780176052
 30
0.0
  0
ENDBLK
  5
22FE
330
22F3
100
AcDbEntity
  8
0
100
AcDbBlockEnd
  0
BLOCK
  5
2302
330
2301
100
AcDbEntity
  8
0
100
AcDbBlockBegin
  2
*D32
 70
     1
 10
0.0
 20
0.0
 30
0.0
  3
*D32
  1
*D30
  0
LINE
  5
2303
330
2301
100
AcDbEntity
  8
0
 62
     0
370
    -2
100
AcDbLine
 10
21.97178457818623
 20
18.81942842919189
 30
0.0
 11
21.97178457818623
 21
0.25
 31
0.0
  0
LINE
  5
2304
330
2301
100
AcDbEntity
  8
0
 62
     0
370
    -2
100
AcDbLine
 10
104.9717845781861
 20
18.81942842919189
 30
0.0
 11
104.9717845781861
 21
0.25
 31
0.0
  0
LINE
  5
2305
330
2301
100
AcDbEntity
  8
0
 62
     0
370
    -2
100
AcDbLine
 10
23.97178457818623
 20
1.25
 30
0.0
 11
58.8260670383024
 21
1.25
 31
0.0
  0
LINE
  5
2306
330
2301
100
AcDbEntity
  8
0
 62
     0
370
    -2
100
AcDbLine
 10
102.9717845781861
 20
1.25
 30
0.0
 11
68.58940037163575
 21
1.25
 31
0.0
  0
SOLID
  5
2307
330
2301
100
AcDbEntity
  8
0
 62
     0
100
AcDbTrace
 10
23.97178457818623
 20
1.583333333333333
 30
0.0
 11
23.97178457818623
 21
0.9166666666666667
 31
0.0
 12
21.97178457818623
 22
1.25
 32
0.0
 13
21.97178457818623
 23
1.25
 33
0.0
  0
SOLID
  5
2308
330
2301
100
AcDbEntity
  8
0
 62
     0
100
AcDbTrace
 10
102.9717845781861
 20
0.9166666666666667
 30
0.0
 11
102.9717845781861
 21
1.583333333333333
 31
0.0
 12
104.9717845781861
 22
1.25
 32
0.0
 13
104.9717845781861
 23
1.25
 33
0.0
  0
MTEXT
  5
2309
330
2301
100
AcDbEntity
  8
0
 62
     0
100
AcDbMText
 10
63.70773370496907
 20
1.25
 30
0.0
 40
2.5
 41
0.0
 46
0.0
 71
     5
 72
     1
  1
\A1;%%c83.0
 73
     1
 44
1.0
  0
POINT
  5
230A
330
2301
100
AcDbEntity
  8
Defpoints
 62
     0
100
AcDbPoint
 10
21.97178457818623
 20
19.81942842919189
 30
0.0
  0
POINT
  5
230B
330
2301
100
AcDbEntity
  8
Defpoints
 62
     0
100
AcDbPoint
 10
104.9717845781861
 20
19.81942842919189
 30
0.0
  0
POINT
  5
230C
330
2301
100
AcDbEntity
  8
Defpoints
 62
     0
100
AcDbPoint
 10
104.9717845781861
 20
1.25
 30
0.0
  0
ENDBLK
  5
230D
330
2301
100
AcDbEntity
  8
0
100
AcDbBlockEnd
  0
BLOCK
  5
2334
330
2333
100
AcDbEntity
  8
0
100
AcDbBlockBegin
  2
*D33
 70
     1
 10
0.0
 20
0.0
 30
0.0
  3
*D33
  1
*D35
  0
LINE
  5
2336
330
2333
100
AcDbEntity
  8
文字
 62
     0
370
    -2
100
AcDbLine
 10
76.44261211039395
 20
90.7909119873535
 30
0.0
 11
117.7037617096161
 21
90.7909119873535
 31
0.0
  0
LINE
  5
2337
330
2333
100
AcDbEntity
  8
文字
 62
     0
370
    -2
100
AcDbLine
 10
104.4957580259197
 20
67.79014791068172
 30
0.0
 11
117.7037617096161
 21
67.79014791068172
 31
0.0
  0
LINE
  5
2338
330
2333
100
AcDbEntity
  8
文字
 62
     0
370
    -2
100
AcDbLine
 10
116.4537617096161
 20
88.2909119873535
 30
0.0
 11
116.4537617096161
 21
70.29014791068172
 31
0.0
  0
SOLID
  5
2339
330
2333
100
AcDbEntity
  8
文字
 62
     0
100
AcDbTrace
 10
116.8704283762828
 20
88.2909119873535
 30
0.0
 11
116.0370950429495
 21
88.2909119873535
 31
0.0
 12
116.4537617096161
 22
90.7909119873535
 32
0.0
 13
116.4537617096161
 23
90.7909119873535
 33
0.0
  0
SOLID
  5
233A
330
2333
100
AcDbEntity
  8
文字
 62
     0
100
AcDbTrace
 10
116.0370950429495
 20
70.29014791068172
 30
0.0
 11
116.8704283762828
 21
70.29014791068172
 31
0.0
 12
116.4537617096161
 22
67.79014791068172
 32
0.0
 13
116.4537617096161
 23
67.79014791068172
 33
0.0
  0
MTEXT
  5
233B
330
2333
100
AcDbEntity
  8
文字
 62
     0
100
AcDbMText
 10
114.5787617096161
 20
79.29052994901761
 30
0.0
 40
2.5
 41
0.0
 46
0.0
 71
     5
 72
     1
  1
23
 11
0.0
 21
1.0
 31
0.0
 73
     1
 44
1.0
  0
POINT
  5
233C
330
2333
100
AcDbEntity
  8
Defpoints
 62
     0
100
AcDbPoint
 10
75.81761211039395
 20
90.7909119873535
 30
0.0
  0
POINT
  5
233D
330
2333
100
AcDbEntity
  8
Defpoints
 62
     0
100
AcDbPoint
 10
103.8707580259197
 20
67.79014791068172
 30
0.0
  0
POINT
  5
233E
330
2333
100
AcDbEntity
  8
Defpoints
 62
     0
100
AcDbPoint
 10
116.4537617096161
 20
67.79014791068172
 30
0.0
  0
ENDBLK
  5
2335
330
2333
100
AcDbEntity
  8
0
100
AcDbBlockEnd
  0
BLOCK
  5
2340
330
233F
100
AcDbEntity
  8
0
100
AcDbBlockBegin
  2
*D34
 70
     1
 10
0.0
 20
0.0
 30
0.0
  3
*D34
  1
*D36
  0
LINE
  5
2342
330
233F
100
AcDbEntity
  8
0
 62
     0
370
    -2
100
AcDbLine
 10
24.70508391124285
 20
76.03045098285536
 30
0.0
 11
7.735055686051049
 21
76.03045098285536
 31
0.0
  0
LINE
  5
2343
330
233F
100
AcDbEntity
  8
0
 62
     0
370
    -2
100
AcDbLine
 10
24.67396635127029
 20
67.8309352513827
 30
0.0
 11
7.735055686051048
 21
67.8309352513827
 31
0.0
  0
LINE
  5
2344
330
233F
100
AcDbEntity
  8
0
 62
     0
370
    -2
100
AcDbLine
 10
7.915055686051049
 20
74.03045098285536
 30
0.0
 11
7.915055686051048
 21
69.8309352513827
 31
0.0
  0
SOLID
  5
2345
330
233F
100
AcDbEntity
  8
0
 62
     0
100
AcDbTrace
 10
8.248389019384382
 20
74.03045098285536
 30
0.0
 11
7.581722352717716
 21
74.03045098285536
 31
0.0
 12
7.915055686051049
 22
76.03045098285536
 32
0.0
 13
7.915055686051049
 23
76.03045098285536
 33
0.0
  0
SOLID
  5
2346
330
233F
100
AcDbEntity
  8
0
 62
     0
100
AcDbTrace
 10
7.581722352717715
 20
69.8309352513827
 30
0.0
 11
8.248389019384382
 21
69.8309352513827
 31
0.0
 12
7.915055686051048
 22
67.8309352513827
 32
0.0
 13
7.915055686051048
 23
67.8309352513827
 33
0.0
  0
MTEXT
  5
2347
330
233F
100
AcDbEntity
  8
0
 62
     0
100
AcDbMText
 10
5.325055686051048
 20
71.93069311711903
 30
0.0
 40
2.5
 41
0.0
 46
0.0
 71
     5
 72
     1
  1
\A1;8.2
 73
     1
 44
1.0
  0
POINT
  5
2348
330
233F
100
AcDbEntity
  8
Defpoints
 62
     0
100
AcDbPoint
 10
24.76758391124285
 20
76.03045098285536
 30
0.0
  0
POINT
  5
2349
330
233F
100
AcDbEntity
  8
Defpoints
 62
     0
100
AcDbPoint
 10
24.73646635127029
 20
67.8309352513827
 30
0.0
  0
POINT
  5
234A
330
233F
100
AcDbEntity
  8
Defpoints
 62
     0
100
AcDbPoint
 10
7.915055686051048
 20
67.8309352513827
 30
0.0
  0
ENDBLK
  5
2341
330
233F
100
AcDbEntity
  8
0
100
AcDbBlockEnd
  0
BLOCK
  5
234C
330
234B
100
AcDbEntity
  8
0
100
AcDbBlockBegin
  2
*D35
 70
     1
 10
0.0
 20
0.0
 30
0.0
  3
*D35
  1
*D37
  0
LINE
  5
234E
330
234B
100
AcDbEntity
  8
0
 62
     0
370
    -2
100
AcDbLine
 10
24.79684026423728
 20
67.86509587881409
 30
0.0
 11
24.79684026423728
 21
49.29566744962219
 31
0.0
  0
LINE
  5
234F
330
234B
100
AcDbEntity
  8
0
 62
     0
370
    -2
100
AcDbLine
 10
107.7968402642371
 20
67.86509587881409
 30
0.0
 11
107.7968402642371
 21
49.29566744962219
 31
0.0
  0
LINE
  5
2350
330
234B
100
AcDbEntity
  8
0
 62
     0
370
    -2
100
AcDbLine
 10
26.79684026423728
 20
50.29566744962219
 30
0.0
 11
61.65112272435344
 21
50.29566744962219
 31
0.0
  0
LINE
  5
2351
330
234B
100
AcDbEntity
  8
0
 62
     0
370
    -2
100
AcDbLine
 10
105.7968402642371
 20
50.29566744962219
 30
0.0
 11
71.41445605768678
 21
50.29566744962219
 31
0.0
  0
SOLID
  5
2352
330
234B
100
AcDbEntity
  8
0
 62
     0
100
AcDbTrace
 10
26.79684026423728
 20
50.62900078295552
 30
0.0
 11
26.79684026423728
 21
49.96233411628885
 31
0.0
 12
24.79684026423728
 22
50.29566744962219
 32
0.0
 13
24.79684026423728
 23
50.29566744962219
 33
0.0
  0
SOLID
  5
2353
330
234B
100
AcDbEntity
  8
0
 62
     0
100
AcDbTrace
 10
105.7968402642371
 20
49.96233411628885
 30
0.0
 11
105.7968402642371
 21
50.62900078295552
 31
0.0
 12
107.7968402642371
 22
50.29566744962219
 32
0.0
 13
107.7968402642371
 23
50.29566744962219
 33
0.0
  0
MTEXT
  5
2354
330
234B
100
AcDbEntity
  8
0
 62
     0
100
AcDbMText
 10
66.53278939102012
 20
50.29566744962219
 30
0.0
 40
2.5
 41
0.0
 46
0.0
 71
     5
 72
     1
  1
\A1;%%c83.0
 73
     1
 44
1.0
  0
POINT
  5
2355
330
234B
100
AcDbEntity
  8
Defpoints
 62
     0
100
AcDbPoint
 10
24.79684026423728
 20
68.86509587881409
 30
0.0
  0
POINT
  5
2356
330
234B
100
AcDbEntity
  8
Defpoints
 62
     0
100
AcDbPoint
 10
107.7968402642371
 20
68.86509587881409
 30
0.0
  0
POINT
  5
2357
330
234B
100
AcDbEntity
  8
Defpoints
 62
     0
100
AcDbPoint
 10
107.7968402642371
 20
50.29566744962219
 30
0.0
  0
ENDBLK
  5
234D
330
234B
100
AcDbEntity
  8
0
100
AcDbBlockEnd
  0
BLOCK
  5
2385
330
2384
100
AcDbEntity
  8
0
100
AcDbBlockBegin
  2
*D36
 70
     1
 10
0.0
 20
0.0
 30
0.0
  3
*D36
  1
*D48
  0
LINE
  5
2386
330
2384
100
AcDbEntity
  8
文字
 62
     0
370
    -2
100
AcDbLine
 10
0.0
 20
39.98975339737908
 30
0.0
 11
0.0
 21
0.0
 31
0.0
  0
LINE
  5
2387
330
2384
100
AcDbEntity
  8
文字
 62
     0
370
    -2
100
AcDbLine
 10
29.9644789709416
 20
39.98975339737908
 30
0.0
 11
29.9644789709416
 21
0.0
 31
0.0
  0
LINE
  5
2388
330
2384
100
AcDbEntity
  8
文字
 62
     0
370
    -2
100
AcDbLine
 10
2.5
 20
1.25
 30
0.0
 11
27.4644789709416
 21
1.25
 31
0.0
  0
SOLID
  5
2389
330
2384
100
AcDbEntity
  8
文字
 62
     0
100
AcDbTrace
 10
2.5
 20
1.666666666666667
 30
0.0
 11
2.5
 21
0.8333333333333333
 31
0.0
 12
0.0
 22
1.25
 32
0.0
 13
0.0
 23
1.25
 33
0.0
  0
SOLID
  5
238A
330
2384
100
AcDbEntity
  8
文字
 62
     0
100
AcDbTrace
 10
27.4644789709416
 20
0.8333333333333333
 30
0.0
 11
27.4644789709416
 21
1.666666666666667
 31
0.0
 12
29.9644789709416
 22
1.25
 32
0.0
 13
29.9644789709416
 23
1.25
 33
0.0
  0
MTEXT
  5
238B
330
2384
100
AcDbEntity
  8
文字
 62
     0
100
AcDbMText
 10
14.9822394854708
 20
3.125
 30
0.0
 40
2.5
 41
0.0
 46
0.0
 71
     5
 72
     1
  1
30
 73
     1
 44
1.0
  0
POINT
  5
238C
330
2384
100
AcDbEntity
  8
Defpoints
 62
     0
100
AcDbPoint
 10
0.0
 20
40.61475339737908
 30
0.0
  0
POINT
  5
238D
330
2384
100
AcDbEntity
  8
Defpoints
 62
     0
100
AcDbPoint
 10
29.9644789709416
 20
40.61475339737908
 30
0.0
  0
POINT
  5
238E
330
2384
100
AcDbEntity
  8
Defpoints
 62
     0
100
AcDbPoint
 10
29.9644789709416
 20
1.25
 30
0.0
  0
ENDBLK
  5
238F
330
2384
100
AcDbEntity
  8
0
100
AcDbBlockEnd
  0
BLOCK
  5
239A
330
2399
100
AcDbEntity
  8
0
100
AcDbBlockBegin
  2
*D37
 70
     1
 10
0.0
 20
0.0
 30
0.0
  3
*D37
  1
*D38
  0
LINE
  5
239C
330
2399
100
AcDbEntity
  8
文字
 62
     0
370
    -2
100
AcDbLine
 10
162.1164608214531
 20
102.1148783832981
 30
0.0
 11
162.1164608214531
 21
59.28235436903472
 31
0.0
  0
LINE
  5
239D
330
2399
100
AcDbEntity
  8
文字
 62
     0
370
    -2
100
AcDbLine
 10
192.0809397923947
 20
102.1148783832981
 30
0.0
 11
192.0809397923947
 21
59.28235436903472
 31
0.0
  0
LINE
  5
239E
330
2399
100
AcDbEntity
  8
文字
 62
     0
370
    -2
100
AcDbLine
 10
164.6164608214531
 20
60.53235436903472
 30
0.0
 11
189.5809397923947
 21
60.53235436903472
 31
0.0
  0
SOLID
  5
239F
330
2399
100
AcDbEntity
  8
文字
 62
     0
100
AcDbTrace
 10
164.6164608214531
 20
60.94902103570139
 30
0.0
 11
164.6164608214531
 21
60.11568770236806
 31
0.0
 12
162.1164608214531
 22
60.53235436903472
 32
0.0
 13
162.1164608214531
 23
60.53235436903472
 33
0.0
  0
SOLID
  5
23A0
330
2399
100
AcDbEntity
  8
文字
 62
     0
100
AcDbTrace
 10
189.5809397923947
 20
60.11568770236806
 30
0.0
 11
189.5809397923947
 21
60.94902103570139
 31
0.0
 12
192.0809397923947
 22
60.53235436903472
 32
0.0
 13
192.0809397923947
 23
60.53235436903472
 33
0.0
  0
MTEXT
  5
23A1
330
2399
100
AcDbEntity
  8
文字
 62
     0
100
AcDbMText
 10
175.814288126658
 20
62.40735436903472
 30
0.0
 40
2.5
 41
0.0
 46
0.0
 71
     5
 72
     1
  1
30
 73
     1
 44
1.0
  0
POINT
  5
23A2
330
2399
100
AcDbEntity
  8
Defpoints
 62
     0
100
AcDbPoint
 10
162.1164608214531
 20
102.7398783832981
 30
0.0
  0
POINT
  5
23A3
330
2399
100
AcDbEntity
  8
Defpoints
 62
     0
100
AcDbPoint
 10
192.0809397923947
 20
102.7398783832981
 30
0.0
  0
POINT
  5
23A4
330
2399
100
AcDbEntity
  8
Defpoints
 62
     0
100
AcDbPoint
 10
192.0809397923947
 20
60.53235436903472
 30
0.0
  0
ENDBLK
  5
239B
330
2399
100
AcDbEntity
  8
0
100
AcDbBlockEnd
  0
BLOCK
  5
23D2
330
23D1
100
AcDbEntity
  8
0
 62
     1
100
AcDbBlockBegin
  2
*D38
 70
     1
 10
0.0
 20
0.0
 30
0.0
  3
*D38
  1
*D24
  0
LINE
  5
23D3
330
23D1
100
AcDbEntity
  8
文字
 62
     0
370
    -2
100
AcDbLine
 10
73.61755642434291
 20
41.49524453773132
 30
0.0
 11
114.8787060235651
 21
41.49524453773131
 31
0.0
  0
LINE
  5
23D4
330
23D1
100
AcDbEntity
  8
文字
 62
     0
370
    -2
100
AcDbLine
 10
105.8081347302512
 20
18.49448046105953
 30
0.0
 11
114.8787060235651
 21
18.49448046105953
 31
0.0
  0
LINE
  5
23D5
330
23D1
100
AcDbEntity
  8
文字
 62
     0
370
    -2
100
AcDbLine
 10
113.6287060235651
 20
38.99524453773131
 30
0.0
 11
113.6287060235651
 21
20.99448046105953
 31
0.0
  0
SOLID
  5
23D6
330
23D1
100
AcDbEntity
  8
文字
 62
     0
100
AcDbTrace
 10
114.0453726902318
 20
38.99524453773131
 30
0.0
 11
113.2120393568984
 21
38.99524453773131
 31
0.0
 12
113.6287060235651
 22
41.49524453773131
 32
0.0
 13
113.6287060235651
 23
41.49524453773131
 33
0.0
  0
SOLID
  5
23D7
330
23D1
100
AcDbEntity
  8
文字
 62
     0
100
AcDbTrace
 10
113.2120393568984
 20
20.99448046105953
 30
0.0
 11
114.0453726902318
 21
20.99448046105953
 31
0.0
 12
113.6287060235651
 22
18.49448046105953
 32
0.0
 13
113.6287060235651
 23
18.49448046105953
 33
0.0
  0
MTEXT
  5
23D8
330
23D1
100
AcDbEntity
  8
文字
 62
     0
100
AcDbMText
 10
111.7537060235651
 20
29.99486249939542
 30
0.0
 40
2.5
 41
0.0
 46
0.0
 71
     5
 72
     1
  1
23
 11
0.0
 21
1.0
 31
0.0
 73
     1
 44
1.0
  0
POINT
  5
23D9
330
23D1
100
AcDbEntity
  8
Defpoints
 62
     0
100
AcDbPoint
 10
72.99255642434291
 20
41.49524453773132
 30
0.0
  0
POINT
  5
23DA
330
23D1
100
AcDbEntity
  8
Defpoints
 62
     0
100
AcDbPoint
 10
105.1831347302512
 20
18.49448046105953
 30
0.0
  0
POINT
  5
23DB
330
23D1
100
AcDbEntity
  8
Defpoints
 62
     0
100
AcDbPoint
 10
113.6287060235651
 20
18.49448046105953
 30
0.0
  0
ENDBLK
  5
23DC
330
23D1
100
AcDbEntity
  8
0
 62
     1
100
AcDbBlockEnd
  0
BLOCK
  5
23EB
330
23EA
100
AcDbEntity
  8
0
100
AcDbBlockBegin
  2
*D39
 70
     1
 10
0.0
 20
0.0
 30
0.0
  3
*D39
  1
*D27
  0
LINE
  5
23EC
330
23EA
100
AcDbEntity
  8
0
 62
     0
370
    -2
100
AcDbLine
 10
21.82283670212111
 20
25.7364203079044
 30
0.0
 11
4.910000000000004
 21
25.7364203079044
 31
0.0
  0
LINE
  5
23ED
330
23EA
100
AcDbEntity
  8
0
 62
     0
370
    -2
100
AcDbLine
 10
21.84891066521924
 20
18.53526780176052
 30
0.0
 11
4.910000000000004
 21
18.53526780176052
 31
0.0
  0
LINE
  5
23EE
330
23EA
100
AcDbEntity
  8
0
 62
     0
370
    -2
100
AcDbLine
 10
5.090000000000003
 20
23.7364203079044
 30
0.0
 11
5.090000000000003
 21
20.53526780176052
 31
0.0
  0
SOLID
  5
23EF
330
23EA
100
AcDbEntity
  8
0
 62
     0
100
AcDbTrace
 10
5.423333333333336
 20
23.7364203079044
 30
0.0
 11
4.75666666666667
 21
23.7364203079044
 31
0.0
 12
5.090000000000003
 22
25.7364203079044
 32
0.0
 13
5.090000000000003
 23
25.7364203079044
 33
0.0
  0
SOLID
  5
23F0
330
23EA
100
AcDbEntity
  8
0
 62
     0
100
AcDbTrace
 10
4.75666666666667
 20
20.53526780176052
 30
0.0
 11
5.423333333333336
 21
20.53526780176052
 31
0.0
 12
5.090000000000003
 22
18.53526780176052
 32
0.0
 13
5.090000000000003
 23
18.53526780176052
 33
0.0
  0
MTEXT
  5
23F1
330
23EA
100
AcDbEntity
  8
0
 62
     0
100
AcDbMText
 10
2.500000000000004
 20
22.13584405483246
 30
0.0
 40
2.5
 41
0.0
 46
0.0
 71
     5
 72
     1
  1
\A1;7.2
 73
     1
 44
1.0
  0
POINT
  5
23F2
330
23EA
100
AcDbEntity
  8
Defpoints
 62
     0
100
AcDbPoint
 10
21.88533670212111
 20
25.7364203079044
 30
0.0
  0
POINT
  5
23F3
330
23EA
100
AcDbEntity
  8
Defpoints
 62
     0
100
AcDbPoint
 10
21.91141066521924
 20
18.53526780176052
 30
0.0
  0
POINT
  5
23F4
330
23EA
100
AcDbEntity
  8
Defpoints
 62
     0
100
AcDbPoint
 10
5.090000000000003
 20
18.53526780176052
 30
0.0
  0
ENDBLK
  5
23F5
330
23EA
100
AcDbEntity
  8
0
100
AcDbBlockEnd
  0
BLOCK
  5
23F9
330
23F8
100
AcDbEntity
  8
0
100
AcDbBlockBegin
  2
*D40
 70
     1
 10
0.0
 20
0.0
 30
0.0
  3
*D40
  1
*D30
  0
LINE
  5
23FA
330
23F8
100
AcDbEntity
  8
0
 62
     0
370
    -2
100
AcDbLine
 10
21.97178457818623
 20
18.56942842919189
 30
0.0
 11
21.97178457818623
 21
0.0
 31
0.0
  0
LINE
  5
23FB
330
23F8
100
AcDbEntity
  8
0
 62
     0
370
    -2
100
AcDbLine
 10
104.9717845781861
 20
18.56942842919189
 30
0.0
 11
104.9717845781861
 21
0.0
 31
0.0
  0
LINE
  5
23FC
330
23F8
100
AcDbEntity
  8
0
 62
     0
370
    -2
100
AcDbLine
 10
23.97178457818623
 20
1.0
 30
0.0
 11
102.9717845781861
 21
1.0
 31
0.0
  0
SOLID
  5
23FD
330
23F8
100
AcDbEntity
  8
0
 62
     0
100
AcDbTrace
 10
23.97178457818623
 20
1.333333333333333
 30
0.0
 11
23.97178457818623
 21
0.6666666666666667
 31
0.0
 12
21.97178457818623
 22
1.0
 32
0.0
 13
21.97178457818623
 23
1.0
 33
0.0
  0
SOLID
  5
23FE
330
23F8
100
AcDbEntity
  8
0
 62
     0
100
AcDbTrace
 10
102.9717845781861
 20
0.6666666666666667
 30
0.0
 11
102.9717845781861
 21
1.333333333333333
 31
0.0
 12
104.9717845781861
 22
1.0
 32
0.0
 13
104.9717845781861
 23
1.0
 33
0.0
  0
MTEXT
  5
23FF
330
23F8
100
AcDbEntity
  8
0
 62
     0
100
AcDbMText
 10
63.70773370496907
 20
2.340000000000001
 30
0.0
 40
2.5
 41
0.0
 46
0.0
 71
     5
 72
     1
  1
\A1;%%c83.0
 73
     1
 44
1.0
  0
POINT
  5
2400
330
23F8
100
AcDbEntity
  8
Defpoints
 62
     0
100
AcDbPoint
 10
21.97178457818623
 20
19.56942842919189
 30
0.0
  0
POINT
  5
2401
330
23F8
100
AcDbEntity
  8
Defpoints
 62
     0
100
AcDbPoint
 10
104.9717845781861
 20
19.56942842919189
 30
0.0
  0
POINT
  5
2402
330
23F8
100
AcDbEntity
  8
Defpoints
 62
     0
100
AcDbPoint
 10
104.9717845781861
 20
1.0
 30
0.0
  0
ENDBLK
  5
2403
330
23F8
100
AcDbEntity
  8
0
100
AcDbBlockEnd
  0
BLOCK
  5
242C
330
242B
100
AcDbEntity
  8
0
100
AcDbBlockBegin
  2
*D41
 70
     1
 10
0.0
 20
0.0
 30
0.0
  3
*D41
  1
*D42
  0
LINE
  5
242E
330
242B
100
AcDbEntity
  8
文字
 62
     0
370
    -2
100
AcDbLine
 10
76.57007477668921
 20
90.71159844165237
 30
0.0
 11
117.8312243759114
 21
90.71159844165237
 31
0.0
  0
LINE
  5
242F
330
242B
100
AcDbEntity
  8
文字
 62
     0
370
    -2
100
AcDbLine
 10
108.7606530825975
 20
67.71083436498057
 30
0.0
 11
117.8312243759114
 21
67.71083436498057
 31
0.0
  0
LINE
  5
2430
330
242B
100
AcDbEntity
  8
文字
 62
     0
370
    -2
100
AcDbLine
 10
116.5812243759114
 20
88.21159844165237
 30
0.0
 11
116.5812243759114
 21
70.21083436498057
 31
0.0
  0
SOLID
  5
2431
330
242B
100
AcDbEntity
  8
文字
 62
     0
100
AcDbTrace
 10
116.9978910425781
 20
88.21159844165237
 30
0.0
 11
116.1645577092447
 21
88.21159844165237
 31
0.0
 12
116.5812243759114
 22
90.71159844165237
 32
0.0
 13
116.5812243759114
 23
90.71159844165237
 33
0.0
  0
SOLID
  5
2432
330
242B
100
AcDbEntity
  8
文字
 62
     0
100
AcDbTrace
 10
116.1645577092447
 20
70.21083436498057
 30
0.0
 11
116.9978910425781
 21
70.21083436498057
 31
0.0
 12
116.5812243759114
 22
67.71083436498057
 32
0.0
 13
116.5812243759114
 23
67.71083436498057
 33
0.0
  0
MTEXT
  5
2433
330
242B
100
AcDbEntity
  8
文字
 62
     0
100
AcDbMText
 10
114.7062243759114
 20
79.21121640331647
 30
0.0
 40
2.5
 41
0.0
 46
0.0
 71
     5
 72
     1
  1
23
 11
0.0
 21
1.0
 31
0.0
 73
     1
 44
1.0
  0
POINT
  5
2434
330
242B
100
AcDbEntity
  8
Defpoints
 62
     0
100
AcDbPoint
 10
75.94507477668921
 20
90.71159844165237
 30
0.0
  0
POINT
  5
2435
330
242B
100
AcDbEntity
  8
Defpoints
 62
     0
100
AcDbPoint
 10
108.1356530825975
 20
67.71083436498057
 30
0.0
  0
POINT
  5
2436
330
242B
100
AcDbEntity
  8
Defpoints
 62
     0
100
AcDbPoint
 10
116.5812243759114
 20
67.71083436498057
 30
0.0
  0
ENDBLK
  5
242D
330
242B
100
AcDbEntity
  8
0
100
AcDbBlockEnd
  0
BLOCK
  5
2438
330
2437
100
AcDbEntity
  8
0
100
AcDbBlockBegin
  2
*D42
 70
     1
 10
0.0
 20
0.0
 30
0.0
  3
*D42
  1
*D43
  0
LINE
  5
243A
330
2437
100
AcDbEntity
  8
0
 62
     0
370
    -2
100
AcDbLine
 10
24.77535505446741
 20
74.95277421182544
 30
0.0
 11
7.862518352346306
 21
74.95277421182544
 31
0.0
  0
LINE
  5
243B
330
2437
100
AcDbEntity
  8
0
 62
     0
370
    -2
100
AcDbLine
 10
24.80142901756555
 20
67.75162170568157
 30
0.0
 11
7.862518352346306
 21
67.75162170568157
 31
0.0
  0
LINE
  5
243C
330
2437
100
AcDbEntity
  8
0
 62
     0
370
    -2
100
AcDbLine
 10
8.042518352346306
 20
72.95277421182544
 30
0.0
 11
8.042518352346306
 21
69.75162170568157
 31
0.0
  0
SOLID
  5
243D
330
2437
100
AcDbEntity
  8
0
 62
     0
100
AcDbTrace
 10
8.37585168567964
 20
72.95277421182544
 30
0.0
 11
7.709185019012973
 21
72.95277421182544
 31
0.0
 12
8.042518352346306
 22
74.95277421182544
 32
0.0
 13
8.042518352346306
 23
74.95277421182544
 33
0.0
  0
SOLID
  5
243E
330
2437
100
AcDbEntity
  8
0
 62
     0
100
AcDbTrace
 10
7.709185019012973
 20
69.75162170568157
 30
0.0
 11
8.37585168567964
 21
69.75162170568157
 31
0.0
 12
8.042518352346306
 22
67.75162170568157
 32
0.0
 13
8.042518352346306
 23
67.75162170568157
 33
0.0
  0
MTEXT
  5
243F
330
2437
100
AcDbEntity
  8
0
 62
     0
100
AcDbMText
 10
5.452518352346306
 20
71.35219795875351
 30
0.0
 40
2.5
 41
0.0
 46
0.0
 71
     5
 72
     1
  1
\A1;7.2
 73
     1
 44
1.0
  0
POINT
  5
2440
330
2437
100
AcDbEntity
  8
Defpoints
 62
     0
100
AcDbPoint
 10
24.83785505446741
 20
74.95277421182544
 30
0.0
  0
POINT
  5
2441
330
2437
100
AcDbEntity
  8
Defpoints
 62
     0
100
AcDbPoint
 10
24.86392901756555
 20
67.75162170568157
 30
0.0
  0
POINT
  5
2442
330
2437
100
AcDbEntity
  8
Defpoints
 62
     0
100
AcDbPoint
 10
8.042518352346306
 20
67.75162170568157
 30
0.0
  0
ENDBLK
  5
2439
330
2437
100
AcDbEntity
  8
0
100
AcDbBlockEnd
  0
BLOCK
  5
2444
330
2443
100
AcDbEntity
  8
0
100
AcDbBlockBegin
  2
*D43
 70
     1
 10
0.0
 20
0.0
 30
0.0
  3
*D43
  1
*D44
  0
LINE
  5
2446
330
2443
100
AcDbEntity
  8
0
 62
     0
370
    -2
100
AcDbLine
 10
24.92430293053253
 20
67.78578233311293
 30
0.0
 11
24.92430293053253
 21
49.21635390392105
 31
0.0
  0
LINE
  5
2447
330
2443
100
AcDbEntity
  8
0
 62
     0
370
    -2
100
AcDbLine
 10
107.9243029305324
 20
67.78578233311293
 30
0.0
 11
107.9243029305324
 21
49.21635390392105
 31
0.0
  0
LINE
  5
2448
330
2443
100
AcDbEntity
  8
0
 62
     0
370
    -2
100
AcDbLine
 10
26.92430293053253
 20
50.21635390392105
 30
0.0
 11
105.9243029305324
 21
50.21635390392105
 31
0.0
  0
SOLID
  5
2449
330
2443
100
AcDbEntity
  8
0
 62
     0
100
AcDbTrace
 10
26.92430293053253
 20
50.54968723725438
 30
0.0
 11
26.92430293053253
 21
49.88302057058771
 31
0.0
 12
24.92430293053253
 22
50.21635390392105
 32
0.0
 13
24.92430293053253
 23
50.21635390392105
 33
0.0
  0
SOLID
  5
244A
330
2443
100
AcDbEntity
  8
0
 62
     0
100
AcDbTrace
 10
105.9243029305324
 20
49.88302057058771
 30
0.0
 11
105.9243029305324
 21
50.54968723725438
 31
0.0
 12
107.9243029305324
 22
50.21635390392105
 32
0.0
 13
107.9243029305324
 23
50.21635390392105
 33
0.0
  0
MTEXT
  5
244B
330
2443
100
AcDbEntity
  8
0
 62
     0
100
AcDbMText
 10
66.66025205731538
 20
51.55635390392105
 30
0.0
 40
2.5
 41
0.0
 46
0.0
 71
     5
 72
     1
  1
\A1;%%c83.0
 73
     1
 44
1.0
  0
POINT
  5
244C
330
2443
100
AcDbEntity
  8
Defpoints
 62
     0
100
AcDbPoint
 10
24.92430293053253
 20
68.78578233311293
 30
0.0
  0
POINT
  5
244D
330
2443
100
AcDbEntity
  8
Defpoints
 62
     0
100
AcDbPoint
 10
107.9243029305324
 20
68.78578233311293
 30
0.0
  0
POINT
  5
244E
330
2443
100
AcDbEntity
  8
Defpoints
 62
     0
100
AcDbPoint
 10
107.9243029305324
 20
50.21635390392105
 30
0.0
  0
ENDBLK
  5
2445
330
2443
100
AcDbEntity
  8
0
100
AcDbBlockEnd
  0
BLOCK
  5
2477
330
2476
100
AcDbEntity
  8
0
100
AcDbBlockBegin
  2
*D45
 70
     1
 10
0.0
 20
0.0
 30
0.0
  3
*D45
  1
*D45
  0
LINE
  5
2478
330
2476
100
AcDbEntity
  8
文字
 62
     0
370
    -2
100
AcDbLine
 10
16.02145548014449
 20
7.202633936624665
 30
0.0
 11
1.875000000000008
 21
7.202633936624665
 31
0.0
  0
LINE
  5
2479
330
2476
100
AcDbEntity
  8
文字
 62
     0
370
    -2
100
AcDbLine
 10
16.21040521820284
 20
0.0
 30
0.0
 11
1.875000000000007
 21
0.000000000000001
 31
0.0
  0
LINE
  5
247A
330
2476
100
AcDbEntity
  8
文字
 62
     0
370
    -2
100
AcDbLine
 10
3.125000000000008
 20
4.702633936624665
 30
0.0
 11
3.125000000000007
 21
2.500000000000001
 31
0.0
  0
SOLID
  5
247B
330
2476
100
AcDbEntity
  8
文字
 62
     0
100
AcDbTrace
 10
3.541666666666674
 20
4.702633936624665
 30
0.0
 11
2.708333333333341
 21
4.702633936624665
 31
0.0
 12
3.125000000000008
 22
7.202633936624665
 32
0.0
 13
3.125000000000008
 23
7.202633936624665
 33
0.0
  0
SOLID
  5
247C
330
2476
100
AcDbEntity
  8
文字
 62
     0
100
AcDbTrace
 10
2.708333333333341
 20
2.500000000000001
 30
0.0
 11
3.541666666666674
 21
2.500000000000001
 31
0.0
 12
3.125000000000007
 22
0.0000000000000009
 32
0.0
 13
3.125000000000007
 23
0.0000000000000009
 33
0.0
  0
MTEXT
  5
247D
330
2476
100
AcDbEntity
  8
文字
 62
     0
100
AcDbMText
 10
1.250000000000007
 20
3.166666666666671
 30
0.0
 40
2.5
 41
0.0
 46
0.0
 71
     5
 72
     1
  1
7.2
 11
6.165650146287651E-17
 21
1.0
 31
0.0
 73
     1
 44
1.0
  0
POINT
  5
247E
330
2476
100
AcDbEntity
  8
Defpoints
 62
     0
100
AcDbPoint
 10
16.64645548014449
 20
7.202633936624665
 30
0.0
  0
POINT
  5
247F
330
2476
100
AcDbEntity
  8
Defpoints
 62
     0
100
AcDbPoint
 10
16.83540521820284
 20
0.0
 30
0.0
  0
POINT
  5
2480
330
2476
100
AcDbEntity
  8
Defpoints
 62
     0
100
AcDbPoint
 10
3.125000000000007
 20
0.0000000000000008
 30
0.0
  0
ENDBLK
  5
2481
330
2476
100
AcDbEntity
  8
0
100
AcDbBlockEnd
  0
BLOCK
  5
2488
330
2487
100
AcDbEntity
  8
0
100
AcDbBlockBegin
  2
*D46
 70
     1
 10
0.0
 20
0.0
 30
0.0
  3
*D46
  1
*D46
  0
LINE
  5
248A
330
2487
100
AcDbEntity
  8
文字
 62
     0
370
    -2
100
AcDbLine
 10
24.61504046323118
 20
74.95639814556088
 30
0.0
 11
10.4685849830867
 21
74.95639814556088
 31
0.0
  0
LINE
  5
248B
330
2487
100
AcDbEntity
  8
文字
 62
     0
370
    -2
100
AcDbLine
 10
24.80399020128954
 20
67.75376420893622
 30
0.0
 11
10.4685849830867
 21
67.75376420893622
 31
0.0
  0
LINE
  5
248C
330
2487
100
AcDbEntity
  8
文字
 62
     0
370
    -2
100
AcDbLine
 10
11.7185849830867
 20
72.45639814556088
 30
0.0
 11
11.7185849830867
 21
70.25376420893622
 31
0.0
  0
SOLID
  5
248D
330
2487
100
AcDbEntity
  8
文字
 62
     0
100
AcDbTrace
 10
12.13525164975336
 20
72.45639814556088
 30
0.0
 11
11.30191831642003
 21
72.45639814556088
 31
0.0
 12
11.7185849830867
 22
74.95639814556088
 32
0.0
 13
11.7185849830867
 23
74.95639814556088
 33
0.0
  0
SOLID
  5
248E
330
2487
100
AcDbEntity
  8
文字
 62
     0
100
AcDbTrace
 10
11.30191831642003
 20
70.25376420893622
 30
0.0
 11
12.13525164975336
 21
70.25376420893622
 31
0.0
 12
11.7185849830867
 22
67.75376420893622
 32
0.0
 13
11.7185849830867
 23
67.75376420893622
 33
0.0
  0
MTEXT
  5
248F
330
2487
100
AcDbEntity
  8
文字
 62
     0
100
AcDbMText
 10
9.843584983086698
 20
70.92043087560289
 30
0.0
 40
2.5
 41
0.0
 46
0.0
 71
     5
 72
     1
  1
7.2
 11
0.0
 21
1.0
 31
0.0
 73
     1
 44
1.0
  0
POINT
  5
2490
330
2487
100
AcDbEntity
  8
Defpoints
 62
     0
100
AcDbPoint
 10
25.24004046323118
 20
74.95639814556088
 30
0.0
  0
POINT
  5
2491
330
2487
100
AcDbEntity
  8
Defpoints
 62
     0
100
AcDbPoint
 10
25.42899020128954
 20
67.75376420893622
 30
0.0
  0
POINT
  5
2492
330
2487
100
AcDbEntity
  8
Defpoints
 62
     0
100
AcDbPoint
 10
11.7185849830867
 20
67.75376420893622
 30
0.0
  0
ENDBLK
  5
2489
330
2487
100
AcDbEntity
  8
0
100
AcDbBlockEnd
  0
ENDSEC
  0
SECTION
  2
ENTITIES
  0
MTEXT
  5
B75
330
21
100
AcDbEntity
  8
中心線
100
AcDbMText
 10
112.831139206696
 20
180.2175614817369
 30
0.0
 40
2.5
 41
0.0
 46
0.0
 71
     7
 72
     1
  1

 73
     1
 44
1.0
  0
ARC
  5
1DC0
330
21
100
AcDbEntity
  8
実線
100
AcDbCircle
 10
66.4651367688294
 20
128.6827442758095
 30
0.0
 40
37.91124999999995
100
AcDbArc
 50
256.8109699355427
 51
283.1890300644557
  0
ARC
  5
1DC1
330
21
100
AcDbEntity
  8
実線
100
AcDbCircle
 10
79.44013676882933
 20
100.6243067758096
 30
0.0
 40
9.852812500000026
100
AcDbArc
 50
243.9623951404288
 51
296.0376048595698
  0
LINE
  5
1DC2
330
21
100
AcDbEntity
  8
実線
100
AcDbLine
 10
75.11513676882932
 20
103.7714942758096
 30
0.0
 11
75.11513676882932
 21
91.77149427580957
 31
0.0
  0
LWPOLYLINE
  5
1DC3
102
{ACAD_REACTORS
330
1DC8
102
}
330
21
100
AcDbEntity
  8
実線
100
AcDbPolyline
 90
        4
 70
     0
 43
0.0
 10
83.76513676882932
 20
91.77149427580957
 10
83.76513676882932
 20
103.7714942758096
 10
49.16513676882933
 20
103.7714942758096
 10
49.16513676882933
 20
91.77149427580957
  0
ARC
  5
1DC4
330
21
100
AcDbEntity
  8
実線
100
AcDbCircle
 10
53.49013676882932
 20
100.6243067758095
 30
0.0
 40
9.852812499999981
100
AcDbArc
 50
243.9623951404288
 51
296.0376048595698
  0
LINE
  5
1DC5
330
21
100
AcDbEntity
  8
実線
100
AcDbLine
 10
57.8151367688293
 20
103.7714942758096
 30
0.0
 11
57.8151367688293
 21
91.77149427580957
 31
0.0
  0
DIMENSION
  5
1DC6
102
{ACAD_REACTORS
330
1DC8
102
}
102
{ACAD_XDICTIONARY
360
1DC7
102
}
330
21
100
AcDbEntity
  8
文字
100
AcDbDimension
280
     0
  2
*D16
 10
116.688268796606
 20
90.77149427580956
 30
0.0
 11
114.813268796606
 21
97.27149427580959
 31
0.0
 70
    32
 71
     5
 42
13.0
 73
     0
 74
     0
 75
     0
  3
ISO-25
100
AcDbAlignedDimension
 13
83.76513676882932
 23
103.7714942758096
 33
0.0
 14
83.76513676882932
 24
90.77149427580957
 34
0.0
 50
90.0
100
AcDbRotatedDimension
  0
LINE
  5
1DD3
330
21
100
AcDbEntity
  8
実線
100
AcDbLine
 10
53.50731232660166
 20
90.77150924615478
 30
0.0
 11
77.80645748054498
 21
90.77148117303238
 31
0.0
  0
LINE
  5
1DD6
330
21
100
AcDbEntity
  8
実線
100
AcDbLine
 10
56.87815434027488
 20
90.77149427580957
 30
0.0
 11
79.44013676882933
 21
90.77149427580957
 31
0.0
  0
MTEXT
  5
21A2
330
21
100
AcDbEntity
  8
文字・寸法線
 62
     0
100
AcDbMText
 10
84.31758030954532
 20
232.3042936911666
 30
0.0
 40
6.0
 41
0.0
 46
6.0
 71
     9
 72
     1
  1
{\fＭＳ ゴシック|b0|i0|c0|p0;S-B33 M20X180}
 73
     1
 44
1.0
1001
ACAD
1000
ACAD_MTEXT_DEFINED_HEIGHT_BEGIN
1070
    46
1040
6.0
1000
ACAD_MTEXT_DEFINED_HEIGHT_END
  0
DIMENSION
  5
21F9
330
21
100
AcDbEntity
  8
文字
100
AcDbDimension
280
     0
  2
*D24
 10
116.7067133168991
 20
103.8264009922762
 30
0.0
 11
114.8317133168991
 21
153.8264009922762
 31
0.0
 70
    32
  1
180
 71
     5
 42
100.0
 73
     0
 74
     0
 75
     0
  3
ISO-25
100
AcDbAlignedDimension
 13
74.48358128912241
 23
203.8264009922762
 33
0.0
 14
84.40858128912245
 24
103.8264009922762
 34
0.0
 50
90.0
100
AcDbRotatedDimension
  0
LINE
  5
21FA
330
21
100
AcDbEntity
  8
中心線
100
AcDbLine
 10
66.48358128912241
 20
65.7687456875833
 30
0.0
 11
66.48358128912241
 21
210.9213525375627
 31
0.0
  0
LWPOLYLINE
  5
21FB
330
21
100
AcDbEntity
  8
実線
100
AcDbPolyline
 90
        2
 70
     0
 43
0.0
 10
76.48358128912241
 20
103.8264009922762
 10
76.48358128912241
 20
115.6413240471385
  0
LINE
  5
21FC
102
{ACAD_REACTORS
330
2201
102
}
330
21
100
AcDbEntity
  8
実線
370
    20
100
AcDbLine
 10
56.48358128912242
 20
201.8264009922762
 30
0.0
 11
76.48358128912241
 21
201.8264009922762
 31
0.0
  0
LINE
  5
21FD
330
21
100
AcDbEntity
  8
実線
370
    20
100
AcDbLine
 10
58.48358128912242
 20
203.8264009922762
 30
0.0
 11
58.48358128912242
 21
164.0032128383562
 31
0.0
  0
LINE
  5
21FE
330
21
100
AcDbEntity
  8
実線
370
    20
100
AcDbLine
 10
74.48358128912241
 20
203.8264009922762
 30
0.0
 11
74.48358128912241
 21
170.3469068554237
 31
0.0
  0
DIMENSION
  5
21FF
102
{ACAD_REACTORS
330
2201
102
}
102
{ACAD_XDICTIONARY
360
2200
102
}
330
21
100
AcDbEntity
  8
文字
100
AcDbDimension
280
     0
  2
*D25
 10
76.48358128912241
 20
217.316652474617
 30
0.0
 11
66.48358128912241
 21
219.191652474617
 31
0.0
 70
    32
  1
M20
 71
     5
 42
19.99999999999999
 73
     0
 74
     0
 75
     0
  3
ISO-25
100
AcDbAlignedDimension
 13
56.48358128912242
 23
201.8264009922762
 33
0.0
 14
76.48358128912241
 24
201.8264009922762
 34
0.0
100
AcDbRotatedDimension
  0
LWPOLYLINE
  5
2202
330
21
100
AcDbEntity
  8
実線
100
AcDbPolyline
 90
        2
 70
     0
 43
0.0
 10
56.48358128912242
 20
115.6412784747722
 10
56.48358128912242
 20
103.8264009922762
  0
LINE
  5
2203
330
21
100
AcDbEntity
  8
実線
370
    20
100
AcDbLine
 10
58.48358128912243
 20
131.6412784748228
 30
0.0
 11
58.48358128912242
 21
103.8264009922762
 31
0.0
  0
LINE
  5
2204
330
21
100
AcDbEntity
  8
実線
370
    20
100
AcDbLine
 10
74.48358128912241
 20
115.6412784747722
 30
0.0
 11
74.48358128912238
 21
103.8264009922762
 31
0.0
  0
LWPOLYLINE
  5
2205
330
21
100
AcDbEntity
  8
実線
100
AcDbPolyline
 90
        2
 70
     0
 43
0.0
 10
76.48358128912241
 20
115.6413240471385
 10
76.48358128912241
 20
168.8513933569273
  0
LINE
  5
2206
330
21
100
AcDbEntity
  8
文字
100
AcDbLine
 10
80.3570444262046
 20
172.6756226655596
 30
0.0
 11
52.20172234054625
 21
161.5125758990971
 31
0.0
  0
LINE
  5
2207
330
21
100
AcDbEntity
  8
文字
100
AcDbLine
 10
80.3570444262046
 20
170.3871474149298
 30
0.0
 11
52.20172234054625
 21
159.2241006484673
 31
0.0
  0
LWPOLYLINE
  5
2208
330
21
100
AcDbEntity
  8
実線
100
AcDbPolyline
 90
        2
 70
     0
 43
0.0
 10
56.48358128912242
 20
160.9217758355929
 10
56.48358128912242
 20
115.6412784747722
  0
LINE
  5
2209
330
21
100
AcDbEntity
  8
実線
370
    20
100
AcDbLine
 10
58.48358128912242
 20
161.7147375877263
 30
0.0
 11
58.48358128912243
 21
131.6412784748228
 31
0.0
  0
LINE
  5
220A
330
21
100
AcDbEntity
  8
実線
370
    20
100
AcDbLine
 10
74.48358128912241
 20
168.0584316047938
 30
0.0
 11
74.48358128912241
 21
115.6412784747722
 31
0.0
  0
LWPOLYLINE
  5
220B
330
21
100
AcDbEntity
  8
実線
100
AcDbPolyline
 90
        6
 70
     0
 43
0.0
 10
76.48358128912241
 20
171.1398686075571
 10
76.48358128912241
 20
201.8264009922762
 10
74.48358128912241
 20
203.8264009922762
 10
58.48358128912242
 20
203.8264009922762
 10
56.48358128912242
 20
201.8264009922762
 10
56.48358128912242
 20
163.2102510862227
  0
LINE
  5
227E
330
21
100
AcDbEntity
  8
中心線
100
AcDbLine
 10
177.095405225034
 20
111.5134109401829
 30
0.0
 11
224.5674124502908
 21
111.5134109401829
 31
0.0
  0
LINE
  5
227F
330
21
100
AcDbEntity
  8
中心線
100
AcDbLine
 10
177.095405225034
 20
111.5134109401829
 30
0.0
 11
128.7245902219124
 21
111.5134109401829
 31
0.0
  0
LINE
  5
2280
330
21
100
AcDbEntity
  8
中心線
100
AcDbLine
 10
177.095405225034
 20
111.5134109401829
 30
0.0
 11
177.095405225034
 21
69.69464472723
 31
0.0
  0
LINE
  5
2281
330
21
100
AcDbEntity
  8
中心線
100
AcDbLine
 10
177.095405225034
 20
111.5134109401829
 30
0.0
 11
177.095405225034
 21
157.0512365799332
 31
0.0
  0
DIMENSION
  5
2285
102
{ACAD_REACTORS
330
2287
102
}
102
{ACAD_XDICTIONARY
360
2286
102
}
330
21
100
AcDbEntity
  8
文字
100
AcDbDimension
280
     0
  2
*D29
 10
203.095405225034
 20
51.17626339301709
 30
0.0
 11
177.1696695671894
 21
51.17626339301709
 31
0.0
 70
   160
  1
%%c<>
 71
     5
 42
52.0
 73
     0
 74
     0
 75
     0
  3
ISO-25
100
AcDbAlignedDimension
 13
151.095405225034
 23
111.5134109401829
 33
0.0
 14
203.095405225034
 24
111.5134109401829
 34
0.0
100
AcDbRotatedDimension
  0
CIRCLE
  5
228B
102
{ACAD_REACTORS
330
2287
102
}
330
21
100
AcDbEntity
  8
実線
100
AcDbCircle
 10
177.095405225034
 20
111.5134109401829
 30
0.0
 40
26.0
  0
CIRCLE
  5
228C
330
21
100
AcDbEntity
  8
実線
 48
0.5
370
    25
100
AcDbCircle
 10
176.7876015715562
 20
111.6507846345791
 30
0.0
 40
41.5
  0
ARC
  5
228D
330
21
100
AcDbEntity
  8
実線
 48
0.5
370
    25
100
AcDbCircle
 10
215.4555351827382
 20
111.3347406840813
 30
0.0
 40
11.03160765086955
100
AcDbArc
 50
98.23697442905808
 51
261.7630255709419
  0
ARC
  5
228E
330
21
100
AcDbEntity
  8
実線
 48
0.5
370
    25
100
AcDbCircle
 10
176.9555351827382
 20
111.3347406840813
 30
0.0
 40
38.5
100
AcDbArc
 50
16.47394885811096
 51
73.52605114189899
  0
ARC
  5
228F
330
21
100
AcDbEntity
  8
実線
 48
0.5
370
    25
100
AcDbCircle
 10
176.9555351827382
 20
149.8347406840813
 30
0.0
 40
11.03160765086955
100
AcDbArc
 50
188.2369744290482
 51
351.7630255709518
  0
ARC
  5
2290
330
21
100
AcDbEntity
  8
実線
 48
0.5
370
    25
100
AcDbCircle
 10
176.9637625691354
 20
72.83474156317074
 30
0.0
 40
11.03160765086955
100
AcDbArc
 50
8.249218442577389
 51
171.7752695844655
  0
ARC
  5
2291
330
21
100
AcDbEntity
  8
実線
 48
0.5
370
    25
100
AcDbCircle
 10
176.9555351827382
 20
111.3347406840813
 30
0.0
 40
38.5
100
AcDbArc
 50
286.48619287163
 51
343.526051141889
  0
ARC
  5
2292
330
21
100
AcDbEntity
  8
実線
 48
0.5
370
    25
100
AcDbCircle
 10
176.9555351827382
 20
111.3347406840813
 30
0.0
 40
38.5
100
AcDbArc
 50
196.4739488581157
 51
253.5382951554127
  0
ARC
  5
2293
330
21
100
AcDbEntity
  8
実線
 48
0.5
370
    25
100
AcDbCircle
 10
138.4555351827382
 20
111.3347406840813
 30
0.0
 40
11.03160765086955
100
AcDbArc
 50
278.2369744290629
 51
81.76302557093715
  0
ARC
  5
2294
330
21
100
AcDbEntity
  8
実線
 48
0.5
370
    25
100
AcDbCircle
 10
176.9555351827382
 20
111.3347406840813
 30
0.0
 40
38.5
100
AcDbArc
 50
106.473948858101
 51
163.5260511418843
  0
LWPOLYLINE
  5
2393
102
{ACAD_REACTORS
330
2398
102
}
330
21
100
AcDbEntity
  8
実線
100
AcDbPolyline
 90
        6
 70
     1
 43
0.0
 10
192.0809397923947
 20
120.0398783832982
 10
177.0987003069239
 20
128.6898783832981
 10
162.1164608214531
 20
120.0398783832982
 10
162.1164608214531
 20
102.7398783832981
 10
177.0987003069238
 20
94.0898783832981
 10
192.0809397923947
 20
102.7398783832981
  0
CIRCLE
  5
2394
330
21
100
AcDbEntity
  8
実線
370
    20
100
AcDbCircle
 10
177.0987003069238
 20
111.3898783832981
 30
0.0
 40
8.0
  0
CIRCLE
  5
2395
330
21
100
AcDbEntity
  8
実線
100
AcDbCircle
 10
177.0987003069238
 20
111.3898783832981
 30
0.0
 40
10.0
  0
DIMENSION
  5
2396
102
{ACAD_REACTORS
330
2398
102
}
102
{ACAD_XDICTIONARY
360
2397
102
}
330
21
100
AcDbEntity
  8
文字
100
AcDbDimension
280
     0
  2
*D37
 10
192.0809397923947
 20
60.53235436903472
 30
0.0
 11
175.814288126658
 21
60.53235436903472
 31
0.0
 70
   160
  1
30
 71
     5
 42
29.9644789709416
 73
     0
 74
     0
 75
     0
  3
ISO-25
100
AcDbAlignedDimension
 13
162.1164608214531
 23
102.7398783832981
 33
0.0
 14
192.0809397923947
 24
102.7398783832981
 34
0.0
100
AcDbRotatedDimension
  0
DIMENSION
  5
2410
102
{ACAD_XDICTIONARY
360
2411
102
}
330
21
100
AcDbEntity
  8
文字
100
AcDbDimension
280
     0
  2
*D41
 10
116.5812243759114
 20
67.71083436498057
 30
0.0
 11
114.7062243759114
 21
79.21121640331647
 31
0.0
 70
    32
 71
     5
 42
23.0007640766718
 73
     0
 74
     0
 75
     0
  3
ISO-25
100
AcDbAlignedDimension
 13
75.94507477668921
 23
90.71159844165237
 33
0.0
 14
108.1356530825975
 24
67.71083436498057
 34
0.0
 50
90.0
100
AcDbRotatedDimension
  0
ARC
  5
2413
330
21
100
AcDbEntity
  8
実線
100
AcDbCircle
 10
64.03486150181749
 20
69.81720724931225
 30
0.0
 40
22.12097806036146
100
AcDbArc
 50
109.1695583937718
 51
166.5601067248915
  0
ARC
  5
2414
330
21
100
AcDbEntity
  8
実線
100
AcDbCircle
 10
68.67177757747018
 20
69.80247490609554
 30
0.0
 40
22.13802834882427
100
AcDbArc
 50
13.51078039934398
 51
70.8196265483096
  0
LINE
  5
2415
330
21
100
AcDbEntity
  8
実線
370
    25
100
AcDbLine
 10
96.89504657753812
 20
67.78221805493277
 30
0.0
 11
99.39504657753793
 21
67.78221805493277
 31
0.0
  0
LINE
  5
2416
330
21
100
AcDbEntity
  8
実線
370
    25
100
AcDbLine
 10
101.3950465775379
 20
67.78221805493277
 30
0.0
 11
107.8950465775379
 21
67.78221805493277
 31
0.0
  0
LINE
  5
2417
330
21
100
AcDbEntity
  8
実線
370
    25
100
AcDbLine
 10
37.89504657753811
 20
67.78221805493277
 30
0.0
 11
94.89504657753811
 21
67.78221805493277
 31
0.0
  0
LINE
  5
2418
330
21
100
AcDbEntity
  8
実線
370
    25
100
AcDbLine
 10
33.39504657753811
 20
67.78221805493277
 30
0.0
 11
35.89504657753811
 21
67.78221805493277
 31
0.0
  0
ARC
  5
2419
330
21
100
AcDbEntity
  8
実線
 48
0.5
370
    25
100
AcDbCircle
 10
36.89504657753811
 20
67.78221805493277
 30
0.0
 40
1.0
100
AcDbArc
 50
180.0
 51
0.0
  0
ARC
  5
241A
330
21
100
AcDbEntity
  8
実線
 48
0.5
370
    25
100
AcDbCircle
 10
32.39504657753811
 20
67.78221805493277
 30
0.0
 40
1.0
100
AcDbArc
 50
180.0
 51
0.0
  0
ARC
  5
241B
330
21
100
AcDbEntity
  8
実線
 48
0.5
370
    25
100
AcDbCircle
 10
100.3950465775379
 20
67.78221805493277
 30
0.0
 40
1.0
100
AcDbArc
 50
180.0
 51
0.0
  0
ARC
  5
241C
330
21
100
AcDbEntity
  8
実線
 48
0.5
370
    25
100
AcDbCircle
 10
95.89504657753811
 20
67.78221805493277
 30
0.0
 40
1.0
100
AcDbArc
 50
180.0
 51
0.0
  0
LINE
  5
241D
330
21
100
AcDbEntity
  8
実線
370
    25
100
AcDbLine
 10
24.89504657753811
 20
67.78221805493277
 30
0.0
 11
31.39504657753811
 21
67.78221805493277
 31
0.0
  0
DIMENSION
  5
2420
102
{ACAD_XDICTIONARY
360
2421
102
}
330
21
100
AcDbEntity
  8
0
100
AcDbDimension
280
     0
  2
*D43
 10
107.9243029305324
 20
50.21635390392105
 30
0.0
 11
66.66025205731538
 21
50.21635390392105
 31
0.0
 70
   160
  1
%%c<>
 71
     5
 42
82.99999999999987
 73
     0
 74
     0
 75
     0
  3
Standard
100
AcDbAlignedDimension
 13
24.92430293053253
 23
68.78578233311293
 33
0.0
 14
107.9243029305324
 24
68.78578233311293
 34
0.0
100
AcDbRotatedDimension
1001
ACAD
1000
DSTYLE
1002
{
1070
    77
1070
     1
1070
    41
1040
2.0
1070
    44
1040
1.0
1070
    42
1040
1.0
1070
   271
1070
     1
1070
   140
1040
2.5
1002
}
  0
LINE
  5
2423
330
21
100
AcDbEntity
  8
文字
100
AcDbLine
 10
31.39504657753811
 20
67.78221805493277
 30
0.0
 11
33.39504657753811
 21
67.78221805493277
 31
0.0
  0
LINE
  5
2424
330
21
100
AcDbEntity
  8
文字
100
AcDbLine
 10
33.39504657753811
 20
67.78221805493277
 30
0.0
 11
35.89504657753811
 21
67.78221805493277
 31
0.0
  0
LINE
  5
2425
330
21
100
AcDbEntity
  8
文字
100
AcDbLine
 10
35.89504657753811
 20
67.78221805493277
 30
0.0
 11
37.89504657753811
 21
67.78221805493277
 31
0.0
  0
LINE
  5
2426
330
21
100
AcDbEntity
  8
文字
100
AcDbLine
 10
94.89504657753811
 20
67.78221805493277
 30
0.0
 11
98.14504657753801
 21
67.78221805493277
 31
0.0
  0
LINE
  5
2427
330
21
100
AcDbEntity
  8
文字
100
AcDbLine
 10
98.14504657753801
 20
67.78221805493277
 30
0.0
 11
101.3950465775379
 21
67.78221805493277
 31
0.0
  0
LINE
  5
2428
330
21
100
AcDbEntity
  8
文字
100
AcDbLine
 10
108.1356530825975
 20
74.98051469389965
 30
0.0
 11
24.77535505446741
 21
74.95277421182544
 31
0.0
  0
LINE
  5
2429
330
21
100
AcDbEntity
  8
文字
100
AcDbLine
 10
24.77535505446741
 20
74.95277421182544
 30
0.0
 11
24.89504657753811
 21
67.78221805493277
 31
0.0
  0
LINE
  5
242A
330
21
100
AcDbEntity
  8
文字
100
AcDbLine
 10
108.1356530825975
 20
74.98051469389965
 30
0.0
 11
108.1356530825975
 21
67.71083436498057
 31
0.0
  0
DIMENSION
  5
2485
102
{ACAD_XDICTIONARY
360
2486
102
}
330
21
100
AcDbEntity
  8
文字
100
AcDbDimension
280
     0
  2
*D46
 10
11.7185849830867
 20
67.75376420893622
 30
0.0
 11
11.7185849830867
 21
70.92043087560289
 31
0.0
 70
   160
 71
     5
 42
7.202633936624665
 73
     0
 74
     0
 75
     0
  3
ISO-25
100
AcDbAlignedDimension
 13
25.24004046323118
 23
74.95639814556088
 33
0.0
 14
25.42899020128954
 24
67.75376420893622
 34
0.0
 50
90.0
100
AcDbRotatedDimension
  0
VIEWPORT
  5
1F25
330
1F21
100
AcDbEntity
 67
     1
  8
0
100
AcDbViewport
 10
203.7291666666666
 20
142.1694444444444
 30
0.0
 40
488.9499999999999
 41
341.2066666666665
 68
     1
 69
     1
 12
203.7291666666666
 22
142.1694444444444
 13
0.0
 23
0.0
 14
0.5
 24
0.5
 15
0.0
 25
0.0
 16
0.0
 26
0.0
 36
1.0
 17
0.0
 27
0.0
 37
0.0
 42
50.0
 43
0.0
 44
0.0
 45
341.2066666666665
 50
0.0
 51
0.0
 72
   100
 90
   557152
  1

281
     0
 71
     1
 74
     0
110
0.0
120
0.0
130
0.0
111
1.0
121
0.0
131
0.0
112
0.0
122
1.0
132
0.0
 79
     0
146
0.0
170
     0
 61
     5
348
1EE3
292
     1
282
     1
141
0.0
142
0.0
 63
   256
361
1F27
  0
VIEWPORT
  5
1F26
330
1F21
100
AcDbEntity
 67
     1
  8
0
100
AcDbViewport
 10
203.7291666666666
 20
142.1694444444444
 30
0.0
 40
325.9666666666666
 41
227.471111111111
 68
     2
 69
     2
 12
131.1869124052229
 22
136.1829906668103
 13
0.0
 23
0.0
 14
0.5
 24
0.5
 15
0.0
 25
0.0
 16
0.0
 26
0.0
 36
1.0
 17
0.0
 27
0.0
 37
0.0
 42
50.0
 43
0.0
 44
0.0
 45
171.7756603863339
 50
0.0
 51
0.0
 72
   100
 90
   557152
  1

281
     0
 71
     1
 74
     0
110
0.0
120
0.0
130
0.0
111
1.0
121
0.0
131
0.0
112
0.0
122
1.0
132
0.0
 79
     0
146
0.0
170
     0
 61
     5
348
1EE3
292
     1
282
     1
141
0.0
142
0.0
 63
   256
  0
ENDSEC
  0
SECTION
  2
OBJECTS
  0
DICTIONARY
  5
C
330
0
100
AcDbDictionary
281
     1
  3
AcadDim
350
1271
  3
ACAD_COLOR
350
1C
  3
ACAD_DETAILVIEWSTYLE
350
1F30
  3
ACAD_GROUP
350
D
  3
ACAD_IMAGE_VARS
350
1F20
  3
ACAD_LAYOUT
350
1A
  3
ACAD_MATERIAL
350
1B
  3
ACAD_MLEADERSTYLE
350
1F2E
  3
ACAD_MLINESTYLE
350
17
  3
ACAD_PLOTSETTINGS
350
19
  3
ACAD_PLOTSTYLENAME
350
E
  3
ACAD_SCALELIST
350
1EF7
  3
ACAD_SECTIONVIEWSTYLE
350
1F31
  3
ACAD_TABLESTYLE
350
1F1C
  3
ACAD_VISUALSTYLE
350
1EDE
  3
AcDbVariableDictionary
350
13CA
  3
ACDB_RECOMPOSE_DATA
350
2495
  3
APPDATA
350
1F1E
  0
SUN
  5
1F28
330
1ED2
100
AcDbSun
 90
        1
290
     0
 63
     7
421
 16777215
 40
1.0
291
     1
 91
  2455826
 92
 54000000
292
     0
 70
     2
 71
   256
280
     1
  0
DICTIONARY
  5
1A12
330
1A11
100
AcDbDictionary
280
     1
281
     1
  3
ACAD_DIMASSOC
360
1A13
  0
DICTIONARY
  5
1A17
330
1A16
100
AcDbDictionary
280
     1
281
     1
  3
ACAD_DIMASSOC
360
1A18
  0
DICTIONARY
  5
1A1A
330
1A19
100
AcDbDictionary
280
     1
281
     1
  3
ACAD_DIMASSOC
360
1A1B
  0
DICTIONARY
  5
1A1D
330
1A1C
100
AcDbDictionary
280
     1
281
     1
  3
ACAD_DIMASSOC
360
1A1E
  0
DICTIONARY
  5
1A21
330
1A20
100
AcDbDictionary
280
     1
281
     1
  3
ACAD_DIMASSOC
360
1A22
  0
DICTIONARY
  5
1A28
330
1A27
100
AcDbDictionary
280
     1
281
     1
  3
ACAD_DIMASSOC
360
1A29
  0
DICTIONARY
  5
1A2B
330
1A2A
100
AcDbDictionary
280
     1
281
     1
  3
ACAD_DIMASSOC
360
1A2C
  0
DICTIONARY
  5
1A31
330
1A30
100
AcDbDictionary
280
     1
281
     1
  3
ACAD_DIMASSOC
360
1A32
  0
DICTIONARY
  5
1DC7
330
1DC6
100
AcDbDictionary
280
     1
281
     1
  3
ACAD_DIMASSOC
360
1DC8
  0
DICTIONARY
  5
2200
330
21FF
100
AcDbDictionary
280
     1
281
     1
  3
ACAD_DIMASSOC
360
2201
  0
DICTIONARY
  5
2286
330
2285
100
AcDbDictionary
280
     1
281
     1
  3
ACAD_DIMASSOC
360
2287
  0
DICTIONARY
  5
2397
330
2396
100
AcDbDictionary
280
     1
281
     1
  3
ACAD_DIMASSOC
360
2398
  0
DICTIONARY
  5
2411
330
2410
100
AcDbDictionary
280
     1
281
     1
  0
DICTIONARY
  5
2421
330
2420
100
AcDbDictionary
280
     1
281
     1
  0
DICTIONARY
  5
2486
330
2485
100
AcDbDictionary
280
     1
281
     1
  0
SUN
  5
1F27
330
1F25
100
AcDbSun
 90
        1
290
     0
 63
     7
421
 16777215
 40
1.0
291
     1
 91
  2455826
 92
 54000000
292
     0
 70
     2
 71
   256
280
     1
  0
XRECORD
  5
1271
102
{ACAD_REACTORS
330
C
102
}
330
C
100
AcDbXrecord
280
     1
 90
   990106
  3

 60
     0
 61
     0
 62
     4
 63
     4
 64
     1
 65
     0
 66
     0
 67
     3
 68
     1
 69
     0
 70
     0
 71
     0
 72
     0
 40
0.0
170
     2
340
0
  0
DICTIONARY
  5
1C
102
{ACAD_REACTORS
330
C
102
}
330
C
100
AcDbDictionary
281
     1
  0
DICTIONARY
  5
1F30
102
{ACAD_REACTORS
330
C
102
}
330
C
100
AcDbDictionary
281
     1
  0
DICTIONARY
  5
D
102
{ACAD_REACTORS
330
C
102
}
330
C
100
AcDbDictionary
281
     1
  0
RASTERVARIABLES
  5
1F20
102
{ACAD_REACTORS
330
C
102
}
330
C
100
AcDbRasterVariables
 90
        0
 70
     1
 71
     1
 72
     1
  0
DICTIONARY
  5
1A
102
{ACAD_REACTORS
330
C
102
}
330
C
100
AcDbDictionary
281
     1
  3
Model
350
24
  3
Sheet1
350
1F22
  0
DICTIONARY
  5
1B
102
{ACAD_REACTORS
330
C
102
}
330
C
100
AcDbDictionary
281
     1
  3
ByBlock
350
1F1A
  3
ByLayer
350
1F19
  3
Global
350
1F1B
  0
DICTIONARY
  5
1F2E
102
{ACAD_REACTORS
330
C
102
}
330
C
100
AcDbDictionary
281
     1
  0
DICTIONARY
  5
17
102
{ACAD_REACTORS
330
C
102
}
330
C
100
AcDbDictionary
281
     1
  3
Standard
350
18
  0
DICTIONARY
  5
19
102
{ACAD_REACTORS
330
C
102
}
330
C
100
AcDbDictionary
281
     1
  0
ACDBDICTIONARYWDFLT
  5
E
102
{ACAD_REACTORS
330
C
102
}
330
C
100
AcDbDictionary
281
     1
  3
Normal
350
F
100
AcDbDictionaryWithDefault
340
F
  0
DICTIONARY
  5
1EF7
102
{ACAD_REACTORS
330
C
102
}
330
C
100
AcDbDictionary
281
     1
  3
A0
350
1EF8
  3
A1
350
1EF9
  3
A2
350
1EFA
  3
A3
350
1EFB
  3
A4
350
1EFC
  3
A5
350
1EFD
  3
A6
350
1EFE
  3
A7
350
1EFF
  3
A8
350
1F00
  3
A9
350
1F01
  3
B0
350
1F02
  3
B1
350
1F03
  3
B2
350
1F04
  3
B3
350
1F05
  3
B4
350
1F06
  3
B5
350
1F07
  3
B6
350
1F08
  3
B7
350
1F09
  3
B8
350
1F0A
  3
B9
350
1F0B
  3
C0
350
1F0C
  3
C1
350
1F0D
  3
C2
350
1F0E
  3
C3
350
1F0F
  3
C4
350
1F10
  3
C5
350
1F11
  3
C6
350
1F12
  3
C7
350
1F13
  3
C8
350
1F14
  3
C9
350
1F15
  3
D0
350
1F16
  3
D1
350
1F17
  3
D2
350
1F18
  0
DICTIONARY
  5
1F31
102
{ACAD_REACTORS
330
C
102
}
330
C
100
AcDbDictionary
281
     1
  0
DICTIONARY
  5
1F1C
102
{ACAD_REACTORS
330
C
102
}
330
C
100
AcDbDictionary
281
     1
  3
Standard
350
1F1D
  0
DICTIONARY
  5
1EDE
102
{ACAD_REACTORS
330
C
102
}
330
C
100
AcDbDictionary
281
     1
  3
2dWireframe
350
1EE3
  3
Basic
350
1EE6
  3
Brighten
350
1EEA
  3
ColorChange
350
1EEE
  3
Conceptual
350
1EE8
  3
Dim
350
1EE9
  3
EdgeColorOff
350
1EF1
  3
Facepattern
350
1EED
  3
Flat
350
1EDF
  3
FlatWithEdges
350
1EE0
  3
Gouraud
350
1EE1
  3
GouraudWithEdges
350
1EE2
  3
Hidden
350
1EE5
  3
JitterOff
350
1EEF
  3
Linepattern
350
1EEC
  3
OverhangOff
350
1EF0
  3
Realistic
350
1EE7
  3
Shaded
350
1EF6
  3
Shaded with edges
350
1EF5
  3
Shades of Gray
350
1EF2
  3
Sketchy
350
1EF3
  3
Thicken
350
1EEB
  3
Wireframe
350
1EE4
  3
X-Ray
350
1EF4
  0
DICTIONARY
  5
13CA
102
{ACAD_REACTORS
330
C
102
}
330
C
100
AcDbDictionary
281
     1
  3
CANNOSCALE
350
1F29
  3
CTABLESTYLE
350
1F2D
  3
DIMASSOC
350
13CC
  3
HIDETEXT
350
13CB
  3
MSLTSCALE
350
1F2F
  3
PROJECTNAME
350
13CD
  0
XRECORD
  5
2495
102
{ACAD_REACTORS
330
C
102
}
330
C
100
AcDbXrecord
280
     1
 90
        1
330
1F1D
  0
DICTIONARY
  5
1F1E
102
{ACAD_REACTORS
330
C
102
}
330
C
100
AcDbDictionary
281
     1
  0
DIMASSOC
  5
1A13
102
{ACAD_REACTORS
330
1A12
102
}
330
1A12
100
AcDbDimAssoc
330
1A11
 90
        3
 70
     0
 71
     0
  1
AcDbOsnapPointRef
 72
     1
331
1A48
 73
     2
 91
        0
 40
1.0
 10
0.0
 20
0.0
 30
2.000000000000000E+50
 75
     0
  1
AcDbOsnapPointRef
 72
    13
331
1A23
 73
     2
 91
        0
 40
0.0
 10
0.0
 20
0.0
 30
2.000000000000000E+50
 75
     0
  0
DIMASSOC
  5
1A18
102
{ACAD_REACTORS
330
1A17
102
}
330
1A17
100
AcDbDimAssoc
330
1A16
 90
        3
 70
     0
 71
     0
  1
AcDbOsnapPointRef
 72
     1
331
1A3B
 73
     2
 91
        1
 40
1.0
 10
0.0
 20
0.0
 30
2.000000000000000E+50
 75
     0
  1
AcDbOsnapPointRef
 72
    13
331
1A23
 73
     2
 91
        0
 40
0.0
 10
0.0
 20
0.0
 30
2.000000000000000E+50
 75
     0
  0
DIMASSOC
  5
1A1B
102
{ACAD_REACTORS
330
1A1A
102
}
330
1A1A
100
AcDbDimAssoc
330
1A19
 90
        3
 70
     0
 71
     0
  1
AcDbOsnapPointRef
 72
     6
331
1A34
 73
     2
 91
        0
 40
1.0
 10
0.0
 20
0.0
 30
0.0
332
1A44
 74
     2
 92
        0
 75
     0
  1
AcDbOsnapPointRef
 72
     1
331
1A3B
 73
     2
 91
        1
 40
1.0
 10
0.0
 20
0.0
 30
2.000000000000000E+50
 75
     0
  0
DIMASSOC
  5
1A1E
102
{ACAD_REACTORS
330
1A1D
102
}
330
1A1D
100
AcDbDimAssoc
330
1A1C
 90
        3
 70
     0
 71
     0
  1
AcDbOsnapPointRef
 72
     1
331
1A48
 73
     2
 91
        0
 40
1.0
 10
0.0
 20
0.0
 30
2.000000000000000E+50
 75
     0
  1
AcDbOsnapPointRef
 72
     6
331
1A34
 73
     2
 91
        0
 40
1.0
 10
0.0
 20
0.0
 30
0.0
332
1A44
 74
     2
 92
        0
 75
     0
  0
DIMASSOC
  5
1A22
102
{ACAD_REACTORS
330
1A21
102
}
330
1A21
100
AcDbDimAssoc
330
1A20
 90
        3
 70
     0
 71
     0
  1
AcDbOsnapPointRef
 72
    13
331
1A25
 73
     2
 91
        0
 40
0.0
 10
0.0
 20
0.0
 30
2.000000000000000E+50
 75
     0
  1
AcDbOsnapPointRef
 72
     1
331
1A25
 73
     2
 91
        0
 40
1.0
 10
0.0
 20
0.0
 30
2.000000000000000E+50
 75
     0
  0
DIMASSOC
  5
1A29
102
{ACAD_REACTORS
330
1A28
102
}
330
1A28
100
AcDbDimAssoc
330
1A27
 90
        3
 70
     0
 71
     0
  1
AcDbOsnapPointRef
 72
     2
331
1A2F
 73
     2
 91
        3
 40
0.5
 10
0.0
 20
0.0
 30
0.0
 75
     0
  1
AcDbOsnapPointRef
 72
     6
331
1A2F
 73
     2
 91
        6
 40
0.5000000000000038
 10
0.0
 20
0.0
 30
0.0
332
1A3C
 74
     2
 92
        0
 75
     0
  0
DIMASSOC
  5
1A2C
102
{ACAD_REACTORS
330
1A2B
102
}
330
1A2B
100
AcDbDimAssoc
330
1A2A
 90
        3
 70
     0
 71
     0
  1
AcDbOsnapPointRef
 72
    13
331
1A46
 73
     2
 91
        0
 40
0.0
 10
0.0
 20
0.0
 30
2.000000000000000E+50
 75
     0
  1
AcDbOsnapPointRef
 72
    13
331
1A49
 73
     2
 91
        0
 40
0.0
 10
0.0
 20
0.0
 30
2.000000000000000E+50
 75
     0
  0
DIMASSOC
  5
1A32
102
{ACAD_REACTORS
330
1A31
102
}
330
1A31
100
AcDbDimAssoc
330
1A30
 90
        3
 70
     0
 71
     0
  1
AcDbOsnapPointRef
 72
     5
331
1A40
 73
     2
 91
        0
 40
3.141592653589793
 10
0.0
 20
0.0
 30
0.0
 75
     0
  1
AcDbOsnapPointRef
 72
     5
331
1A40
 73
     2
 91
        0
 40
0.0
 10
0.0
 20
0.0
 30
0.0
 75
     0
  0
DIMASSOC
  5
1DC8
102
{ACAD_REACTORS
330
1DC7
102
}
330
1DC7
100
AcDbDimAssoc
330
1DC6
 90
        1
 70
     0
 71
     0
  1
AcDbOsnapPointRef
 72
     1
331
1DC3
 73
     2
 91
        1
 40
1.0
 10
0.0
 20
0.0
 30
2.000000000000000E+50
 75
     0
  0
DIMASSOC
  5
2201
102
{ACAD_REACTORS
330
2200
102
}
330
2200
100
AcDbDimAssoc
330
21FF
 90
        3
 70
     0
 71
     0
  1
AcDbOsnapPointRef
 72
    13
331
21FC
 73
     2
 91
        0
 40
0.0
 10
0.0
 20
0.0
 30
2.000000000000000E+50
 75
     0
  1
AcDbOsnapPointRef
 72
     1
331
21FC
 73
     2
 91
        0
 40
1.0
 10
0.0
 20
0.0
 30
2.000000000000000E+50
 75
     0
  0
DIMASSOC
  5
2287
102
{ACAD_REACTORS
330
2286
102
}
330
2286
100
AcDbDimAssoc
330
2285
 90
        3
 70
     0
 71
     0
  1
AcDbOsnapPointRef
 72
     5
331
228B
 73
     2
 91
        0
 40
3.141592653589793
 10
0.0
 20
0.0
 30
0.0
 75
     0
  1
AcDbOsnapPointRef
 72
     5
331
228B
 73
     2
 91
        0
 40
0.0
 10
0.0
 20
0.0
 30
0.0
 75
     0
  0
DIMASSOC
  5
2398
102
{ACAD_REACTORS
330
2397
102
}
330
2397
100
AcDbDimAssoc
330
2396
 90
        3
 70
     0
 71
     0
  1
AcDbOsnapPointRef
 72
     1
331
2393
 73
     2
 91
        3
 40
1.0
 10
0.0
 20
0.0
 30
2.000000000000000E+50
 75
     0
  1
AcDbOsnapPointRef
 72
     1
331
2393
 73
     2
 91
        5
 40
1.0
 10
0.0
 20
0.0
 30
2.000000000000000E+50
 75
     0
  0
LAYOUT
  5
24
102
{ACAD_REACTORS
330
1A
102
}
330
1A
100
AcDbPlotSettings
  1

  2
\\SF05\Brother HL-1440 series
  4
A4
  6

 40
6.72041654586792
 41
5.027085304260254
 42
6.889755249023438
 43
5.027069091796875
 44
209.9733276367188
 45
296.9259948730469
 46
-6.82
 47
-5.06
 48
0.0
 49
0.0
140
297.0000000000001
141
210.0
142
1.0
143
1.0
 70
 11956
 72
     1
 73
     1
 74
     4
  7

 75
    16
 76
     0
 77
     2
 78
   300
147
1.0
148
0.0
149
0.0
100
AcDbLayout
  1
Model
 70
     1
 71
     0
 10
0.0
 20
0.0
 11
12.0
 21
9.0
 12
0.0
 22
0.0
 32
0.0
 14
8.5935849830867
 24
49.21635390392105
 34
0.0
 15
224.5674124502908
 25
238.3042936911666
 35
0.0
146
0.0
 13
0.0
 23
0.0
 33
0.0
 16
1.0
 26
0.0
 36
0.0
 17
0.0
 27
1.0
 37
0.0
 76
     0
330
21
331
1ED2
  0
LAYOUT
  5
1F22
102
{ACAD_REACTORS
330
1A
102
}
330
1A
100
AcDbPlotSettings
  1

  2
none_device
  4
iso-a3
  6

 40
6.35
 41
6.35
 42
6.35
 43
6.35
 44
297.0388888888888
 45
420.1583333333333
 46
0.0
 47
0.0
 48
0.0
 49
0.0
140
0.0
141
0.0
142
1.0
143
1.0
 70
   688
 72
     1
 73
     1
 74
     5
  7

 75
    16
 76
     0
 77
     2
 78
   300
147
1.0
148
0.0
149
0.0
100
AcDbLayout
  1
Sheet1
 70
     1
 71
     1
 10
0.0
 20
0.0
 11
0.0
 21
0.0
 12
0.0
 22
0.0
 32
0.0
 14
0.0
 24
0.0
 34
0.0
 15
0.0
 25
0.0
 35
0.0
146
0.0
 13
0.0
 23
0.0
 33
0.0
 16
1.0
 26
0.0
 36
0.0
 17
0.0
 27
1.0
 37
0.0
 76
     0
330
1F21
331
1F25
  0
MATERIAL
  5
1F1A
102
{ACAD_REACTORS
330
1B
102
}
330
1B
100
AcDbMaterial
  1
ByBlock
 72
     1
 94
      127
  0
MATERIAL
  5
1F19
102
{ACAD_REACTORS
330
1B
102
}
330
1B
100
AcDbMaterial
  1
ByLayer
 72
     1
 94
      127
  0
MATERIAL
  5
1F1B
102
{ACAD_REACTORS
330
1B
102
}
330
1B
100
AcDbMaterial
  1
Global
 72
     1
 94
      127
  0
MLINESTYLE
  5
18
102
{ACAD_REACTORS
330
17
102
}
330
17
100
AcDbMlineStyle
  2
STANDARD
 70
     0
  3

 62
   256
 51
90.0
 52
90.0
 71
     2
 49
0.5
 62
   256
  6
BYLAYER
 49
-0.5
 62
   256
  6
BYLAYER
  0
ACDBPLACEHOLDER
  5
F
102
{ACAD_REACTORS
330
E
102
}
330
E
  0
SCALE
  5
1EF8
102
{ACAD_REACTORS
330
1EF7
102
}
330
1EF7
100
AcDbScale
 70
     0
300
1:1
140
1.0
141
1.0
290
     1
  0
SCALE
  5
1EF9
102
{ACAD_REACTORS
330
1EF7
102
}
330
1EF7
100
AcDbScale
 70
     0
300
1:2
140
1.0
141
2.0
290
     0
  0
SCALE
  5
1EFA
102
{ACAD_REACTORS
330
1EF7
102
}
330
1EF7
100
AcDbScale
 70
     0
300
1:4
140
1.0
141
4.0
290
     0
  0
SCALE
  5
1EFB
102
{ACAD_REACTORS
330
1EF7
102
}
330
1EF7
100
AcDbScale
 70
     0
300
1:5
140
1.0
141
5.0
290
     0
  0
SCALE
  5
1EFC
102
{ACAD_REACTORS
330
1EF7
102
}
330
1EF7
100
AcDbScale
 70
     0
300
1:8
140
1.0
141
8.0
290
     0
  0
SCALE
  5
1EFD
102
{ACAD_REACTORS
330
1EF7
102
}
330
1EF7
100
AcDbScale
 70
     0
300
1:10
140
1.0
141
10.0
290
     0
  0
SCALE
  5
1EFE
102
{ACAD_REACTORS
330
1EF7
102
}
330
1EF7
100
AcDbScale
 70
     0
300
1:16
140
1.0
141
16.0
290
     0
  0
SCALE
  5
1EFF
102
{ACAD_REACTORS
330
1EF7
102
}
330
1EF7
100
AcDbScale
 70
     0
300
1:20
140
1.0
141
20.0
290
     0
  0
SCALE
  5
1F00
102
{ACAD_REACTORS
330
1EF7
102
}
330
1EF7
100
AcDbScale
 70
     0
300
1:30
140
1.0
141
30.0
290
     0
  0
SCALE
  5
1F01
102
{ACAD_REACTORS
330
1EF7
102
}
330
1EF7
100
AcDbScale
 70
     0
300
1:40
140
1.0
141
40.0
290
     0
  0
SCALE
  5
1F02
102
{ACAD_REACTORS
330
1EF7
102
}
330
1EF7
100
AcDbScale
 70
     0
300
1:50
140
1.0
141
50.0
290
     0
  0
SCALE
  5
1F03
102
{ACAD_REACTORS
330
1EF7
102
}
330
1EF7
100
AcDbScale
 70
     0
300
1:100
140
1.0
141
100.0
290
     0
  0
SCALE
  5
1F04
102
{ACAD_REACTORS
330
1EF7
102
}
330
1EF7
100
AcDbScale
 70
     0
300
2:1
140
2.0
141
1.0
290
     0
  0
SCALE
  5
1F05
102
{ACAD_REACTORS
330
1EF7
102
}
330
1EF7
100
AcDbScale
 70
     0
300
4:1
140
4.0
141
1.0
290
     0
  0
SCALE
  5
1F06
102
{ACAD_REACTORS
330
1EF7
102
}
330
1EF7
100
AcDbScale
 70
     0
300
8:1
140
8.0
141
1.0
290
     0
  0
SCALE
  5
1F07
102
{ACAD_REACTORS
330
1EF7
102
}
330
1EF7
100
AcDbScale
 70
     0
300
10:1
140
10.0
141
1.0
290
     0
  0
SCALE
  5
1F08
102
{ACAD_REACTORS
330
1EF7
102
}
330
1EF7
100
AcDbScale
 70
     0
300
100:1
140
100.0
141
1.0
290
     0
  0
SCALE
  5
1F09
102
{ACAD_REACTORS
330
1EF7
102
}
330
1EF7
100
AcDbScale
 70
     0
300
1/128" = 1'-0"
140
0.0078125
141
12.0
290
     0
  0
SCALE
  5
1F0A
102
{ACAD_REACTORS
330
1EF7
102
}
330
1EF7
100
AcDbScale
 70
     0
300
1/64" = 1'-0"
140
0.015625
141
12.0
290
     0
  0
SCALE
  5
1F0B
102
{ACAD_REACTORS
330
1EF7
102
}
330
1EF7
100
AcDbScale
 70
     0
300
1/32" = 1'-0"
140
0.03125
141
12.0
290
     0
  0
SCALE
  5
1F0C
102
{ACAD_REACTORS
330
1EF7
102
}
330
1EF7
100
AcDbScale
 70
     0
300
1/16" = 1'-0"
140
0.0625
141
12.0
290
     0
  0
SCALE
  5
1F0D
102
{ACAD_REACTORS
330
1EF7
102
}
330
1EF7
100
AcDbScale
 70
     0
300
3/32" = 1'-0"
140
0.09375
141
12.0
290
     0
  0
SCALE
  5
1F0E
102
{ACAD_REACTORS
330
1EF7
102
}
330
1EF7
100
AcDbScale
 70
     0
300
1/8" = 1'-0"
140
0.125
141
12.0
290
     0
  0
SCALE
  5
1F0F
102
{ACAD_REACTORS
330
1EF7
102
}
330
1EF7
100
AcDbScale
 70
     0
300
3/16" = 1'-0"
140
0.1875
141
12.0
290
     0
  0
SCALE
  5
1F10
102
{ACAD_REACTORS
330
1EF7
102
}
330
1EF7
100
AcDbScale
 70
     0
300
1/4" = 1'-0"
140
0.25
141
12.0
290
     0
  0
SCALE
  5
1F11
102
{ACAD_REACTORS
330
1EF7
102
}
330
1EF7
100
AcDbScale
 70
     0
300
3/8" = 1'-0"
140
0.375
141
12.0
290
     0
  0
SCALE
  5
1F12
102
{ACAD_REACTORS
330
1EF7
102
}
330
1EF7
100
AcDbScale
 70
     0
300
1/2" = 1'-0"
140
0.5
141
12.0
290
     0
  0
SCALE
  5
1F13
102
{ACAD_REACTORS
330
1EF7
102
}
330
1EF7
100
AcDbScale
 70
     0
300
3/4" = 1'-0"
140
0.75
141
12.0
290
     0
  0
SCALE
  5
1F14
102
{ACAD_REACTORS
330
1EF7
102
}
330
1EF7
100
AcDbScale
 70
     0
300
1" = 1'-0"
140
1.0
141
12.0
290
     0
  0
SCALE
  5
1F15
102
{ACAD_REACTORS
330
1EF7
102
}
330
1EF7
100
AcDbScale
 70
     0
300
1-1/2" = 1'-0"
140
1.5
141
12.0
290
     0
  0
SCALE
  5
1F16
102
{ACAD_REACTORS
330
1EF7
102
}
330
1EF7
100
AcDbScale
 70
     0
300
3" = 1'-0"
140
3.0
141
12.0
290
     0
  0
SCALE
  5
1F17
102
{ACAD_REACTORS
330
1EF7
102
}
330
1EF7
100
AcDbScale
 70
     0
300
6" = 1'-0"
140
6.0
141
12.0
290
     0
  0
SCALE
  5
1F18
102
{ACAD_REACTORS
330
1EF7
102
}
330
1EF7
100
AcDbScale
 70
     0
300
1'-0" = 1'-0"
140
12.0
141
12.0
290
     0
  0
TABLESTYLE
  5
1F1D
102
{ACAD_REACTORS
330
1F1C
102
}
102
{ACAD_XDICTIONARY
360
2493
102
}
330
1F1C
100
AcDbTableStyle
  3
Standard
 70
     0
 71
     0
 40
1.5
 41
1.5
280
     0
281
     0
  7
Standard
140
4.5
170
     2
 62
     0
 63
   257
283
     0
 90
        4
 91
        0
  1

274
    -2
284
     1
 64
     0
275
    -2
285
     1
 65
     0
276
    -2
286
     1
 66
     0
277
    -2
287
     1
 67
     0
278
    -2
288
     1
 68
     0
279
    -2
289
     1
 69
     0
  7
Standard
140
6.0
170
     5
 62
     0
 63
   257
283
     0
 90
        4
 91
        0
  1

274
    -2
284
     1
 64
     0
275
    -2
285
     1
 65
     0
276
    -2
286
     1
 66
     0
277
    -2
287
     1
 67
     0
278
    -2
288
     1
 68
     0
279
    -2
289
     1
 69
     0
  7
Standard
140
4.5
170
     5
 62
     0
 63
   257
283
     0
 90
        4
 91
        0
  1

274
    -2
284
     1
 64
     0
275
    -2
285
     1
 65
     0
276
    -2
286
     1
 66
     0
277
    -2
287
     1
 67
     0
278
    -2
288
     1
 68
     0
279
    -2
289
     1
 69
     0
  0
VISUALSTYLE
  5
1EE3
102
{ACAD_REACTORS
330
1EDE
102
}
330
1EDE
100
AcDbVisualStyle
  2
2dWireframe
 70
     4
177
     3
291
     0
 70
    58
 90
        0
176
     1
 90
        2
176
     1
 90
        0
176
     1
 90
        0
176
     1
 40
0.6
176
     1
 40
30.0
176
     1
 62
     7
420
 16777215
176
     1
 90
        1
176
     1
 90
        4
176
     1
 62
     7
176
     1
 62
   257
176
     1
 90
        1
176
     1
 90
        1
176
     1
 40
1.0
176
     1
 90
        0
176
     1
 62
   257
176
     1
 40
1.0
176
     1
 90
        1
176
     1
 90
        6
176
     1
 90
        2
176
     1
 62
     7
176
     1
 90
        5
176
     1
 90
        0
176
     1
 90
        0
176
     1
290
     0
176
     1
 90
        1
176
     1
 40
0.0
176
     1
 90
        0
176
     1
290
     1
176
     1
290
     1
176
     1
290
     0
176
     1
290
     0
176
     1
290
     0
176
     1
290
     0
176
     1
290
     0
176
     1
290
     0
176
     1
290
     0
176
     1
 90
       50
176
     1
 40
0.0
176
     1
 40
1.0
176
     1
 90
        0
176
     1
 62
   178
420
        0
176
     1
 90
       50
176
     1
 90
        3
176
     1
 62
     5
420
      255
176
     1
290
     0
176
     1
 90
       50
176
     1
 90
       50
176
     1
 90
       50
176
     1
290
     0
176
     1
 90
       50
176
     1
 62
   256
176
     0
 40
1.0
176
     0
 90
        2
176
     1
  1
strokes_ogs.tif
176
     1
290
     0
176
     1
 40
1.0
176
     1
 40
1.0
176
     1
  0
VISUALSTYLE
  5
1EE6
102
{ACAD_REACTORS
330
1EDE
102
}
330
1EDE
100
AcDbVisualStyle
  2
Basic
 70
     7
177
     3
291
     1
 70
    58
 90
        1
176
     1
 90
        0
176
     1
 90
        1
176
     1
 90
        0
176
     1
 40
0.6
176
     1
 40
30.0
176
     1
 62
     7
420
 16777215
176
     1
 90
        0
176
     1
 90
        4
176
     1
 62
     7
176
     1
 62
   257
176
     1
 90
        1
176
     1
 90
        1
176
     1
 40
1.0
176
     1
 90
        8
176
     1
 62
     7
176
     1
 40
1.0
176
     1
 90
        1
176
     1
 90
        6
176
     1
 90
        2
176
     1
 62
     7
176
     1
 90
        5
176
     1
 90
        0
176
     1
 90
        0
176
     1
290
     0
176
     1
 90
        1
176
     1
 40
0.0
176
     1
 90
        0
176
     1
290
     0
176
     1
290
     1
176
     1
290
     1
176
     1
290
     0
176
     1
290
     0
176
     1
290
     0
176
     1
290
     0
176
     1
290
     0
176
     1
290
     0
176
     1
 90
       50
176
     1
 40
0.0
176
     1
 40
1.0
176
     1
 90
        0
176
     1
 62
   178
420
        0
176
     1
 90
       50
176
     1
 90
        3
176
     1
 62
     5
420
      255
176
     1
290
     0
176
     1
 90
       50
176
     1
 90
       50
176
     1
 90
       50
176
     1
290
     0
176
     1
 90
       50
176
     1
 62
   256
176
     0
 40
1.0
176
     0
 90
        2
176
     1
  1
strokes_ogs.tif
176
     1
290
     0
176
     1
 40
1.0
176
     1
 40
1.0
176
     1
  0
VISUALSTYLE
  5
1EEA
102
{ACAD_REACTORS
330
1EDE
102
}
330
1EDE
100
AcDbVisualStyle
  2
Brighten
 70
    12
177
     3
291
     1
 70
    58
 90
        2
176
     1
 90
        2
176
     1
 90
        0
176
     1
 90
        0
176
     1
 40
0.6
176
     1
 40
30.0
176
     1
 62
     7
420
 16777215
176
     1
 90
        1
176
     1
 90
        4
176
     1
 62
     7
176
     1
 62
   257
176
     1
 90
        1
176
     1
 90
        1
176
     1
 40
1.0
176
     1
 90
        8
176
     1
 62
     7
176
     1
 40
1.0
176
     1
 90
        1
176
     1
 90
        6
176
     1
 90
        2
176
     1
 62
     7
176
     1
 90
        5
176
     1
 90
        0
176
     1
 90
        0
176
     1
290
     0
176
     1
 90
        1
176
     1
 40
50.0
176
     1
 90
        0
176
     1
290
     0
176
     1
290
     1
176
     1
290
     1
176
     1
290
     0
176
     1
290
     0
176
     1
290
     0
176
     1
290
     0
176
     1
290
     0
176
     1
290
     0
176
     1
 90
       50
176
     1
 40
0.0
176
     1
 40
1.0
176
     1
 90
        0
176
     1
 62
   178
420
        0
176
     1
 90
       50
176
     1
 90
        3
176
     1
 62
     5
420
      255
176
     1
290
     0
176
     1
 90
       50
176
     1
 90
       50
176
     1
 90
       50
176
     1
290
     0
176
     1
 90
       50
176
     1
 62
   256
176
     0
 40
1.0
176
     0
 90
        2
176
     1
  1
strokes_ogs.tif
176
     1
290
     0
176
     1
 40
1.0
176
     1
 40
1.0
176
     1
  0
VISUALSTYLE
  5
1EEE
102
{ACAD_REACTORS
330
1EDE
102
}
330
1EDE
100
AcDbVisualStyle
  2
ColorChange
 70
    16
177
     3
291
     1
 70
    58
 90
        2
176
     1
 90
        2
176
     1
 90
        3
176
     1
 90
        0
176
     1
 40
0.6
176
     1
 40
30.0
176
     1
 62
     8
420
  8421504
176
     1
 90
        1
176
     1
 90
        4
176
     1
 62
     7
176
     1
 62
   257
176
     1
 90
        1
176
     1
 90
        1
176
     1
 40
1.0
176
     1
 90
        8
176
     1
 62
     8
420
  8421504
176
     1
 40
1.0
176
     1
 90
        1
176
     1
 90
        6
176
     1
 90
        2
176
     1
 62
     7
176
     1
 90
        5
176
     1
 90
        0
176
     1
 90
        0
176
     1
290
     0
176
     1
 90
        1
176
     1
 40
0.0
176
     1
 90
        0
176
     1
290
     0
176
     1
290
     1
176
     1
290
     1
176
     1
290
     0
176
     1
290
     0
176
     1
290
     0
176
     1
290
     0
176
     1
290
     0
176
     1
290
     0
176
     1
 90
       50
176
     1
 40
0.0
176
     1
 40
1.0
176
     1
 90
        0
176
     1
 62
   178
420
        0
176
     1
 90
       50
176
     1
 90
        3
176
     1
 62
     5
420
      255
176
     1
290
     0
176
     1
 90
       50
176
     1
 90
       50
176
     1
 90
       50
176
     1
290
     0
176
     1
 90
       50
176
     1
 62
   256
176
     0
 40
1.0
176
     0
 90
        2
176
     1
  1
strokes_ogs.tif
176
     1
290
     0
176
     1
 40
1.0
176
     1
 40
1.0
176
     1
  0
VISUALSTYLE
  5
1EE8
102
{ACAD_REACTORS
330
1EDE
102
}
330
1EDE
100
AcDbVisualStyle
  2
Conceptual
 70
     9
177
     3
291
     0
 70
    58
 90
        3
176
     1
 90
        2
176
     1
 90
        0
176
     1
 90
        0
176
     1
 40
0.6
176
     1
 40
30.0
176
     1
 62
     7
420
 16777215
176
     1
 90
        2
176
     1
 90
        2
176
     1
 62
     7
176
     1
 62
   257
176
     1
 90
        1
176
     1
 90
        1
176
     1
 40
179.0
176
     1
 90
        8
176
     1
 62
     7
176
     1
 40
1.0
176
     1
 90
        1
176
     1
 90
        6
176
     1
 90
        2
176
     1
 62
     7
176
     1
 90
        3
176
     1
 90
        0
176
     1
 90
        0
176
     1
290
     0
176
     1
 90
        1
176
     1
 40
0.0
176
     1
 90
        0
176
     1
290
     0
176
     1
290
     1
176
     1
290
     1
176
     1
290
     0
176
     1
290
     0
176
     1
290
     0
176
     1
290
     0
176
     1
290
     0
176
     1
290
     0
176
     1
 90
       50
176
     1
 40
0.0
176
     1
 40
1.0
176
     1
 90
        0
176
     1
 62
   178
420
        0
176
     1
 90
       50
176
     1
 90
        3
176
     1
 62
     5
420
      255
176
     1
290
     0
176
     1
 90
       50
176
     1
 90
       50
176
     1
 90
       50
176
     1
290
     0
176
     1
 90
       50
176
     1
 62
   256
176
     0
 40
1.0
176
     0
 90
        2
176
     1
  1
strokes_ogs.tif
176
     1
290
     0
176
     1
 40
1.0
176
     1
 40
1.0
176
     1
  0
VISUALSTYLE
  5
1EE9
102
{ACAD_REACTORS
330
1EDE
102
}
330
1EDE
100
AcDbVisualStyle
  2
Dim
 70
    11
177
     3
291
     1
 70
    58
 90
        2
176
     1
 90
        2
176
     1
 90
        0
176
     1
 90
        0
176
     1
 40
0.6
176
     1
 40
30.0
176
     1
 62
     7
420
 16777215
176
     1
 90
        1
176
     1
 90
        4
176
     1
 62
     7
176
     1
 62
   257
176
     1
 90
        1
176
     1
 90
        1
176
     1
 40
1.0
176
     1
 90
        8
176
     1
 62
     7
176
     1
 40
1.0
176
     1
 90
        1
176
     1
 90
        6
176
     1
 90
        2
176
     1
 62
     7
176
     1
 90
        5
176
     1
 90
        0
176
     1
 90
        0
176
     1
290
     0
176
     1
 90
        1
176
     1
 40
-50.0
176
     1
 90
        0
176
     1
290
     0
176
     1
290
     1
176
     1
290
     1
176
     1
290
     0
176
     1
290
     0
176
     1
290
     0
176
     1
290
     0
176
     1
290
     0
176
     1
290
     0
176
     1
 90
       50
176
     1
 40
0.0
176
     1
 40
1.0
176
     1
 90
        0
176
     1
 62
   178
420
        0
176
     1
 90
       50
176
     1
 90
        3
176
     1
 62
     5
420
      255
176
     1
290
     0
176
     1
 90
       50
176
     1
 90
       50
176
     1
 90
       50
176
     1
290
     0
176
     1
 90
       50
176
     1
 62
   256
176
     0
 40
1.0
176
     0
 90
        2
176
     1
  1
strokes_ogs.tif
176
     1
290
     0
176
     1
 40
1.0
176
     1
 40
1.0
176
     1
  0
VISUALSTYLE
  5
1EF1
102
{ACAD_REACTORS
330
1EDE
102
}
330
1EDE
100
AcDbVisualStyle
  2
EdgeColorOff
 70
    22
177
     3
291
     1
 70
    58
 90
        2
176
     0
 90
        2
176
     0
 90
        0
176
     0
 90
        0
176
     0
 40
0.6
176
     0
 40
30.0
176
     0
 62
     7
420
 16777215
176
     0
 90
        1
176
     0
 90
        4
176
     0
 62
     7
176
     0
 62
   257
176
     0
 90
        1
176
     0
 90
        1
176
     0
 40
1.0
176
     0
 90
        8
176
     2
 62
     7
176
     0
 40
1.0
176
     0
 90
        1
176
     0
 90
        6
176
     0
 90
        2
176
     0
 62
     7
176
     0
 90
        5
176
     0
 90
        0
176
     0
 90
        0
176
     0
290
     0
176
     0
 90
        1
176
     0
 40
0.0
176
     0
 90
        0
176
     0
290
     0
176
     0
290
     1
176
     0
290
     1
176
     0
290
     0
176
     0
290
     0
176
     0
290
     0
176
     0
290
     0
176
     0
290
     0
176
     0
290
     0
176
     0
 90
       50
176
     0
 40
0.0
176
     0
 40
1.0
176
     0
 90
        0
176
     0
 62
   178
420
        0
176
     0
 90
       50
176
     0
 90
        3
176
     0
 62
     5
420
      255
176
     0
290
     0
176
     0
 90
       50
176
     0
 90
       50
176
     0
 90
       50
176
     0
290
     0
176
     0
 90
       50
176
     0
 62
   256
176
     0
 40
1.0
176
     0
 90
        2
176
     0
  1
strokes_ogs.tif
176
     0
290
     0
176
     0
 40
1.0
176
     0
 40
1.0
176
     0
  0
VISUALSTYLE
  5
1EED
102
{ACAD_REACTORS
330
1EDE
102
}
330
1EDE
100
AcDbVisualStyle
  2
Facepattern
 70
    15
177
     3
291
     1
 70
    58
 90
        2
176
     1
 90
        2
176
     1
 90
        0
176
     1
 90
        0
176
     1
 40
0.6
176
     1
 40
30.0
176
     1
 62
     7
420
 16777215
176
     1
 90
        1
176
     1
 90
        4
176
     1
 62
     7
176
     1
 62
   257
176
     1
 90
        1
176
     1
 90
        1
176
     1
 40
1.0
176
     1
 90
        8
176
     1
 62
     7
176
     1
 40
1.0
176
     1
 90
        1
176
     1
 90
        6
176
     1
 90
        2
176
     1
 62
     7
176
     1
 90
        5
176
     1
 90
        0
176
     1
 90
        0
176
     1
290
     0
176
     1
 90
        1
176
     1
 40
0.0
176
     1
 90
        0
176
     1
290
     0
176
     1
290
     1
176
     1
290
     1
176
     1
290
     0
176
     1
290
     0
176
     1
290
     0
176
     1
290
     0
176
     1
290
     0
176
     1
290
     0
176
     1
 90
       50
176
     1
 40
0.0
176
     1
 40
1.0
176
     1
 90
        0
176
     1
 62
   178
420
        0
176
     1
 90
       50
176
     1
 90
        3
176
     1
 62
     5
420
      255
176
     1
290
     0
176
     1
 90
       50
176
     1
 90
       50
176
     1
 90
       50
176
     1
290
     0
176
     1
 90
       50
176
     1
 62
   256
176
     0
 40
1.0
176
     0
 90
        2
176
     1
  1
strokes_ogs.tif
176
     1
290
     0
176
     1
 40
1.0
176
     1
 40
1.0
176
     1
  0
VISUALSTYLE
  5
1EDF
102
{ACAD_REACTORS
330
1EDE
102
}
330
1EDE
100
AcDbVisualStyle
  2
Flat
 70
     0
177
     3
291
     1
 70
    58
 90
        2
176
     1
 90
        1
176
     1
 90
        1
176
     1
 90
        2
176
     1
 40
0.6
176
     1
 40
30.0
176
     1
 62
     7
420
 16777215
176
     1
 90
        0
176
     1
 90
        0
176
     1
 62
     7
176
     1
 62
   257
176
     1
 90
        1
176
     1
 90
        1
176
     1
 40
1.0
176
     1
 90
        8
176
     1
 62
     7
176
     1
 40
1.0
176
     1
 90
        1
176
     1
 90
        6
176
     1
 90
        2
176
     1
 62
     7
176
     1
 90
        5
176
     1
 90
        0
176
     1
 90
        0
176
     1
290
     0
176
     1
 90
       13
176
     1
 40
0.0
176
     1
 90
        0
176
     1
290
     0
176
     1
290
     1
176
     1
290
     1
176
     1
290
     0
176
     1
290
     0
176
     1
290
     0
176
     1
290
     0
176
     1
290
     0
176
     1
290
     0
176
     1
 90
       50
176
     1
 40
0.0
176
     1
 40
1.0
176
     1
 90
        0
176
     1
 62
   178
420
        0
176
     1
 90
       50
176
     1
 90
        3
176
     1
 62
     5
420
      255
176
     1
290
     0
176
     1
 90
       50
176
     1
 90
       50
176
     1
 90
       50
176
     1
290
     0
176
     1
 90
       50
176
     1
 62
   256
176
     0
 40
1.0
176
     0
 90
        2
176
     1
  1
strokes_ogs.tif
176
     1
290
     0
176
     1
 40
1.0
176
     1
 40
1.0
176
     1
  0
VISUALSTYLE
  5
1EE0
102
{ACAD_REACTORS
330
1EDE
102
}
330
1EDE
100
AcDbVisualStyle
  2
FlatWithEdges
 70
     1
177
     3
291
     1
 70
    58
 90
        2
176
     1
 90
        1
176
     1
 90
        1
176
     1
 90
        2
176
     1
 40
0.6
176
     1
 40
30.0
176
     1
 62
     7
420
 16777215
176
     1
 90
        1
176
     1
 90
        0
176
     1
 62
     7
176
     1
 62
   257
176
     1
 90
        1
176
     1
 90
        1
176
     1
 40
1.0
176
     1
 90
        0
176
     1
 62
   257
176
     1
 40
1.0
176
     1
 90
        1
176
     1
 90
        6
176
     1
 90
        2
176
     1
 62
     7
176
     1
 90
        5
176
     1
 90
        0
176
     1
 90
        0
176
     1
290
     0
176
     1
 90
       13
176
     1
 40
0.0
176
     1
 90
        0
176
     1
290
     0
176
     1
290
     1
176
     1
290
     1
176
     1
290
     0
176
     1
290
     0
176
     1
290
     0
176
     1
290
     0
176
     1
290
     0
176
     1
290
     0
176
     1
 90
       50
176
     1
 40
0.0
176
     1
 40
1.0
176
     1
 90
        0
176
     1
 62
   178
420
        0
176
     1
 90
       50
176
     1
 90
        3
176
     1
 62
     5
420
      255
176
     1
290
     0
176
     1
 90
       50
176
     1
 90
       50
176
     1
 90
       50
176
     1
290
     0
176
     1
 90
       50
176
     1
 62
   256
176
     0
 40
1.0
176
     0
 90
        2
176
     1
  1
strokes_ogs.tif
176
     1
290
     0
176
     1
 40
1.0
176
     1
 40
1.0
176
     1
  0
VISUALSTYLE
  5
1EE1
102
{ACAD_REACTORS
330
1EDE
102
}
330
1EDE
100
AcDbVisualStyle
  2
Gouraud
 70
     2
177
     3
291
     1
 70
    58
 90
        2
176
     1
 90
        2
176
     1
 90
        1
176
     1
 90
        2
176
     1
 40
0.6
176
     1
 40
30.0
176
     1
 62
     7
420
 16777215
176
     1
 90
        0
176
     1
 90
        0
176
     1
 62
     7
176
     1
 62
   257
176
     1
 90
        1
176
     1
 90
        1
176
     1
 40
1.0
176
     1
 90
        0
176
     1
 62
     7
176
     1
 40
1.0
176
     1
 90
        1
176
     1
 90
        6
176
     1
 90
        2
176
     1
 62
     7
176
     1
 90
        5
176
     1
 90
        0
176
     1
 90
        0
176
     1
290
     0
176
     1
 90
       13
176
     1
 40
0.0
176
     1
 90
        0
176
     1
290
     0
176
     1
290
     1
176
     1
290
     1
176
     1
290
     0
176
     1
290
     0
176
     1
290
     0
176
     1
290
     0
176
     1
290
     0
176
     1
290
     0
176
     1
 90
       50
176
     1
 40
0.0
176
     1
 40
1.0
176
     1
 90
        0
176
     1
 62
   178
420
        0
176
     1
 90
       50
176
     1
 90
        3
176
     1
 62
     5
420
      255
176
     1
290
     0
176
     1
 90
       50
176
     1
 90
       50
176
     1
 90
       50
176
     1
290
     0
176
     1
 90
       50
176
     1
 62
   256
176
     0
 40
1.0
176
     0
 90
        2
176
     1
  1
strokes_ogs.tif
176
     1
290
     0
176
     1
 40
1.0
176
     1
 40
1.0
176
     1
  0
VISUALSTYLE
  5
1EE2
102
{ACAD_REACTORS
330
1EDE
102
}
330
1EDE
100
AcDbVisualStyle
  2
GouraudWithEdges
 70
     3
177
     3
291
     1
 70
    58
 90
        2
176
     1
 90
        2
176
     1
 90
        1
176
     1
 90
        2
176
     1
 40
0.6
176
     1
 40
30.0
176
     1
 62
     7
420
 16777215
176
     1
 90
        1
176
     1
 90
        0
176
     1
 62
     7
176
     1
 62
   257
176
     1
 90
        1
176
     1
 90
        1
176
     1
 40
1.0
176
     1
 90
        0
176
     1
 62
   257
176
     1
 40
1.0
176
     1
 90
        1
176
     1
 90
        6
176
     1
 90
        2
176
     1
 62
     7
176
     1
 90
        5
176
     1
 90
        0
176
     1
 90
        0
176
     1
290
     0
176
     1
 90
       13
176
     1
 40
0.0
176
     1
 90
        0
176
     1
290
     0
176
     1
290
     1
176
     1
290
     1
176
     1
290
     0
176
     1
290
     0
176
     1
290
     0
176
     1
290
     0
176
     1
290
     0
176
     1
290
     0
176
     1
 90
       50
176
     1
 40
0.0
176
     1
 40
1.0
176
     1
 90
        0
176
     1
 62
   178
420
        0
176
     1
 90
       50
176
     1
 90
        3
176
     1
 62
     5
420
      255
176
     1
290
     0
176
     1
 90
       50
176
     1
 90
       50
176
     1
 90
       50
176
     1
290
     0
176
     1
 90
       50
176
     1
 62
   256
176
     0
 40
1.0
176
     0
 90
        2
176
     1
  1
strokes_ogs.tif
176
     1
290
     0
176
     1
 40
1.0
176
     1
 40
1.0
176
     1
  0
VISUALSTYLE
  5
1EE5
102
{ACAD_REACTORS
330
1EDE
102
}
330
1EDE
100
AcDbVisualStyle
  2
Hidden
 70
     6
177
     3
291
     0
 70
    58
 90
        1
176
     1
 90
        2
176
     1
 90
        2
176
     1
 90
        0
176
     1
 40
0.6
176
     1
 40
30.0
176
     1
 62
     7
420
 16777215
176
     1
 90
        2
176
     1
 90
        2
176
     1
 62
     7
176
     1
 62
   257
176
     1
 90
        2
176
     1
 90
        1
176
     1
 40
40.0
176
     1
 90
        0
176
     1
 62
   257
176
     1
 40
1.0
176
     1
 90
        1
176
     1
 90
        6
176
     1
 90
        2
176
     1
 62
     7
176
     1
 90
        3
176
     1
 90
        0
176
     1
 90
        0
176
     1
290
     0
176
     1
 90
        1
176
     1
 40
0.0
176
     1
 90
        0
176
     1
290
     0
176
     1
290
     1
176
     1
290
     1
176
     1
290
     0
176
     1
290
     0
176
     1
290
     0
176
     1
290
     0
176
     1
290
     0
176
     1
290
     0
176
     1
 90
       50
176
     1
 40
0.0
176
     1
 40
1.0
176
     1
 90
        0
176
     1
 62
   178
420
        0
176
     1
 90
       50
176
     1
 90
        3
176
     1
 62
     5
420
      255
176
     1
290
     0
176
     1
 90
       50
176
     1
 90
       50
176
     1
 90
       50
176
     1
290
     0
176
     1
 90
       50
176
     1
 62
   256
176
     0
 40
1.0
176
     0
 90
        2
176
     1
  1
strokes_ogs.tif
176
     1
290
     0
176
     1
 40
1.0
176
     1
 40
1.0
176
     1
  0
VISUALSTYLE
  5
1EEF
102
{ACAD_REACTORS
330
1EDE
102
}
330
1EDE
100
AcDbVisualStyle
  2
JitterOff
 70
    20
177
     3
291
     1
 70
    58
 90
        2
176
     0
 90
        2
176
     0
 90
        0
176
     0
 90
        0
176
     0
 40
0.6
176
     0
 40
30.0
176
     0
 62
     7
420
 16777215
176
     0
 90
        1
176
     0
 90
        4
176
     0
 62
     7
176
     0
 62
   257
176
     0
 90
        1
176
     0
 90
        1
176
     0
 40
1.0
176
     0
 90
       10
176
     2
 62
     7
176
     0
 40
1.0
176
     0
 90
        1
176
     0
 90
        6
176
     0
 90
        2
176
     0
 62
     7
176
     0
 90
        5
176
     0
 90
        0
176
     0
 90
        0
176
     0
290
     0
176
     0
 90
        1
176
     0
 40
0.0
176
     0
 90
        0
176
     0
290
     0
176
     0
290
     1
176
     0
290
     1
176
     0
290
     0
176
     0
290
     0
176
     0
290
     0
176
     0
290
     0
176
     0
290
     0
176
     0
290
     0
176
     0
 90
       50
176
     0
 40
0.0
176
     0
 40
1.0
176
     0
 90
        0
176
     0
 62
   178
420
        0
176
     0
 90
       50
176
     0
 90
        3
176
     0
 62
     5
420
      255
176
     0
290
     0
176
     0
 90
       50
176
     0
 90
       50
176
     0
 90
       50
176
     0
290
     0
176
     0
 90
       50
176
     0
 62
   256
176
     0
 40
1.0
176
     0
 90
        2
176
     0
  1
strokes_ogs.tif
176
     0
290
     0
176
     0
 40
1.0
176
     0
 40
1.0
176
     0
  0
VISUALSTYLE
  5
1EEC
102
{ACAD_REACTORS
330
1EDE
102
}
330
1EDE
100
AcDbVisualStyle
  2
Linepattern
 70
    14
177
     3
291
     1
 70
    58
 90
        2
176
     1
 90
        2
176
     1
 90
        0
176
     1
 90
        0
176
     1
 40
0.6
176
     1
 40
30.0
176
     1
 62
     7
420
 16777215
176
     1
 90
        1
176
     1
 90
        4
176
     1
 62
     7
176
     1
 62
   257
176
     1
 90
        7
176
     1
 90
        7
176
     1
 40
1.0
176
     1
 90
        8
176
     1
 62
     7
176
     1
 40
1.0
176
     1
 90
        1
176
     1
 90
        6
176
     1
 90
        2
176
     1
 62
     7
176
     1
 90
        5
176
     1
 90
        0
176
     1
 90
        0
176
     1
290
     0
176
     1
 90
        1
176
     1
 40
0.0
176
     1
 90
        0
176
     1
290
     0
176
     1
290
     1
176
     1
290
     1
176
     1
290
     0
176
     1
290
     0
176
     1
290
     0
176
     1
290
     0
176
     1
290
     0
176
     1
290
     0
176
     1
 90
       50
176
     1
 40
0.0
176
     1
 40
1.0
176
     1
 90
        0
176
     1
 62
   178
420
        0
176
     1
 90
       50
176
     1
 90
        3
176
     1
 62
     5
420
      255
176
     1
290
     0
176
     1
 90
       50
176
     1
 90
       50
176
     1
 90
       50
176
     1
290
     0
176
     1
 90
       50
176
     1
 62
   256
176
     0
 40
1.0
176
     0
 90
        2
176
     1
  1
strokes_ogs.tif
176
     1
290
     0
176
     1
 40
1.0
176
     1
 40
1.0
176
     1
  0
VISUALSTYLE
  5
1EF0
102
{ACAD_REACTORS
330
1EDE
102
}
330
1EDE
100
AcDbVisualStyle
  2
OverhangOff
 70
    21
177
     3
291
     1
 70
    58
 90
        2
176
     0
 90
        2
176
     0
 90
        0
176
     0
 90
        0
176
     0
 40
0.6
176
     0
 40
30.0
176
     0
 62
     7
420
 16777215
176
     0
 90
        1
176
     0
 90
        4
176
     0
 62
     7
176
     0
 62
   257
176
     0
 90
        1
176
     0
 90
        1
176
     0
 40
1.0
176
     0
 90
        9
176
     2
 62
     7
176
     0
 40
1.0
176
     0
 90
        1
176
     0
 90
        6
176
     0
 90
        2
176
     0
 62
     7
176
     0
 90
        5
176
     0
 90
        0
176
     0
 90
        0
176
     0
290
     0
176
     0
 90
        1
176
     0
 40
0.0
176
     0
 90
        0
176
     0
290
     0
176
     0
290
     1
176
     0
290
     1
176
     0
290
     0
176
     0
290
     0
176
     0
290
     0
176
     0
290
     0
176
     0
290
     0
176
     0
290
     0
176
     0
 90
       50
176
     0
 40
0.0
176
     0
 40
1.0
176
     0
 90
        0
176
     0
 62
   178
420
        0
176
     0
 90
       50
176
     0
 90
        3
176
     0
 62
     5
420
      255
176
     0
290
     0
176
     0
 90
       50
176
     0
 90
       50
176
     0
 90
       50
176
     0
290
     0
176
     0
 90
       50
176
     0
 62
   256
176
     0
 40
1.0
176
     0
 90
        2
176
     0
  1
strokes_ogs.tif
176
     0
290
     0
176
     0
 40
1.0
176
     0
 40
1.0
176
     0
  0
VISUALSTYLE
  5
1EE7
102
{ACAD_REACTORS
330
1EDE
102
}
330
1EDE
100
AcDbVisualStyle
  2
Realistic
 70
     8
177
     3
291
     0
 70
    58
 90
        2
176
     1
 90
        3
176
     1
 90
        0
176
     1
 90
        2
176
     1
 40
0.6
176
     1
 40
30.0
176
     1
 62
     7
420
 16777215
176
     1
 90
        0
176
     1
 90
        0
176
     1
 62
     7
176
     1
 62
   257
176
     1
 90
        1
176
     1
 90
        1
176
     1
 40
1.0
176
     1
 90
        8
176
     1
 62
   257
176
     1
 40
1.0
176
     1
 90
        1
176
     1
 90
        6
176
     1
 90
        2
176
     1
 62
     7
176
     1
 90
        3
176
     1
 90
        0
176
     1
 90
        0
176
     1
290
     0
176
     1
 90
       13
176
     1
 40
0.0
176
     1
 90
        0
176
     1
290
     0
176
     1
290
     1
176
     1
290
     1
176
     1
290
     0
176
     1
290
     0
176
     1
290
     0
176
     1
290
     0
176
     1
290
     0
176
     1
290
     0
176
     1
 90
       50
176
     1
 40
0.0
176
     1
 40
1.0
176
     1
 90
        0
176
     1
 62
   178
420
        0
176
     1
 90
       50
176
     1
 90
        3
176
     1
 62
     5
420
      255
176
     1
290
     0
176
     1
 90
       50
176
     1
 90
       50
176
     1
 90
       50
176
     1
290
     0
176
     1
 90
       50
176
     1
 62
   256
176
     0
 40
1.0
176
     0
 90
        2
176
     1
  1
strokes_ogs.tif
176
     1
290
     0
176
     1
 40
1.0
176
     1
 40
1.0
176
     1
  0
VISUALSTYLE
  5
1EF6
102
{ACAD_REACTORS
330
1EDE
102
}
330
1EDE
100
AcDbVisualStyle
  2
Shaded
 70
    27
177
     3
291
     0
 70
    58
 90
        2
176
     1
 90
        2
176
     1
 90
        1
176
     1
 90
        2
176
     1
 40
0.6
176
     1
 40
30.0
176
     1
 62
     7
420
 16777215
176
     1
 90
        0
176
     1
 90
        4
176
     1
 62
     7
176
     1
 62
   257
176
     1
 90
        1
176
     1
 90
        1
176
     1
 40
1.0
176
     1
 90
        8
176
     1
 62
   257
176
     1
 40
1.0
176
     1
 90
        1
176
     1
 90
        6
176
     1
 90
        2
176
     1
 62
     8
420
  7895160
176
     1
 90
        3
176
     1
 90
        0
176
     1
 90
        0
176
     1
290
     0
176
     1
 90
        5
176
     1
 40
0.0
176
     1
 90
        0
176
     1
290
     0
176
     1
290
     1
176
     1
290
     1
176
     1
290
     0
176
     1
290
     0
176
     1
290
     0
176
     1
290
     0
176
     1
290
     0
176
     1
290
     0
176
     1
 90
       50
176
     1
 40
0.0
176
     1
 40
1.0
176
     1
 90
        0
176
     1
 62
   178
420
        0
176
     1
 90
       50
176
     1
 90
        3
176
     1
 62
     5
420
      255
176
     1
290
     0
176
     1
 90
       50
176
     1
 90
       50
176
     1
 90
       50
176
     1
290
     0
176
     1
 90
       50
176
     1
 62
   256
176
     0
 40
1.0
176
     0
 90
        2
176
     1
  1
strokes_ogs.tif
176
     1
290
     0
176
     1
 40
1.0
176
     1
 40
1.0
176
     1
  0
VISUALSTYLE
  5
1EF5
102
{ACAD_REACTORS
330
1EDE
102
}
330
1EDE
100
AcDbVisualStyle
  2
Shaded with edges
 70
    26
177
     3
291
     0
 70
    58
 90
        2
176
     1
 90
        2
176
     1
 90
        1
176
     1
 90
        2
176
     1
 40
0.6
176
     1
 40
30.0
176
     1
 62
     7
420
 16777215
176
     1
 90
        1
176
     1
 90
       10
176
     1
 62
     7
176
     1
 62
   257
176
     1
 90
        2
176
     1
 90
        1
176
     1
 40
1.0
176
     1
 90
        8
176
     1
 62
   257
176
     1
 40
1.0
176
     1
 90
        1
176
     1
 90
        6
176
     1
 90
        2
176
     1
 62
     7
176
     1
 90
        3
176
     1
 90
        0
176
     1
 90
        0
176
     1
290
     0
176
     1
 90
        5
176
     1
 40
0.0
176
     1
 90
        0
176
     1
290
     0
176
     1
290
     1
176
     1
290
     1
176
     1
290
     0
176
     1
290
     0
176
     1
290
     0
176
     1
290
     0
176
     1
290
     0
176
     1
290
     0
176
     1
 90
       50
176
     1
 40
0.0
176
     1
 40
1.0
176
     1
 90
        0
176
     1
 62
   178
420
        0
176
     1
 90
       50
176
     1
 90
        3
176
     1
 62
     5
420
      255
176
     1
290
     0
176
     1
 90
       50
176
     1
 90
       50
176
     1
 90
       50
176
     1
290
     0
176
     1
 90
       50
176
     1
 62
   256
176
     0
 40
1.0
176
     0
 90
        2
176
     1
  1
strokes_ogs.tif
176
     1
290
     0
176
     1
 40
1.0
176
     1
 40
1.0
176
     1
  0
VISUALSTYLE
  5
1EF2
102
{ACAD_REACTORS
330
1EDE
102
}
330
1EDE
100
AcDbVisualStyle
  2
Shades of Gray
 70
    23
177
     3
291
     0
 70
    58
 90
        2
176
     1
 90
        2
176
     1
 90
        3
176
     1
 90
        0
176
     1
 40
0.6
176
     1
 40
30.0
176
     1
 62
     7
420
 16777215
176
     1
 90
        2
176
     1
 90
        2
176
     1
 62
     7
176
     1
 62
     7
176
     1
 90
        1
176
     1
 90
        1
176
     1
 40
40.0
176
     1
 90
        8
176
     1
 62
     7
176
     1
 40
1.0
176
     1
 90
        1
176
     1
 90
        6
176
     1
 90
        2
176
     1
 62
     7
176
     1
 90
        3
176
     1
 90
        0
176
     1
 90
        0
176
     1
290
     0
176
     1
 90
        1
176
     1
 40
0.0
176
     1
 90
        0
176
     1
290
     0
176
     1
290
     1
176
     1
290
     1
176
     1
290
     0
176
     1
290
     0
176
     1
290
     0
176
     1
290
     0
176
     1
290
     0
176
     1
290
     0
176
     1
 90
       50
176
     1
 40
0.0
176
     1
 40
1.0
176
     1
 90
        0
176
     1
 62
   178
420
        0
176
     1
 90
       50
176
     1
 90
        3
176
     1
 62
     5
420
      255
176
     1
290
     0
176
     1
 90
       50
176
     1
 90
       50
176
     1
 90
       50
176
     1
290
     0
176
     1
 90
       50
176
     1
 62
   256
176
     0
 40
1.0
176
     0
 90
        2
176
     1
  1
strokes_ogs.tif
176
     1
290
     0
176
     1
 40
1.0
176
     1
 40
1.0
176
     1
  0
VISUALSTYLE
  5
1EF3
102
{ACAD_REACTORS
330
1EDE
102
}
330
1EDE
100
AcDbVisualStyle
  2
Sketchy
 70
    24
177
     3
291
     0
 70
    58
 90
        1
176
     1
 90
        2
176
     1
 90
        2
176
     1
 90
        0
176
     1
 40
0.6
176
     1
 40
30.0
176
     1
 62
     7
420
 16777215
176
     1
 90
        2
176
     1
 90
        2
176
     1
 62
     7
176
     1
 62
     7
176
     1
 90
        1
176
     1
 90
        1
176
     1
 40
40.0
176
     1
 90
       11
176
     1
 62
     7
176
     1
 40
1.0
176
     1
 90
        1
176
     1
 90
        6
176
     1
 90
        2
176
     1
 62
     7
176
     1
 90
        6
176
     1
 90
        0
176
     1
 90
        0
176
     1
290
     0
176
     1
 90
        1
176
     1
 40
0.0
176
     1
 90
        0
176
     1
290
     0
176
     1
290
     1
176
     1
290
     1
176
     1
290
     0
176
     1
290
     0
176
     1
290
     0
176
     1
290
     0
176
     1
290
     0
176
     1
290
     0
176
     1
 90
       50
176
     1
 40
0.0
176
     1
 40
1.0
176
     1
 90
        0
176
     1
 62
   178
420
        0
176
     1
 90
       50
176
     1
 90
        3
176
     1
 62
     5
420
      255
176
     1
290
     0
176
     1
 90
       50
176
     1
 90
       50
176
     1
 90
       50
176
     1
290
     0
176
     1
 90
       50
176
     1
 62
   256
176
     0
 40
1.0
176
     0
 90
        2
176
     1
  1
strokes_ogs.tif
176
     1
290
     0
176
     1
 40
1.0
176
     1
 40
1.0
176
     1
  0
VISUALSTYLE
  5
1EEB
102
{ACAD_REACTORS
330
1EDE
102
}
330
1EDE
100
AcDbVisualStyle
  2
Thicken
 70
    13
177
     3
291
     1
 70
    58
 90
        2
176
     1
 90
        2
176
     1
 90
        0
176
     1
 90
        0
176
     1
 40
0.6
176
     1
 40
30.0
176
     1
 62
     7
420
 16777215
176
     1
 90
        1
176
     1
 90
        4
176
     1
 62
     7
176
     1
 62
   257
176
     1
 90
        1
176
     1
 90
        1
176
     1
 40
1.0
176
     1
 90
       12
176
     1
 62
     7
176
     1
 40
1.0
176
     1
 90
        1
176
     1
 90
        6
176
     1
 90
        2
176
     1
 62
     7
176
     1
 90
        5
176
     1
 90
        0
176
     1
 90
        0
176
     1
290
     0
176
     1
 90
        1
176
     1
 40
0.0
176
     1
 90
        0
176
     1
290
     0
176
     1
290
     1
176
     1
290
     1
176
     1
290
     0
176
     1
290
     0
176
     1
290
     0
176
     1
290
     0
176
     1
290
     0
176
     1
290
     0
176
     1
 90
       50
176
     1
 40
0.0
176
     1
 40
1.0
176
     1
 90
        0
176
     1
 62
   178
420
        0
176
     1
 90
       50
176
     1
 90
        3
176
     1
 62
     5
420
      255
176
     1
290
     0
176
     1
 90
       50
176
     1
 90
       50
176
     1
 90
       50
176
     1
290
     0
176
     1
 90
       50
176
     1
 62
   256
176
     0
 40
1.0
176
     0
 90
        2
176
     1
  1
strokes_ogs.tif
176
     1
290
     0
176
     1
 40
1.0
176
     1
 40
1.0
176
     1
  0
VISUALSTYLE
  5
1EE4
102
{ACAD_REACTORS
330
1EDE
102
}
330
1EDE
100
AcDbVisualStyle
  2
Wireframe
 70
     5
177
     3
291
     0
 70
    58
 90
        0
176
     1
 90
        2
176
     1
 90
        0
176
     1
 90
        0
176
     1
 40
0.6
176
     1
 40
30.0
176
     1
 62
     7
420
 16777215
176
     1
 90
        1
176
     1
 90
        4
176
     1
 62
     7
176
     1
 62
   257
176
     1
 90
        1
176
     1
 90
        1
176
     1
 40
1.0
176
     1
 90
        0
176
     1
 62
   257
176
     1
 40
1.0
176
     1
 90
        1
176
     1
 90
        6
176
     1
 90
        2
176
     1
 62
     7
176
     1
 90
        3
176
     1
 90
        0
176
     1
 90
        0
176
     1
290
     0
176
     1
 90
        1
176
     1
 40
0.0
176
     1
 90
        0
176
     1
290
     0
176
     1
290
     1
176
     1
290
     1
176
     1
290
     0
176
     1
290
     0
176
     1
290
     0
176
     1
290
     0
176
     1
290
     0
176
     1
290
     0
176
     1
 90
       50
176
     1
 40
0.0
176
     1
 40
1.0
176
     1
 90
        0
176
     1
 62
   178
420
        0
176
     1
 90
       50
176
     1
 90
        3
176
     1
 62
     5
420
      255
176
     1
290
     0
176
     1
 90
       50
176
     1
 90
       50
176
     1
 90
       50
176
     1
290
     0
176
     1
 90
       50
176
     1
 62
   256
176
     0
 40
1.0
176
     0
 90
        2
176
     1
  1
strokes_ogs.tif
176
     1
290
     0
176
     1
 40
1.0
176
     1
 40
1.0
176
     1
  0
VISUALSTYLE
  5
1EF4
102
{ACAD_REACTORS
330
1EDE
102
}
330
1EDE
100
AcDbVisualStyle
  2
X-Ray
 70
    25
177
     3
291
     0
 70
    58
 90
        2
176
     1
 90
        2
176
     1
 90
        1
176
     1
 90
        1
176
     1
 40
0.5
176
     1
 40
30.0
176
     1
 62
     7
420
 16777215
176
     1
 90
        1
176
     1
 90
        0
176
     1
 62
     7
176
     1
 62
   257
176
     1
 90
        1
176
     1
 90
        1
176
     1
 40
1.0
176
     1
 90
        8
176
     1
 62
     7
176
     1
 40
1.0
176
     1
 90
        1
176
     1
 90
        6
176
     1
 90
        2
176
     1
 62
     7
176
     1
 90
        3
176
     1
 90
        0
176
     1
 90
        0
176
     1
290
     0
176
     1
 90
       13
176
     1
 40
0.0
176
     1
 90
        0
176
     1
290
     0
176
     1
290
     1
176
     1
290
     1
176
     1
290
     0
176
     1
290
     0
176
     1
290
     0
176
     1
290
     0
176
     1
290
     0
176
     1
290
     0
176
     1
 90
       50
176
     1
 40
0.0
176
     1
 40
1.0
176
     1
 90
        0
176
     1
 62
   178
420
        0
176
     1
 90
       50
176
     1
 90
        3
176
     1
 62
     5
420
      255
176
     1
290
     0
176
     1
 90
       50
176
     1
 90
       50
176
     1
 90
       50
176
     1
290
     0
176
     1
 90
       50
176
     1
 62
   256
176
     0
 40
1.0
176
     0
 90
        2
176
     1
  1
strokes_ogs.tif
176
     1
290
     0
176
     1
 40
1.0
176
     1
 40
1.0
176
     1
  0
DICTIONARYVAR
  5
1F29
102
{ACAD_REACTORS
330
13CA
102
}
330
13CA
100
DictionaryVariables
280
     0
  1
1:1
  0
DICTIONARYVAR
  5
1F2D
102
{ACAD_REACTORS
330
13CA
102
}
330
13CA
100
DictionaryVariables
280
     0
  1
Standard
  0
DICTIONARYVAR
  5
13CC
102
{ACAD_REACTORS
330
13CA
102
}
330
13CA
100
DictionaryVariables
280
     0
  1
2
  0
DICTIONARYVAR
  5
13CB
102
{ACAD_REACTORS
330
13CA
102
}
330
13CA
100
DictionaryVariables
280
     0
  1
1
  0
DICTIONARYVAR
  5
1F2F
102
{ACAD_REACTORS
330
13CA
102
}
330
13CA
100
DictionaryVariables
280
     0
  1
0
  0
DICTIONARYVAR
  5
13CD
102
{ACAD_REACTORS
330
13CA
102
}
330
13CA
100
DictionaryVariables
280
     0
  1

  0
DICTIONARY
  5
2493
330
1F1D
100
AcDbDictionary
280
     1
281
     1
  3
ACAD_ROUNDTRIP_2008_TABLESTYLE_CELLSTYLEMAP
360
2494
  0
CELLSTYLEMAP
  5
2494
102
{ACAD_REACTORS
330
2493
102
}
330
2493
100
AcDbCellStyleMap
 90
        3
300
CELLSTYLE
  1
TABLEFORMAT_BEGIN
 90
        5
170
     1
 91
        0
 92
        0
 62
   257
 93
        1
300
CONTENTFORMAT
  1
CONTENTFORMAT_BEGIN
 90
        0
 91
        0
 92
        4
 93
        0
300

 40
0.0
140
1.0
 94
        5
 62
     0
340
11
144
6.0
309
CONTENTFORMAT_END
171
     1
301
MARGIN
  1
CELLMARGIN_BEGIN
 40
1.5
 40
1.5
 40
1.5
 40
1.5
 40
1.5
 40
1.5
309
CELLMARGIN_END
 94
        6
 95
        1
302
GRIDFORMAT
  1
GRIDFORMAT_BEGIN
 90
        0
 91
        1
 62
     0
 92
       -2
340
14
 93
        0
 40
0.045
309
GRIDFORMAT_END
 95
        2
302
GRIDFORMAT
  1
GRIDFORMAT_BEGIN
 90
        0
 91
        1
 62
     0
 92
       -2
340
14
 93
        0
 40
0.045
309
GRIDFORMAT_END
 95
        4
302
GRIDFORMAT
  1
GRIDFORMAT_BEGIN
 90
        0
 91
        1
 62
     0
 92
       -2
340
14
 93
        0
 40
0.045
309
GRIDFORMAT_END
 95
        8
302
GRIDFORMAT
  1
GRIDFORMAT_BEGIN
 90
        0
 91
        1
 62
     0
 92
       -2
340
14
 93
        0
 40
0.045
309
GRIDFORMAT_END
 95
       16
302
GRIDFORMAT
  1
GRIDFORMAT_BEGIN
 90
        0
 91
        1
 62
     0
 92
       -2
340
14
 93
        0
 40
0.045
309
GRIDFORMAT_END
 95
       32
302
GRIDFORMAT
  1
GRIDFORMAT_BEGIN
 90
        0
 91
        1
 62
     0
 92
       -2
340
14
 93
        0
 40
0.045
309
GRIDFORMAT_END
309
TABLEFORMAT_END
  1
CELLSTYLE_BEGIN
 90
        1
 91
        1
300
_TITLE
309
CELLSTYLE_END
300
CELLSTYLE
  1
TABLEFORMAT_BEGIN
 90
        5
170
     1
 91
        0
 92
        0
 62
   257
 93
        1
300
CONTENTFORMAT
  1
CONTENTFORMAT_BEGIN
 90
        0
 91
        0
 92
        4
 93
        0
300

 40
0.0
140
1.0
 94
        5
 62
     0
340
11
144
4.5
309
CONTENTFORMAT_END
171
     1
301
MARGIN
  1
CELLMARGIN_BEGIN
 40
1.5
 40
1.5
 40
1.5
 40
1.5
 40
1.5
 40
1.5
309
CELLMARGIN_END
 94
        6
 95
        1
302
GRIDFORMAT
  1
GRIDFORMAT_BEGIN
 90
        0
 91
        1
 62
     0
 92
       -2
340
14
 93
        0
 40
0.045
309
GRIDFORMAT_END
 95
        2
302
GRIDFORMAT
  1
GRIDFORMAT_BEGIN
 90
        0
 91
        1
 62
     0
 92
       -2
340
14
 93
        0
 40
0.045
309
GRIDFORMAT_END
 95
        4
302
GRIDFORMAT
  1
GRIDFORMAT_BEGIN
 90
        0
 91
        1
 62
     0
 92
       -2
340
14
 93
        0
 40
0.045
309
GRIDFORMAT_END
 95
        8
302
GRIDFORMAT
  1
GRIDFORMAT_BEGIN
 90
        0
 91
        1
 62
     0
 92
       -2
340
14
 93
        0
 40
0.045
309
GRIDFORMAT_END
 95
       16
302
GRIDFORMAT
  1
GRIDFORMAT_BEGIN
 90
        0
 91
        1
 62
     0
 92
       -2
340
14
 93
        0
 40
0.045
309
GRIDFORMAT_END
 95
       32
302
GRIDFORMAT
  1
GRIDFORMAT_BEGIN
 90
        0
 91
        1
 62
     0
 92
       -2
340
14
 93
        0
 40
0.045
309
GRIDFORMAT_END
309
TABLEFORMAT_END
  1
CELLSTYLE_BEGIN
 90
        2
 91
        1
300
_HEADER
309
CELLSTYLE_END
300
CELLSTYLE
  1
TABLEFORMAT_BEGIN
 90
        5
170
     1
 91
        0
 92
        0
 62
   257
 93
        1
300
CONTENTFORMAT
  1
CONTENTFORMAT_BEGIN
 90
        0
 91
        0
 92
        4
 93
        0
300

 40
0.0
140
1.0
 94
        2
 62
     0
340
11
144
4.5
309
CONTENTFORMAT_END
171
     1
301
MARGIN
  1
CELLMARGIN_BEGIN
 40
1.5
 40
1.5
 40
1.5
 40
1.5
 40
1.5
 40
1.5
309
CELLMARGIN_END
 94
        6
 95
        1
302
GRIDFORMAT
  1
GRIDFORMAT_BEGIN
 90
        0
 91
        1
 62
     0
 92
       -2
340
14
 93
        0
 40
0.045
309
GRIDFORMAT_END
 95
        2
302
GRIDFORMAT
  1
GRIDFORMAT_BEGIN
 90
        0
 91
        1
 62
     0
 92
       -2
340
14
 93
        0
 40
0.045
309
GRIDFORMAT_END
 95
        4
302
GRIDFORMAT
  1
GRIDFORMAT_BEGIN
 90
        0
 91
        1
 62
     0
 92
       -2
340
14
 93
        0
 40
0.045
309
GRIDFORMAT_END
 95
        8
302
GRIDFORMAT
  1
GRIDFORMAT_BEGIN
 90
        0
 91
        1
 62
     0
 92
       -2
340
14
 93
        0
 40
0.045
309
GRIDFORMAT_END
 95
       16
302
GRIDFORMAT
  1
GRIDFORMAT_BEGIN
 90
        0
 91
        1
 62
     0
 92
       -2
340
14
 93
        0
 40
0.045
309
GRIDFORMAT_END
 95
       32
302
GRIDFORMAT
  1
GRIDFORMAT_BEGIN
 90
        0
 91
        1
 62
     0
 92
       -2
340
14
 93
        0
 40
0.045
309
GRIDFORMAT_END
309
TABLEFORMAT_END
  1
CELLSTYLE_BEGIN
 90
        3
 91
        2
300
_DATA
309
CELLSTYLE_END
  0
ENDSEC
  0
EOF
