  0
SECTION
  2
HEADER
  9
$ACADVER
  1
AC1027
  9
$ACADMAINTVER
 70
     8
  9
$DWGCODEPAGE
  3
ANSI_932
  9
$REQUIREDVERSIONS
160
                 0
  9
$LASTSAVEDBY
  1
akihiro
  9
$INSBASE
 10
0.0
 20
0.0
 30
0.0
  9
$EXTMIN
 10
20.05850719845596
 20
16.02288202360283
 30
0.0
  9
$EXTMAX
 10
258.5713596026419
 20
229.4568537055967
 30
0.0
  9
$LIMMIN
 10
0.0
 20
0.0
  9
$LIMMAX
 10
420.0
 20
297.0
  9
$ORTHOMODE
 70
     0
  9
$REGENMODE
 70
     1
  9
$FILLMODE
 70
     1
  9
$QTEXTMODE
 70
     0
  9
$MIRRTEXT
 70
     0
  9
$LTSCALE
 40
0.2
  9
$ATTMODE
 70
     1
  9
$TEXTSIZE
 40
3.0
  9
$TRACEWID
 40
1.0
  9
$TEXTSTYLE
  7
Standard
  9
$CLAYER
  8
文字
  9
$CELTYPE
  6
ByLayer
  9
$CECOLOR
 62
   256
  9
$CELTSCALE
 40
1.0
  9
$DISPSILH
 70
     0
  9
$DIMSCALE
 40
1.0
  9
$DIMASZ
 40
2.5
  9
$DIMEXO
 40
0.625
  9
$DIMDLI
 40
3.75
  9
$DIMRND
 40
0.0
  9
$DIMDLE
 40
0.0
  9
$DIMEXE
 40
1.25
  9
$DIMTP
 40
0.0
  9
$DIMTM
 40
0.0
  9
$DIMTXT
 40
2.5
  9
$DIMCEN
 40
2.5
  9
$DIMTSZ
 40
0.0
  9
$DIMTOL
 70
     0
  9
$DIMLIM
 70
     0
  9
$DIMTIH
 70
     0
  9
$DIMTOH
 70
     0
  9
$DIMSE1
 70
     0
  9
$DIMSE2
 70
     0
  9
$DIMTAD
 70
     1
  9
$DIMZIN
 70
     8
  9
$DIMBLK
  1

  9
$DIMASO
 70
     1
  9
$DIMSHO
 70
     1
  9
$DIMPOST
  1

  9
$DIMAPOST
  1

  9
$DIMALT
 70
     0
  9
$DIMALTD
 70
     3
  9
$DIMALTF
 40
0.03937007874016
  9
$DIMLFAC
 40
1.0
  9
$DIMTOFL
 70
     1
  9
$DIMTVP
 40
0.0
  9
$DIMTIX
 70
     0
  9
$DIMSOXD
 70
     0
  9
$DIMSAH
 70
     0
  9
$DIMBLK1
  1

  9
$DIMBLK2
  1

  9
$DIMSTYLE
  2
ISO-25
  9
$DIMCLRD
 70
     0
  9
$DIMCLRE
 70
     0
  9
$DIMCLRT
 70
     0
  9
$DIMTFAC
 40
1.0
  9
$DIMGAP
 40
0.625
  9
$DIMJUST
 70
     0
  9
$DIMSD1
 70
     0
  9
$DIMSD2
 70
     0
  9
$DIMTOLJ
 70
     0
  9
$DIMTZIN
 70
     8
  9
$DIMALTZ
 70
     0
  9
$DIMALTTZ
 70
     0
  9
$DIMUPT
 70
     0
  9
$DIMDEC
 70
     2
  9
$DIMTDEC
 70
     2
  9
$DIMALTU
 70
     2
  9
$DIMALTTD
 70
     3
  9
$DIMTXSTY
  7
Standard
  9
$DIMAUNIT
 70
     0
  9
$DIMADEC
 70
     0
  9
$DIMALTRND
 40
0.0
  9
$DIMAZIN
 70
     0
  9
$DIMDSEP
 70
    46
  9
$DIMATFIT
 70
     3
  9
$DIMFRAC
 70
     0
  9
$DIMLDRBLK
  1

  9
$DIMLUNIT
 70
     2
  9
$DIMLWD
 70
    -2
  9
$DIMLWE
 70
    -2
  9
$DIMTMOVE
 70
     0
  9
$DIMFXL
 40
1.0
  9
$DIMFXLON
 70
     0
  9
$DIMJOGANG
 40
0.7853981633974483
  9
$DIMTFILL
 70
     0
  9
$DIMTFILLCLR
 70
     0
  9
$DIMARCSYM
 70
     0
  9
$DIMLTYPE
  6

  9
$DIMLTEX1
  6

  9
$DIMLTEX2
  6

  9
$DIMTXTDIRECTION
 70
     0
  9
$LUNITS
 70
     2
  9
$LUPREC
 70
     4
  9
$SKETCHINC
 40
1.0
  9
$FILLETRAD
 40
2.0
  9
$AUNITS
 70
     0
  9
$AUPREC
 70
     0
  9
$MENU
  1
.
  9
$ELEVATION
 40
0.0
  9
$PELEVATION
 40
0.0
  9
$THICKNESS
 40
0.0
  9
$LIMCHECK
 70
     0
  9
$CHAMFERA
 40
0.0
  9
$CHAMFERB
 40
0.0
  9
$CHAMFERC
 40
0.0
  9
$CHAMFERD
 40
0.0
  9
$SKPOLY
 70
     0
  9
$TDCREATE
 40
2452936.788310359
  9
$TDUCREATE
 40
2452936.413310359
  9
$TDUPDATE
 40
2456721.674842257
  9
$TDUUPDATE
 40
2456721.299842257
  9
$TDINDWG
 40
0.9258595255
  9
$TDUSRTIMER
 40
2456721.298539363
  9
$USRTIMER
 70
     1
  9
$ANGBASE
 50
0.0
  9
$ANGDIR
 70
     0
  9
$PDMODE
 70
     0
  9
$PDSIZE
 40
0.0
  9
$PLINEWID
 40
0.0
  9
$SPLFRAME
 70
     0
  9
$SPLINETYPE
 70
     6
  9
$SPLINESEGS
 70
     8
  9
$HANDSEED
  5
1D05
  9
$SURFTAB1
 70
     6
  9
$SURFTAB2
 70
     6
  9
$SURFTYPE
 70
     6
  9
$SURFU
 70
     6
  9
$SURFV
 70
     6
  9
$UCSBASE
  2

  9
$UCSNAME
  2

  9
$UCSORG
 10
0.0
 20
0.0
 30
0.0
  9
$UCSXDIR
 10
1.0
 20
0.0
 30
0.0
  9
$UCSYDIR
 10
0.0
 20
1.0
 30
0.0
  9
$UCSORTHOREF
  2

  9
$UCSORTHOVIEW
 70
     0
  9
$UCSORGTOP
 10
0.0
 20
0.0
 30
0.0
  9
$UCSORGBOTTOM
 10
0.0
 20
0.0
 30
0.0
  9
$UCSORGLEFT
 10
0.0
 20
0.0
 30
0.0
  9
$UCSORGRIGHT
 10
0.0
 20
0.0
 30
0.0
  9
$UCSORGFRONT
 10
0.0
 20
0.0
 30
0.0
  9
$UCSORGBACK
 10
0.0
 20
0.0
 30
0.0
  9
$PUCSBASE
  2

  9
$PUCSNAME
  2

  9
$PUCSORG
 10
0.0
 20
0.0
 30
0.0
  9
$PUCSXDIR
 10
1.0
 20
0.0
 30
0.0
  9
$PUCSYDIR
 10
0.0
 20
1.0
 30
0.0
  9
$PUCSORTHOREF
  2

  9
$PUCSORTHOVIEW
 70
     0
  9
$PUCSORGTOP
 10
0.0
 20
0.0
 30
0.0
  9
$PUCSORGBOTTOM
 10
0.0
 20
0.0
 30
0.0
  9
$PUCSORGLEFT
 10
0.0
 20
0.0
 30
0.0
  9
$PUCSORGRIGHT
 10
0.0
 20
0.0
 30
0.0
  9
$PUCSORGFRONT
 10
0.0
 20
0.0
 30
0.0
  9
$PUCSORGBACK
 10
0.0
 20
0.0
 30
0.0
  9
$USERI1
 70
     0
  9
$USERI2
 70
     0
  9
$USERI3
 70
     0
  9
$USERI4
 70
     0
  9
$USERI5
 70
     0
  9
$USERR1
 40
0.0
  9
$USERR2
 40
0.0
  9
$USERR3
 40
0.0
  9
$USERR4
 40
0.0
  9
$USERR5
 40
0.0
  9
$WORLDVIEW
 70
     1
  9
$SHADEDGE
 70
     3
  9
$SHADEDIF
 70
    70
  9
$TILEMODE
 70
     1
  9
$MAXACTVP
 70
    64
  9
$PINSBASE
 10
0.0
 20
0.0
 30
0.0
  9
$PLIMCHECK
 70
     0
  9
$PEXTMIN
 10
0.0
 20
0.0
 30
0.0
  9
$PEXTMAX
 10
0.0
 20
0.0
 30
0.0
  9
$PLIMMIN
 10
-6.35
 20
-6.35
  9
$PLIMMAX
 10
413.8083333333333
 20
290.6888888888888
  9
$UNITMODE
 70
     0
  9
$VISRETAIN
 70
     1
  9
$PLINEGEN
 70
     0
  9
$PSLTSCALE
 70
     1
  9
$TREEDEPTH
 70
  3020
  9
$CMLSTYLE
  2
Standard
  9
$CMLJUST
 70
     0
  9
$CMLSCALE
 40
20.0
  9
$PROXYGRAPHICS
 70
     1
  9
$MEASUREMENT
 70
     1
  9
$CELWEIGHT
370
    -1
  9
$ENDCAPS
280
     0
  9
$JOINSTYLE
280
     0
  9
$LWDISPLAY
290
     0
  9
$INSUNITS
 70
     4
  9
$HYPERLINKBASE
  1

  9
$STYLESHEET
  1

  9
$XEDIT
290
     1
  9
$CEPSNTYPE
380
     0
  9
$PSTYLEMODE
290
     1
  9
$FINGERPRINTGUID
  2
{86E58535-AB5B-4AFE-AB1B-6758AAB7EA7D}
  9
$VERSIONGUID
  2
{5A888827-6C9F-4D78-9544-6DAA44738C4C}
  9
$EXTNAMES
290
     1
  9
$PSVPSCALE
 40
0.0
  9
$OLESTARTUP
290
     0
  9
$SORTENTS
280
   127
  9
$INDEXCTL
280
     0
  9
$HIDETEXT
280
     1
  9
$XCLIPFRAME
280
     2
  9
$HALOGAP
280
     0
  9
$OBSCOLOR
 70
   257
  9
$OBSLTYPE
280
     0
  9
$INTERSECTIONDISPLAY
280
     0
  9
$INTERSECTIONCOLOR
 70
   257
  9
$DIMASSOC
280
     2
  9
$PROJECTNAME
  1

  9
$CAMERADISPLAY
290
     0
  9
$LENSLENGTH
 40
50.0
  9
$CAMERAHEIGHT
 40
0.0
  9
$STEPSPERSEC
 40
2.0
  9
$STEPSIZE
 40
6.0
  9
$3DDWFPREC
 40
2.0
  9
$PSOLWIDTH
 40
0.25
  9
$PSOLHEIGHT
 40
4.0
  9
$LOFTANG1
 40
1.570796326794897
  9
$LOFTANG2
 40
1.570796326794897
  9
$LOFTMAG1
 40
0.0
  9
$LOFTMAG2
 40
0.0
  9
$LOFTPARAM
 70
     7
  9
$LOFTNORMALS
280
     1
  9
$LATITUDE
 40
37.795
  9
$LONGITUDE
 40
-122.394
  9
$NORTHDIRECTION
 40
0.0
  9
$TIMEZONE
 70
 -8000
  9
$LIGHTGLYPHDISPLAY
280
     1
  9
$TILEMODELIGHTSYNCH
280
     1
  9
$SOLIDHIST
280
     1
  9
$SHOWHIST
280
     1
  9
$DWFFRAME
280
     2
  9
$DGNFRAME
280
     2
  9
$REALWORLDSCALE
290
     1
  9
$INTERFERECOLOR
 62
   256
  9
$CSHADOW
280
     0
  9
$SHADOWPLANELOCATION
 40
0.0
  0
ENDSEC
  0
SECTION
  2
CLASSES
  0
CLASS
  1
ACDBDICTIONARYWDFLT
  2
AcDbDictionaryWithDefault
  3
ObjectDBX Classes
 90
        0
 91
        9
280
     0
281
     0
  0
CLASS
  1
DIMASSOC
  2
AcDbDimAssoc
  3
"AcDbDimAssoc|Product Desc:     AcDim ARX App For Dimension|Company:          Autodesk, Inc.|WEB Address:      www.autodesk.com"
 90
        0
 91
        6
280
     0
281
     0
  0
CLASS
  1
DICTIONARYVAR
  2
AcDbDictionaryVar
  3
ObjectDBX Classes
 90
        0
 91
        6
280
     0
281
     0
  0
CLASS
  1
ACDBPLACEHOLDER
  2
AcDbPlaceHolder
  3
ObjectDBX Classes
 90
        0
 91
        1
280
     0
281
     0
  0
CLASS
  1
LAYOUT
  2
AcDbLayout
  3
ObjectDBX Classes
 90
        0
 91
        1
280
     0
281
     0
  0
CLASS
  1
VISUALSTYLE
  2
AcDbVisualStyle
  3
ObjectDBX Classes
 90
     4095
 91
        9
280
     0
281
     0
  0
CLASS
  1
SCALE
  2
AcDbScale
  3
ObjectDBX Classes
 90
     1153
 91
        9
280
     0
281
     0
  0
CLASS
  1
MATERIAL
  2
AcDbMaterial
  3
ObjectDBX Classes
 90
     1153
 91
        9
280
     0
281
     0
  0
CLASS
  1
TABLESTYLE
  2
AcDbTableStyle
  3
ObjectDBX Classes
 90
     4095
 91
        9
280
     0
281
     0
  0
CLASS
  1
SUN
  2
AcDbSun
  3
SCENEOE
 90
     1153
 91
        9
280
     0
281
     0
  0
CLASS
  1
RASTERVARIABLES
  2
AcDbRasterVariables
  3
ISM
 90
        0
 91
        9
280
     0
281
     0
  0
CLASS
  1
CELLSTYLEMAP
  2
AcDbCellStyleMap
  3
ObjectDBX Classes
 90
     1152
 91
        6
280
     0
281
     0
  0
ENDSEC
  0
SECTION
  2
TABLES
  0
TABLE
  2
VPORT
  5
8
330
0
100
AcDbSymbolTable
 70
     1
  0
VPORT
  5
1C71
330
8
100
AcDbSymbolTableRecord
100
AcDbViewportTableRecord
  2
*Active
 70
     0
 10
0.0
 20
0.0
 11
1.0
 21
1.0
 12
139.3149334005489
 22
122.7398678645998
 13
0.0
 23
0.0
 14
10.0
 24
10.0
 15
10.0
 25
10.0
 16
0.0
 26
0.0
 36
1.0
 17
0.0
 27
0.0
 37
0.0
 40
220.6925350031303
 41
1.102362204724409
 42
50.0
 43
0.0
 44
0.0
 50
0.0
 51
0.0
 71
    16
 72
  1000
 73
     1
 74
     3
 75
     0
 76
     0
 77
     0
 78
     0
281
     0
 65
     1
110
0.0
120
0.0
130
0.0
111
1.0
121
0.0
131
0.0
112
0.0
122
1.0
132
0.0
 79
     0
146
0.0
348
1C82
 60
     3
 61
     5
292
     1
282
     1
141
0.0
142
0.0
 63
   256
361
1CC7
  0
ENDTAB
  0
TABLE
  2
LTYPE
  5
5
330
0
100
AcDbSymbolTable
 70
     6
  0
LTYPE
  5
14
330
5
100
AcDbSymbolTableRecord
100
AcDbLinetypeTableRecord
  2
ByBlock
 70
     0
  3

 72
    65
 73
     0
 40
0.0
  0
LTYPE
  5
15
330
5
100
AcDbSymbolTableRecord
100
AcDbLinetypeTableRecord
  2
ByLayer
 70
     0
  3

 72
    65
 73
     0
 40
0.0
  0
LTYPE
  5
16
330
5
100
AcDbSymbolTableRecord
100
AcDbLinetypeTableRecord
  2
Continuous
 70
     0
  3
Solid line
 72
    65
 73
     0
 40
0.0
  0
LTYPE
  5
35
330
5
100
AcDbSymbolTableRecord
100
AcDbLinetypeTableRecord
  2
ACAD_ISO08W100
 70
     0
  3
ISO long-dash short-dash ____ __ ____ __ ____ _
 72
    65
 73
     4
 40
36.0
 49
24.0
 74
     0
 49
-3.0
 74
     0
 49
6.0
 74
     0
 49
-3.0
 74
     0
  0
LTYPE
  5
127
330
5
100
AcDbSymbolTableRecord
100
AcDbLinetypeTableRecord
  2
HIDDENX2
 70
     0
  3
Hidden (2x) ____ ____ ____ ____ ____ ____ ____
 72
    65
 73
     2
 40
19.05
 49
12.7
 74
     0
 49
-6.35
 74
     0
  0
LTYPE
  5
5EC
330
5
100
AcDbSymbolTableRecord
100
AcDbLinetypeTableRecord
  2
CENTER
 70
     0
  3
Center ____ _ ____ _ ____ _ ____ _ ____ _ ____
 72
    65
 73
     4
 40
50.8
 49
31.75
 74
     0
 49
-6.35
 74
     0
 49
6.35
 74
     0
 49
-6.35
 74
     0
  0
LTYPE
  5
5ED
330
5
100
AcDbSymbolTableRecord
100
AcDbLinetypeTableRecord
  2
ACAD_ISO02W100
 70
     0
  3
ISO dash __ __ __ __ __ __ __ __ __ __ __ __ __
 72
    65
 73
     2
 40
15.0
 49
12.0
 74
     0
 49
-3.0
 74
     0
  0
LTYPE
  5
605
330
5
100
AcDbSymbolTableRecord
100
AcDbLinetypeTableRecord
  2
DASHED
 70
     0
  3
Dashed __ __ __ __ __ __ __ __ __ __ __ __ __ _
 72
    65
 73
     2
 40
19.05
 49
12.7
 74
     0
 49
-6.35
 74
     0
  0
ENDTAB
  0
TABLE
  2
LAYER
  5
2
330
0
100
AcDbSymbolTable
 70
     9
  0
LAYER
  5
10
330
2
100
AcDbSymbolTableRecord
100
AcDbLayerTableRecord
  2
0
 70
     0
 62
     7
  6
Continuous
370
    -3
390
F
347
1CBA
348
0
  0
LAYER
  5
2E
330
2
100
AcDbSymbolTableRecord
100
AcDbLayerTableRecord
  2
枠
 70
     0
 62
     1
  6
Continuous
370
    30
390
F
347
1CBA
348
0
  0
LAYER
  5
2F
330
2
100
AcDbSymbolTableRecord
100
AcDbLayerTableRecord
  2
文字
 70
     0
 62
     7
  6
Continuous
370
    18
390
F
347
1CBA
348
0
  0
LAYER
  5
36
330
2
100
AcDbSymbolTableRecord
100
AcDbLayerTableRecord
  2
中心線
 70
     0
 62
     7
  6
CENTER
370
    15
390
F
347
1CBA
348
0
  0
LAYER
  5
52
330
2
100
AcDbSymbolTableRecord
100
AcDbLayerTableRecord
  2
隠れ線
 70
     0
 62
     2
  6
Continuous
290
     0
370
    -3
390
F
347
1CBA
348
0
  0
LAYER
  5
128
330
2
100
AcDbSymbolTableRecord
100
AcDbLayerTableRecord
  2
実線
 70
     0
 62
     7
  6
Continuous
370
    20
390
F
347
1CBA
348
0
  0
LAYER
  5
129
330
2
100
AcDbSymbolTableRecord
100
AcDbLayerTableRecord
  2
破線
 70
     0
 62
     7
  6
DASHED
370
    15
390
F
347
1CBA
348
0
  0
LAYER
  5
677
330
2
100
AcDbSymbolTableRecord
100
AcDbLayerTableRecord
  2
Defpoints
 70
     0
 62
     7
  6
Continuous
290
     0
370
    -3
390
F
347
1CBA
348
0
  0
LAYER
  5
1CDA
330
2
100
AcDbSymbolTableRecord
100
AcDbLayerTableRecord
  2
文字・寸法線
 70
     0
 62
     7
  6
Continuous
370
    -3
390
F
347
1CBA
348
0
  0
ENDTAB
  0
TABLE
  2
STYLE
  5
3
330
0
100
AcDbSymbolTable
 70
     2
  0
STYLE
  5
11
330
3
100
AcDbSymbolTableRecord
100
AcDbTextStyleTableRecord
  2
Standard
 70
     0
 40
0.0
 41
1.0
 50
0.0
 71
     0
 42
3.0
  3
txt.shx
  4
bigfont.shx
  0
STYLE
  5
34
330
3
100
AcDbSymbolTableRecord
100
AcDbTextStyleTableRecord
  2

 70
     1
 40
0.0
 41
1.0
 50
0.0
 71
     0
 42
2.5
  3
ltypeshp.shx
  4

  0
ENDTAB
  0
TABLE
  2
VIEW
  5
6
330
0
100
AcDbSymbolTable
 70
     0
  0
ENDTAB
  0
TABLE
  2
UCS
  5
7
330
0
100
AcDbSymbolTable
 70
     0
  0
ENDTAB
  0
TABLE
  2
APPID
  5
9
330
0
100
AcDbSymbolTable
 70
     4
  0
APPID
  5
12
330
9
100
AcDbSymbolTableRecord
100
AcDbRegAppTableRecord
  2
ACAD
 70
     0
  0
APPID
  5
1282
330
9
100
AcDbSymbolTableRecord
100
AcDbRegAppTableRecord
  2
ACAD_DIMASSOC_CALC_DIMLFAC
 70
     0
  0
APPID
  5
1283
330
9
100
AcDbSymbolTableRecord
100
AcDbRegAppTableRecord
  2
ACAD_DIMASSOC_DIMLFAC
 70
     0
  0
APPID
  5
1284
330
9
100
AcDbSymbolTableRecord
100
AcDbRegAppTableRecord
  2
ACAD_DIMASSOC_OVERRIDDEN_DIMLFAC
 70
     0
  0
ENDTAB
  0
TABLE
  2
DIMSTYLE
  5
A
330
0
100
AcDbSymbolTable
 70
     1
100
AcDbDimStyleTable
  0
DIMSTYLE
105
29
102
{ACAD_REACTORS
330
1B51
330
1B5E
330
1B61
330
1B64
330
1B67
330
1B6E
330
1B89
330
1B8C
102
}
330
A
100
AcDbSymbolTableRecord
100
AcDbDimStyleTableRecord
  2
ISO-25
 70
     0
 41
2.5
 42
0.625
 43
3.75
 44
1.25
 73
     0
 74
     0
 77
     1
 78
     8
140
2.5
141
2.5
143
0.03937007874016
147
0.625
171
     3
172
     1
178
     0
271
     2
272
     2
274
     3
283
     0
284
     8
340
11
  0
ENDTAB
  0
TABLE
  2
BLOCK_RECORD
  5
1
330
0
100
AcDbSymbolTable
 70
    23
  0
BLOCK_RECORD
  5
21
330
1
100
AcDbSymbolTableRecord
100
AcDbBlockTableRecord
  2
*Model_Space
340
24
 70
     0
280
     1
281
     0
  0
BLOCK_RECORD
  5
1CC0
330
1
100
AcDbSymbolTableRecord
100
AcDbBlockTableRecord
  2
*Paper_Space
340
1CC1
 70
     0
280
     1
281
     0
  0
BLOCK_RECORD
  5
1581
330
1
100
AcDbSymbolTableRecord
100
AcDbBlockTableRecord
  2
_Dot
340
0
 70
     0
280
     1
281
     0
  0
BLOCK_RECORD
  5
1591
330
1
100
AcDbSymbolTableRecord
100
AcDbBlockTableRecord
  2
_None
340
0
 70
     0
280
     1
281
     0
  0
BLOCK_RECORD
  5
15A6
330
1
100
AcDbSymbolTableRecord
100
AcDbBlockTableRecord
  2
_DatumFilled
340
0
 70
     0
280
     1
281
     0
  0
BLOCK_RECORD
  5
16CF
330
1
100
AcDbSymbolTableRecord
100
AcDbBlockTableRecord
  2
_DotSmall
340
0
 70
     0
280
     1
281
     0
  0
BLOCK_RECORD
  5
1992
330
1
100
AcDbSymbolTableRecord
100
AcDbBlockTableRecord
  2
*D4
340
0
 70
     0
280
     1
281
     0
  0
BLOCK_RECORD
  5
199E
330
1
100
AcDbSymbolTableRecord
100
AcDbBlockTableRecord
  2
*D5
340
0
 70
     0
280
     1
281
     0
  0
BLOCK_RECORD
  5
19AC
330
1
100
AcDbSymbolTableRecord
100
AcDbBlockTableRecord
  2
*D6
340
0
 70
     0
280
     1
281
     0
  0
BLOCK_RECORD
  5
19B8
330
1
100
AcDbSymbolTableRecord
100
AcDbBlockTableRecord
  2
*D7
340
0
 70
     0
280
     1
281
     0
  0
BLOCK_RECORD
  5
19C4
330
1
100
AcDbSymbolTableRecord
100
AcDbBlockTableRecord
  2
*D8
340
0
 70
     0
280
     1
281
     0
  0
BLOCK_RECORD
  5
19D0
330
1
100
AcDbSymbolTableRecord
100
AcDbBlockTableRecord
  2
*D9
340
0
 70
     0
280
     1
281
     0
  0
BLOCK_RECORD
  5
19DC
330
1
100
AcDbSymbolTableRecord
100
AcDbBlockTableRecord
  2
*D10
340
0
 70
     0
280
     1
281
     0
  0
BLOCK_RECORD
  5
19ED
330
1
100
AcDbSymbolTableRecord
100
AcDbBlockTableRecord
  2
*D11
340
0
 70
     0
280
     1
281
     0
  0
BLOCK_RECORD
  5
19F9
330
1
100
AcDbSymbolTableRecord
100
AcDbBlockTableRecord
  2
*D12
340
0
 70
     0
280
     1
281
     0
  0
BLOCK_RECORD
  5
1A05
330
1
100
AcDbSymbolTableRecord
100
AcDbBlockTableRecord
  2
A$C76A36C9E
340
0
 70
     0
280
     1
281
     0
  0
BLOCK_RECORD
  5
1B8F
330
1
100
AcDbSymbolTableRecord
100
AcDbBlockTableRecord
  2
*D14
340
0
 70
     0
280
     1
281
     0
  0
BLOCK_RECORD
  5
1B9B
330
1
100
AcDbSymbolTableRecord
100
AcDbBlockTableRecord
  2
*D15
340
0
 70
     0
280
     1
281
     0
  0
BLOCK_RECORD
  5
1BA7
330
1
100
AcDbSymbolTableRecord
100
AcDbBlockTableRecord
  2
*D16
340
0
 70
     0
280
     1
281
     0
  0
BLOCK_RECORD
  5
1BB3
330
1
100
AcDbSymbolTableRecord
100
AcDbBlockTableRecord
  2
*D17
340
0
 70
     0
280
     1
281
     0
  0
BLOCK_RECORD
  5
1BBF
330
1
100
AcDbSymbolTableRecord
100
AcDbBlockTableRecord
  2
*D18
340
0
 70
     0
280
     1
281
     0
  0
BLOCK_RECORD
  5
1BCB
330
1
100
AcDbSymbolTableRecord
100
AcDbBlockTableRecord
  2
*D19
340
0
 70
     0
280
     1
281
     0
  0
BLOCK_RECORD
  5
1BD7
330
1
100
AcDbSymbolTableRecord
100
AcDbBlockTableRecord
  2
*D20
340
0
 70
     0
280
     1
281
     0
  0
BLOCK_RECORD
  5
1BE3
330
1
100
AcDbSymbolTableRecord
100
AcDbBlockTableRecord
  2
*D21
340
0
 70
     0
280
     1
281
     0
  0
BLOCK_RECORD
  5
1BFB
330
1
100
AcDbSymbolTableRecord
100
AcDbBlockTableRecord
  2
*D22
340
0
 70
     0
280
     1
281
     0
  0
ENDTAB
  0
ENDSEC
  0
SECTION
  2
BLOCKS
  0
BLOCK
  5
22
330
21
100
AcDbEntity
  8
0
100
AcDbBlockBegin
  2
*Model_Space
 70
     0
 10
0.0
 20
0.0
 30
0.0
  3
*Model_Space
  1
*Model_Space
  0
ENDBLK
  5
23
330
21
100
AcDbEntity
  8
0
100
AcDbBlockEnd
  0
BLOCK
  5
1CC2
330
1CC0
100
AcDbEntity
 67
     1
  8
0
100
AcDbBlockBegin
  2
*Paper_Space
 70
     0
 10
0.0
 20
0.0
 30
0.0
  3
*Paper_Space
  1
*Paper_Space
  0
ENDBLK
  5
1CC3
330
1CC0
100
AcDbEntity
 67
     1
  8
0
100
AcDbBlockEnd
  0
BLOCK
  5
1584
330
1581
100
AcDbEntity
  8
0
 62
     0
100
AcDbBlockBegin
  2
_Dot
 70
     0
 10
0.0
 20
0.0
 30
0.0
  3
_Dot
  1
_Dot
  0
LWPOLYLINE
  5
1582
330
1581
100
AcDbEntity
  8
0
  6
ByBlock
 62
     0
100
AcDbPolyline
 90
        2
 70
     1
 43
0.5
 10
-0.25
 20
0.0
 42
1.0
 10
0.25
 20
0.0
 42
1.0
  0
LINE
  5
1583
330
1581
100
AcDbEntity
  8
0
  6
ByBlock
 62
     0
370
    -2
100
AcDbLine
 10
-0.5
 20
0.0
 30
0.0
 11
-1.0
 21
0.0
 31
0.0
  0
ENDBLK
  5
1585
330
1581
100
AcDbEntity
  8
0
 62
     0
100
AcDbBlockEnd
  0
BLOCK
  5
1592
330
1591
100
AcDbEntity
  8
0
 62
     0
100
AcDbBlockBegin
  2
_None
 70
     0
 10
0.0
 20
0.0
 30
0.0
  3
_None
  1
_None
  0
ENDBLK
  5
1593
330
1591
100
AcDbEntity
  8
0
 62
     0
100
AcDbBlockEnd
  0
BLOCK
  5
15A8
330
15A6
100
AcDbEntity
  8
0
 62
     0
100
AcDbBlockBegin
  2
_DatumFilled
 70
     0
 10
0.0
 20
0.0
 30
0.0
  3
_DatumFilled
  1
_DatumFilled
  0
SOLID
  5
15A7
330
15A6
100
AcDbEntity
  8
0
  6
ByBlock
 62
     0
100
AcDbTrace
 10
0.0
 20
0.57735027
 30
0.0
 11
-1.0
 21
0.0
 31
0.0
 12
0.0
 22
-0.57735027
 32
0.0
 13
0.0
 23
-0.57735027
 33
0.0
  0
ENDBLK
  5
15A9
330
15A6
100
AcDbEntity
  8
0
 62
     0
100
AcDbBlockEnd
  0
BLOCK
  5
16D1
330
16CF
100
AcDbEntity
  8
0
 62
     0
100
AcDbBlockBegin
  2
_DotSmall
 70
     0
 10
0.0
 20
0.0
 30
0.0
  3
_DotSmall
  1
_DotSmall
  0
LWPOLYLINE
  5
16D0
330
16CF
100
AcDbEntity
  8
0
  6
ByBlock
 62
     0
100
AcDbPolyline
 90
        2
 70
     1
 43
0.5
 10
-0.0625
 20
0.0
 42
1.0
 10
0.0625
 20
0.0
 42
1.0
  0
ENDBLK
  5
16D2
330
16CF
100
AcDbEntity
  8
0
 62
     0
100
AcDbBlockEnd
  0
BLOCK
  5
1993
330
1992
100
AcDbEntity
  8
0
370
    30
100
AcDbBlockBegin
  2
*D4
 70
     1
 10
0.0
 20
0.0
 30
0.0
  3
*D4
  1
*D13
  0
LINE
  5
1994
330
1992
100
AcDbEntity
  8
文字
 62
     0
370
    -2
100
AcDbLine
 10
192.2214242466307
 20
115.3847432098993
 30
0.0
 11
192.2214242466307
 21
74.91396239368606
 31
0.0
  0
LINE
  5
1995
330
1992
100
AcDbEntity
  8
文字
 62
     0
370
    -2
100
AcDbLine
 10
220.2214242466307
 20
115.3847432098993
 30
0.0
 11
220.2214242466307
 21
74.91396239368606
 31
0.0
  0
LINE
  5
1996
330
1992
100
AcDbEntity
  8
文字
 62
     0
370
    -2
100
AcDbLine
 10
194.7214242466307
 20
76.16396239368606
 30
0.0
 11
217.7214242466307
 21
76.16396239368606
 31
0.0
  0
SOLID
  5
1997
330
1992
100
AcDbEntity
  8
文字
 62
     0
100
AcDbTrace
 10
194.7214242466307
 20
76.58062906035273
 30
0.0
 11
194.7214242466307
 21
75.74729572701939
 31
0.0
 12
192.2214242466307
 22
76.16396239368606
 32
0.0
 13
192.2214242466307
 23
76.16396239368606
 33
0.0
  0
SOLID
  5
1998
330
1992
100
AcDbEntity
  8
文字
 62
     0
100
AcDbTrace
 10
217.7214242466307
 20
76.58062906035273
 30
0.0
 11
217.7214242466307
 21
75.74729572701939
 31
0.0
 12
220.2214242466307
 22
76.16396239368606
 32
0.0
 13
220.2214242466307
 23
76.16396239368606
 33
0.0
  0
MTEXT
  5
1999
330
1992
100
AcDbEntity
  8
文字
 62
     0
100
AcDbMText
 10
206.2214242466307
 20
78.03896239368606
 30
0.0
 40
2.5
 41
0.0
 46
0.0
 71
     5
 72
     1
  1
%%c28
 73
     1
 44
1.0
  0
POINT
  5
199A
330
1992
100
AcDbEntity
  8
Defpoints
 62
     0
100
AcDbPoint
 10
192.2214242466307
 20
116.0097432098993
 30
0.0
  0
POINT
  5
199B
330
1992
100
AcDbEntity
  8
Defpoints
 62
     0
100
AcDbPoint
 10
220.2214242466307
 20
116.0097432098993
 30
0.0
  0
POINT
  5
199C
330
1992
100
AcDbEntity
  8
Defpoints
 62
     0
100
AcDbPoint
 10
220.2214242466307
 20
76.16396239368606
 30
0.0
  0
ENDBLK
  5
199D
330
1992
100
AcDbEntity
  8
0
370
    30
100
AcDbBlockEnd
  0
BLOCK
  5
199F
330
199E
100
AcDbEntity
  8
0
370
    30
100
AcDbBlockBegin
  2
*D5
 70
     1
 10
0.0
 20
0.0
 30
0.0
  3
*D5
  1
*D14
  0
LINE
  5
19A0
330
199E
100
AcDbEntity
  8
文字
 62
     0
370
    -2
100
AcDbLine
 10
71.59625003018851
 20
83.94882055485836
 30
0.0
 11
55.97592567393417
 21
83.94882055485836
 31
0.0
  0
LINE
  5
19A1
330
199E
100
AcDbEntity
  8
文字
 62
     0
370
    -2
100
AcDbLine
 10
71.59625003018851
 20
82.34882055485836
 30
0.0
 11
55.97592567393417
 21
82.34882055485836
 31
0.0
  0
LINE
  5
19A2
330
199E
100
AcDbEntity
  8
文字
 62
     0
370
    -2
100
AcDbLine
 10
57.22592567393417
 20
86.44882055485836
 30
0.0
 11
57.22592567393417
 21
88.94882055485836
 31
0.0
  0
LINE
  5
19A3
330
199E
100
AcDbEntity
  8
文字
 62
     0
370
    -2
100
AcDbLine
 10
57.22592567393416
 20
79.84882055485836
 30
0.0
 11
57.22592567393416
 21
71.93215388819169
 31
0.0
  0
LINE
  5
19A4
330
199E
100
AcDbEntity
  8
文字
 62
     0
370
    -2
100
AcDbLine
 10
57.22592567393417
 20
83.94882055485836
 30
0.0
 11
57.22592567393417
 21
82.34882055485836
 31
0.0
  0
SOLID
  5
19A5
330
199E
100
AcDbEntity
  8
文字
 62
     0
100
AcDbTrace
 10
56.80925900726751
 20
86.44882055485836
 30
0.0
 11
57.64259234060084
 21
86.44882055485836
 31
0.0
 12
57.22592567393417
 22
83.94882055485836
 32
0.0
 13
57.22592567393417
 23
83.94882055485836
 33
0.0
  0
SOLID
  5
19A6
330
199E
100
AcDbEntity
  8
文字
 62
     0
100
AcDbTrace
 10
56.8092590072675
 20
79.84882055485836
 30
0.0
 11
57.64259234060083
 21
79.84882055485836
 31
0.0
 12
57.22592567393417
 22
82.34882055485836
 32
0.0
 13
57.22592567393417
 23
82.34882055485836
 33
0.0
  0
MTEXT
  5
19A7
330
199E
100
AcDbEntity
  8
文字
 62
     0
100
AcDbMText
 10
55.35092567393416
 20
74.64048722152505
 30
0.0
 40
2.5
 41
0.0
 46
0.0
 71
     5
 72
     1
  1
1.5
 11
6.123031769111886E-17
 21
1.0
 31
0.0
 73
     1
 44
1.0
  0
POINT
  5
19A8
330
199E
100
AcDbEntity
  8
Defpoints
 62
     0
100
AcDbPoint
 10
72.22125003018851
 20
83.94882055485836
 30
0.0
  0
POINT
  5
19A9
330
199E
100
AcDbEntity
  8
Defpoints
 62
     0
100
AcDbPoint
 10
72.22125003018851
 20
82.34882055485836
 30
0.0
  0
POINT
  5
19AA
330
199E
100
AcDbEntity
  8
Defpoints
 62
     0
100
AcDbPoint
 10
57.22592567393417
 20
82.34882055485836
 30
0.0
  0
ENDBLK
  5
19AB
330
199E
100
AcDbEntity
  8
0
370
    30
100
AcDbBlockEnd
  0
BLOCK
  5
19AD
330
19AC
100
AcDbEntity
  8
0
370
    30
100
AcDbBlockBegin
  2
*D6
 70
     1
 10
0.0
 20
0.0
 30
0.0
  3
*D6
  1
*D15
  0
LINE
  5
19AE
330
19AC
100
AcDbEntity
  8
文字
 62
     0
370
    -2
100
AcDbLine
 10
199.7262337182474
 20
115.3847432098993
 30
0.0
 11
199.7262337182474
 21
82.51985031794277
 31
0.0
  0
LINE
  5
19AF
330
19AC
100
AcDbEntity
  8
文字
 62
     0
370
    -2
100
AcDbLine
 10
212.716614775014
 20
115.3847432098993
 30
0.0
 11
212.716614775014
 21
82.51985031794277
 31
0.0
  0
LINE
  5
19B0
330
19AC
100
AcDbEntity
  8
文字
 62
     0
370
    -2
100
AcDbLine
 10
202.2262337182474
 20
83.76985031794277
 30
0.0
 11
210.216614775014
 21
83.76985031794277
 31
0.0
  0
SOLID
  5
19B1
330
19AC
100
AcDbEntity
  8
文字
 62
     0
100
AcDbTrace
 10
202.2262337182474
 20
84.18651698460944
 30
0.0
 11
202.2262337182474
 21
83.3531836512761
 31
0.0
 12
199.7262337182474
 22
83.76985031794277
 32
0.0
 13
199.7262337182474
 23
83.76985031794277
 33
0.0
  0
SOLID
  5
19B2
330
19AC
100
AcDbEntity
  8
文字
 62
     0
100
AcDbTrace
 10
210.216614775014
 20
84.18651698460944
 30
0.0
 11
210.216614775014
 21
83.3531836512761
 31
0.0
 12
212.716614775014
 22
83.76985031794277
 32
0.0
 13
212.716614775014
 23
83.76985031794277
 33
0.0
  0
MTEXT
  5
19B3
330
19AC
100
AcDbEntity
  8
文字
 62
     0
100
AcDbMText
 10
206.4041474863344
 20
85.64485031794277
 30
0.0
 40
2.5
 41
0.0
 46
0.0
 71
     5
 72
     1
  1
13
 73
     1
 44
1.0
  0
POINT
  5
19B4
330
19AC
100
AcDbEntity
  8
Defpoints
 62
     0
100
AcDbPoint
 10
199.7262337182474
 20
116.0097432098993
 30
0.0
  0
POINT
  5
19B5
330
19AC
100
AcDbEntity
  8
Defpoints
 62
     0
100
AcDbPoint
 10
212.716614775014
 20
116.0097432098993
 30
0.0
  0
POINT
  5
19B6
330
19AC
100
AcDbEntity
  8
Defpoints
 62
     0
100
AcDbPoint
 10
212.716614775014
 20
83.76985031794277
 30
0.0
  0
ENDBLK
  5
19B7
330
19AC
100
AcDbEntity
  8
0
370
    30
100
AcDbBlockEnd
  0
BLOCK
  5
19B9
330
19B8
100
AcDbEntity
  8
0
100
AcDbBlockBegin
  2
*D7
 70
     1
 10
0.0
 20
0.0
 30
0.0
  3
*D7
  1
*D16
  0
LINE
  5
19BA
330
19B8
100
AcDbEntity
  8
文字
 62
     0
370
    -2
100
AcDbLine
 10
87.2212500301885
 20
135.0570527207158
 30
0.0
 11
87.2212500301885
 21
147.9015722211
 31
0.0
  0
LINE
  5
19BB
330
19B8
100
AcDbEntity
  8
文字
 62
     0
370
    -2
100
AcDbLine
 10
95.22125003018851
 20
135.0570527207158
 30
0.0
 11
95.22125003018851
 21
147.9015722211
 31
0.0
  0
LINE
  5
19BC
330
19B8
100
AcDbEntity
  8
文字
 62
     0
370
    -2
100
AcDbLine
 10
89.7212500301885
 20
146.6515722211
 30
0.0
 11
92.72125003018851
 21
146.6515722211
 31
0.0
  0
SOLID
  5
19BD
330
19B8
100
AcDbEntity
  8
文字
 62
     0
100
AcDbTrace
 10
89.7212500301885
 20
147.0682388877666
 30
0.0
 11
89.7212500301885
 21
146.2349055544333
 31
0.0
 12
87.2212500301885
 22
146.6515722211
 32
0.0
 13
87.2212500301885
 23
146.6515722211
 33
0.0
  0
SOLID
  5
19BE
330
19B8
100
AcDbEntity
  8
文字
 62
     0
100
AcDbTrace
 10
92.72125003018851
 20
147.0682388877666
 30
0.0
 11
92.72125003018851
 21
146.2349055544333
 31
0.0
 12
95.22125003018851
 22
146.6515722211
 32
0.0
 13
95.22125003018851
 23
146.6515722211
 33
0.0
  0
MTEXT
  5
19BF
330
19B8
100
AcDbEntity
  8
文字
 62
     0
100
AcDbMText
 10
91.22125003018851
 20
148.5265722211
 30
0.0
 40
2.5
 41
0.0
 46
0.0
 71
     5
 72
     1
  1
{\fArial|b0|i0|c0|p32;M}8
 73
     1
 44
1.0
  0
POINT
  5
19C0
330
19B8
100
AcDbEntity
  8
Defpoints
 62
     0
100
AcDbPoint
 10
87.2212500301885
 20
134.4320527207158
 30
0.0
  0
POINT
  5
19C1
330
19B8
100
AcDbEntity
  8
Defpoints
 62
     0
100
AcDbPoint
 10
95.22125003018851
 20
134.4320527207158
 30
0.0
  0
POINT
  5
19C2
330
19B8
100
AcDbEntity
  8
Defpoints
 62
     0
100
AcDbPoint
 10
95.22125003018851
 20
146.6515722211
 30
0.0
  0
ENDBLK
  5
19C3
330
19B8
100
AcDbEntity
  8
0
100
AcDbBlockEnd
  0
BLOCK
  5
19C5
330
19C4
100
AcDbEntity
  8
0
100
AcDbBlockBegin
  2
*D8
 70
     1
 10
0.0
 20
0.0
 30
0.0
  3
*D8
  1
*D17
  0
LINE
  5
19C6
330
19C4
100
AcDbEntity
  8
文字
 62
     0
370
    -2
100
AcDbLine
 10
72.22125003018851
 20
81.72382055485836
 30
0.0
 11
72.22125003018851
 21
61.64683633055239
 31
0.0
  0
LINE
  5
19C7
330
19C4
100
AcDbEntity
  8
文字
 62
     0
370
    -2
100
AcDbLine
 10
110.2212500301885
 20
81.72382055485835
 30
0.0
 11
110.2212500301885
 21
61.64683633055239
 31
0.0
  0
LINE
  5
19C8
330
19C4
100
AcDbEntity
  8
文字
 62
     0
370
    -2
100
AcDbLine
 10
74.72125003018851
 20
62.89683633055239
 30
0.0
 11
107.7212500301885
 21
62.89683633055239
 31
0.0
  0
SOLID
  5
19C9
330
19C4
100
AcDbEntity
  8
文字
 62
     0
100
AcDbTrace
 10
74.72125003018851
 20
63.31350299721905
 30
0.0
 11
74.72125003018851
 21
62.48016966388573
 31
0.0
 12
72.22125003018851
 22
62.89683633055239
 32
0.0
 13
72.22125003018851
 23
62.89683633055239
 33
0.0
  0
SOLID
  5
19CA
330
19C4
100
AcDbEntity
  8
文字
 62
     0
100
AcDbTrace
 10
107.7212500301885
 20
63.31350299721905
 30
0.0
 11
107.7212500301885
 21
62.48016966388573
 31
0.0
 12
110.2212500301885
 22
62.89683633055239
 32
0.0
 13
110.2212500301885
 23
62.89683633055239
 33
0.0
  0
MTEXT
  5
19CB
330
19C4
100
AcDbEntity
  8
文字
 62
     0
100
AcDbMText
 10
91.22125003018851
 20
64.77183633055239
 30
0.0
 40
2.5
 41
0.0
 46
0.0
 71
     5
 72
     1
  1
%%c38
 73
     1
 44
1.0
  0
POINT
  5
19CC
330
19C4
100
AcDbEntity
  8
Defpoints
 62
     0
100
AcDbPoint
 10
72.22125003018851
 20
82.34882055485836
 30
0.0
  0
POINT
  5
19CD
330
19C4
100
AcDbEntity
  8
Defpoints
 62
     0
100
AcDbPoint
 10
110.2212500301885
 20
82.34882055485835
 30
0.0
  0
POINT
  5
19CE
330
19C4
100
AcDbEntity
  8
Defpoints
 62
     0
100
AcDbPoint
 10
110.2212500301885
 20
62.89683633055239
 30
0.0
  0
ENDBLK
  5
19CF
330
19C4
100
AcDbEntity
  8
0
100
AcDbBlockEnd
  0
BLOCK
  5
19D1
330
19D0
100
AcDbEntity
  8
0
100
AcDbBlockBegin
  2
*D9
 70
     1
 10
0.0
 20
0.0
 30
0.0
  3
*D9
  1
*D18
  0
LINE
  5
19D2
330
19D0
100
AcDbEntity
  8
文字
 62
     0
370
    -2
100
AcDbLine
 10
110.8462500301885
 20
82.34882055485835
 30
0.0
 11
126.0779593090463
 21
82.34882055485835
 31
0.0
  0
LINE
  5
19D3
330
19D0
100
AcDbEntity
  8
文字
 62
     0
370
    -2
100
AcDbLine
 10
96.86248092256537
 20
94.93228662189009
 30
0.0
 11
126.0779593090463
 21
94.93228662189009
 31
0.0
  0
LINE
  5
19D4
330
19D0
100
AcDbEntity
  8
文字
 62
     0
370
    -2
100
AcDbLine
 10
124.8279593090463
 20
84.84882055485835
 30
0.0
 11
124.8279593090463
 21
92.43228662189009
 31
0.0
  0
SOLID
  5
19D5
330
19D0
100
AcDbEntity
  8
文字
 62
     0
100
AcDbTrace
 10
124.4112926423796
 20
84.84882055485835
 30
0.0
 11
125.2446259757129
 21
84.84882055485835
 31
0.0
 12
124.8279593090463
 22
82.34882055485835
 32
0.0
 13
124.8279593090463
 23
82.34882055485835
 33
0.0
  0
SOLID
  5
19D6
330
19D0
100
AcDbEntity
  8
文字
 62
     0
100
AcDbTrace
 10
124.4112926423796
 20
92.43228662189009
 30
0.0
 11
125.2446259757129
 21
92.43228662189009
 31
0.0
 12
124.8279593090463
 22
94.93228662189009
 32
0.0
 13
124.8279593090463
 23
94.93228662189009
 33
0.0
  0
MTEXT
  5
19D7
330
19D0
100
AcDbEntity
  8
文字
 62
     0
100
AcDbMText
 10
122.9529593090462
 20
88.64055358837423
 30
0.0
 40
2.5
 41
0.0
 46
0.0
 71
     5
 72
     1
  1
13
 11
6.123031769111886E-17
 21
1.0
 31
0.0
 73
     1
 44
1.0
  0
POINT
  5
19D8
330
19D0
100
AcDbEntity
  8
Defpoints
 62
     0
100
AcDbPoint
 10
110.2212500301885
 20
82.34882055485835
 30
0.0
  0
POINT
  5
19D9
330
19D0
100
AcDbEntity
  8
Defpoints
 62
     0
100
AcDbPoint
 10
96.23748092256537
 20
94.93228662189009
 30
0.0
  0
POINT
  5
19DA
330
19D0
100
AcDbEntity
  8
Defpoints
 62
     0
100
AcDbPoint
 10
124.8279593090463
 20
94.93228662189009
 30
0.0
  0
ENDBLK
  5
19DB
330
19D0
100
AcDbEntity
  8
0
100
AcDbBlockEnd
  0
BLOCK
  5
19DD
330
19DC
100
AcDbEntity
  8
0
100
AcDbBlockBegin
  2
*D10
 70
     1
 10
0.0
 20
0.0
 30
0.0
  3
*D10
  1
*D19
  0
LINE
  5
19DE
330
19DC
100
AcDbEntity
  8
文字
 62
     0
370
    -2
100
AcDbLine
 10
96.86248092256537
 20
94.93228662189009
 30
0.0
 11
126.0779593090463
 21
94.93228662189009
 31
0.0
  0
LINE
  5
19DF
330
19DC
100
AcDbEntity
  8
文字
 62
     0
370
    -2
100
AcDbLine
 10
99.37863313321532
 20
100.4320527207158
 30
0.0
 11
126.0779593090463
 21
100.4320527207158
 31
0.0
  0
LINE
  5
19E0
330
19DC
100
AcDbEntity
  8
文字
 62
     0
370
    -2
100
AcDbLine
 10
124.8279593090463
 20
92.43228662189009
 30
0.0
 11
124.8279593090463
 21
89.93228662189009
 31
0.0
  0
LINE
  5
19E1
330
19DC
100
AcDbEntity
  8
文字
 62
     0
370
    -2
100
AcDbLine
 10
124.8279593090463
 20
102.9320527207158
 30
0.0
 11
124.8279593090463
 21
105.4320527207158
 31
0.0
  0
LINE
  5
19E2
330
19DC
100
AcDbEntity
  8
文字
 62
     0
370
    -2
100
AcDbLine
 10
124.8279593090463
 20
97.68216967130294
 30
0.0
 11
130.7654593090463
 21
99.46341967130294
 31
0.0
  0
LINE
  5
19E3
330
19DC
100
AcDbEntity
  8
文字
 62
     0
370
    -2
100
AcDbLine
 10
130.7654593090463
 20
99.46341967130294
 30
0.0
 11
130.7654593090463
 21
105.7134196713029
 31
0.0
  0
MTEXT
  5
19E4
330
19DC
100
AcDbEntity
  8
文字
 62
     0
100
AcDbMText
 10
128.8904593090463
 20
102.588419671303
 30
0.0
 40
2.5
 41
0.0
 46
0.0
 71
     5
 72
     1
  1
5.5
 11
6.123031769111886E-17
 21
1.0
 31
0.0
 73
     1
 44
1.0
  0
LINE
  5
19E5
330
19DC
100
AcDbEntity
  8
文字
 62
     0
370
    -2
100
AcDbLine
 10
124.8279593090463
 20
94.93228662189009
 30
0.0
 11
124.8279593090463
 21
100.4320527207158
 31
0.0
  0
LINE
  5
19E6
330
19DC
100
AcDbEntity
  8
文字
 62
     0
370
    -2
100
AcDbLine
 10
124.8279593090463
 20
94.93228662189009
 30
0.0
 11
124.8279593090463
 21
100.4320527207158
 31
0.0
  0
SOLID
  5
19E7
330
19DC
100
AcDbEntity
  8
文字
 62
     0
100
AcDbTrace
 10
124.4112926423796
 20
92.43228662189009
 30
0.0
 11
125.2446259757129
 21
92.43228662189009
 31
0.0
 12
124.8279593090463
 22
94.93228662189009
 32
0.0
 13
124.8279593090463
 23
94.93228662189009
 33
0.0
  0
SOLID
  5
19E8
330
19DC
100
AcDbEntity
  8
文字
 62
     0
100
AcDbTrace
 10
124.4112926423796
 20
102.9320527207158
 30
0.0
 11
125.2446259757129
 21
102.9320527207158
 31
0.0
 12
124.8279593090463
 22
100.4320527207158
 32
0.0
 13
124.8279593090463
 23
100.4320527207158
 33
0.0
  0
POINT
  5
19E9
330
19DC
100
AcDbEntity
  8
Defpoints
 62
     0
100
AcDbPoint
 10
96.23748092256537
 20
94.93228662189009
 30
0.0
  0
POINT
  5
19EA
330
19DC
100
AcDbEntity
  8
Defpoints
 62
     0
100
AcDbPoint
 10
98.75363313321532
 20
100.4320527207158
 30
0.0
  0
POINT
  5
19EB
330
19DC
100
AcDbEntity
  8
Defpoints
 62
     0
100
AcDbPoint
 10
124.8279593090463
 20
100.4320527207158
 30
0.0
  0
ENDBLK
  5
19EC
330
19DC
100
AcDbEntity
  8
0
100
AcDbBlockEnd
  0
BLOCK
  5
19EE
330
19ED
100
AcDbEntity
  8
0
100
AcDbBlockBegin
  2
*D11
 70
     1
 10
0.0
 20
0.0
 30
0.0
  3
*D11
  1
*D20
  0
LINE
  5
19EF
330
19ED
100
AcDbEntity
  8
文字
 62
     0
370
    -2
100
AcDbLine
 10
99.37863313321532
 20
100.4320527207158
 30
0.0
 11
126.0779593090463
 21
100.4320527207158
 31
0.0
  0
LINE
  5
19F0
330
19ED
100
AcDbEntity
  8
文字
 62
     0
370
    -2
100
AcDbLine
 10
94.84625003018851
 20
135.4320527207158
 30
0.0
 11
126.0779593090463
 21
135.4320527207158
 31
0.0
  0
LINE
  5
19F1
330
19ED
100
AcDbEntity
  8
文字
 62
     0
370
    -2
100
AcDbLine
 10
124.8279593090463
 20
102.9320527207158
 30
0.0
 11
124.8279593090463
 21
132.9320527207158
 31
0.0
  0
SOLID
  5
19F2
330
19ED
100
AcDbEntity
  8
文字
 62
     0
100
AcDbTrace
 10
124.4112926423796
 20
102.9320527207158
 30
0.0
 11
125.2446259757129
 21
102.9320527207158
 31
0.0
 12
124.8279593090463
 22
100.4320527207158
 32
0.0
 13
124.8279593090463
 23
100.4320527207158
 33
0.0
  0
SOLID
  5
19F3
330
19ED
100
AcDbEntity
  8
文字
 62
     0
100
AcDbTrace
 10
124.4112926423796
 20
132.9320527207158
 30
0.0
 11
125.2446259757129
 21
132.9320527207158
 31
0.0
 12
124.8279593090463
 22
135.4320527207158
 32
0.0
 13
124.8279593090463
 23
135.4320527207158
 33
0.0
  0
MTEXT
  5
19F4
330
19ED
100
AcDbEntity
  8
文字
 62
     0
100
AcDbMText
 10
122.9529593090463
 20
117.9320527207158
 30
0.0
 40
2.5
 41
0.0
 46
0.0
 71
     5
 72
     1
  1
35
 11
6.123031769111886E-17
 21
1.0
 31
0.0
 73
     1
 44
1.0
  0
POINT
  5
19F5
330
19ED
100
AcDbEntity
  8
Defpoints
 62
     0
100
AcDbPoint
 10
98.75363313321532
 20
100.4320527207158
 30
0.0
  0
POINT
  5
19F6
330
19ED
100
AcDbEntity
  8
Defpoints
 62
     0
100
AcDbPoint
 10
94.22125003018851
 20
135.4320527207158
 30
0.0
  0
POINT
  5
19F7
330
19ED
100
AcDbEntity
  8
Defpoints
 62
     0
100
AcDbPoint
 10
124.8279593090463
 20
135.4320527207158
 30
0.0
  0
ENDBLK
  5
19F8
330
19ED
100
AcDbEntity
  8
0
100
AcDbBlockEnd
  0
BLOCK
  5
19FA
330
19F9
100
AcDbEntity
  8
0
100
AcDbBlockBegin
  2
*D12
 70
     1
 10
0.0
 20
0.0
 30
0.0
  3
*D12
  1
*D21
  0
LINE
  5
19FB
330
19F9
100
AcDbEntity
  8
文字
 62
     0
370
    -2
100
AcDbLine
 10
110.8462500301885
 20
82.34882055485835
 30
0.0
 11
141.6100264422735
 21
82.34882055485835
 31
0.0
  0
LINE
  5
19FC
330
19F9
100
AcDbEntity
  8
文字
 62
     0
370
    -2
100
AcDbLine
 10
94.84625003018851
 20
135.4320527207158
 30
0.0
 11
141.6100264422735
 21
135.4320527207158
 31
0.0
  0
LINE
  5
19FD
330
19F9
100
AcDbEntity
  8
文字
 62
     0
370
    -2
100
AcDbLine
 10
140.3600264422735
 20
84.84882055485835
 30
0.0
 11
140.3600264422735
 21
132.9320527207158
 31
0.0
  0
SOLID
  5
19FE
330
19F9
100
AcDbEntity
  8
文字
 62
     0
100
AcDbTrace
 10
139.9433597756068
 20
84.84882055485835
 30
0.0
 11
140.7766931089401
 21
84.84882055485835
 31
0.0
 12
140.3600264422735
 22
82.34882055485835
 32
0.0
 13
140.3600264422735
 23
82.34882055485835
 33
0.0
  0
SOLID
  5
19FF
330
19F9
100
AcDbEntity
  8
文字
 62
     0
100
AcDbTrace
 10
139.9433597756068
 20
132.9320527207158
 30
0.0
 11
140.7766931089401
 21
132.9320527207158
 31
0.0
 12
140.3600264422735
 22
135.4320527207158
 32
0.0
 13
140.3600264422735
 23
135.4320527207158
 33
0.0
  0
MTEXT
  5
1A00
330
19F9
100
AcDbEntity
  8
文字
 62
     0
100
AcDbMText
 10
138.4850264422734
 20
108.8904366377871
 30
0.0
 40
2.5
 41
0.0
 46
0.0
 71
     5
 72
     1
  1
53.5
 11
6.123031769111886E-17
 21
1.0
 31
0.0
 73
     1
 44
1.0
  0
POINT
  5
1A01
330
19F9
100
AcDbEntity
  8
Defpoints
 62
     0
100
AcDbPoint
 10
110.2212500301885
 20
82.34882055485835
 30
0.0
  0
POINT
  5
1A02
330
19F9
100
AcDbEntity
  8
Defpoints
 62
     0
100
AcDbPoint
 10
94.22125003018851
 20
135.4320527207158
 30
0.0
  0
POINT
  5
1A03
330
19F9
100
AcDbEntity
  8
Defpoints
 62
     0
100
AcDbPoint
 10
140.3600264422735
 20
135.4320527207158
 30
0.0
  0
ENDBLK
  5
1A04
330
19F9
100
AcDbEntity
  8
0
100
AcDbBlockEnd
  0
BLOCK
  5
1A4C
330
1A05
100
AcDbEntity
  8
0
 62
     0
100
AcDbBlockBegin
  2
A$C76A36C9E
 70
     0
 10
0.0
 20
0.0
 30
0.0
  3
A$C76A36C9E
  1
A$C76A36C9E
  0
LWPOLYLINE
  5
1A06
330
1A05
100
AcDbEntity
  8
実線
370
    50
100
AcDbPolyline
 90
        6
 70
     0
 43
0.0
 10
-136.9787502058973
 20
95.18495711771044
 10
-136.9787502058973
 20
115.6320525348278
 10
-137.9787502058973
 20
116.6320525348278
 10
-143.9787502058973
 20
116.6320525348278
 10
-144.9787502058973
 20
115.6320525348278
 10
-144.9787502058973
 20
95.18495711771044
  0
LINE
  5
1A07
330
1A05
100
AcDbEntity
  8
実線
370
    20
100
AcDbLine
 10
-137.9787502058973
 20
88.68519101888472
 30
0.0
 11
-137.9787502058973
 21
81.6320525348278
 31
0.0
  0
LINE
  5
1A08
330
1A05
100
AcDbEntity
  8
実線
370
    20
100
AcDbLine
 10
-143.9787502058973
 20
88.68519101888475
 30
0.0
 11
-143.9787502058973
 21
81.6320525348278
 31
0.0
  0
LWPOLYLINE
  5
1A09
330
1A05
100
AcDbEntity
  8
実線
370
    50
100
AcDbPolyline
 90
        4
 70
     0
 43
0.0
 10
-133.4463671028705
 20
89.68495711771044
 10
-133.4463671028705
 20
95.18495711771044
 10
-148.4463671028705
 20
95.18495711771044
 10
-148.4463671028705
 20
89.68495711771044
  0
LINE
  5
1A0A
330
1A05
100
AcDbEntity
  8
実線
370
    50
100
AcDbLine
 10
-144.3456442458684
 20
95.18495711771044
 30
0.0
 11
-144.3456442458684
 21
89.68495711771044
 31
0.0
  0
LINE
  5
1A0B
330
1A05
100
AcDbEntity
  8
実線
370
    50
100
AcDbLine
 10
-137.4873226877818
 20
95.18495711771044
 30
0.0
 11
-137.4873226877818
 21
89.68495711771044
 31
0.0
  0
ARC
  5
1A0C
330
1A05
100
AcDbEntity
  8
実線
370
    50
100
AcDbCircle
 10
-146.3960056743694
 20
91.28535523740777
 30
0.0
 40
2.601010597636193
100
AcDbArc
 50
217.973618634994
 51
322.0263813650058
  0
ARC
  5
1A0D
330
1A05
100
AcDbEntity
  8
実線
370
    50
100
AcDbCircle
 10
-140.916483466825
 20
95.06408242612318
 30
0.0
 40
6.379195304435764
100
AcDbArc
 50
237.4827287485465
 51
302.5172712514534
  0
ARC
  5
1A0E
330
1A05
100
AcDbEntity
  8
実線
370
    50
100
AcDbCircle
 10
-135.4668448953261
 20
91.22496313739819
 30
0.0
 40
2.540462369428222
100
AcDbArc
 50
217.3146110078773
 51
322.6853889921216
  0
LINE
  5
1A0F
330
1A05
100
AcDbEntity
  8
実線
370
    50
100
AcDbLine
 10
-140.9787502058973
 20
88.68519101888472
 30
0.0
 11
-145.9949810982741
 21
88.68519101888472
 31
0.0
  0
LINE
  5
1A10
330
1A05
100
AcDbEntity
  8
実線
370
    50
100
AcDbLine
 10
-140.9787502058976
 20
88.68519101888472
 30
0.0
 11
-135.9625193135205
 21
88.68519101888472
 31
0.0
  0
DIMENSION
  5
1A11
102
{ACAD_REACTORS
330
1A13
102
}
102
{ACAD_XDICTIONARY
360
1A12
102
}
330
1A05
100
AcDbEntity
  8
文字
100
AcDbDimension
280
     0
  2
*D12
 10
-91.83997379381236
 20
116.6320525348278
 30
0.0
 11
-93.71497379381239
 21
90.09043645189911
 31
0.0
 12
-232.2000002360858
 22
-18.80000018588799
 32
0.0
 70
    32
  1
53.5
 71
     5
 42
53.08323216585745
 73
     0
 74
     0
 75
     0
  3
ISO-25
100
AcDbAlignedDimension
 13
-121.9787502058973
 23
63.54882036897036
 33
0.0
 14
-137.9787502058973
 24
116.6320525348278
 34
0.0
 50
90.0
100
AcDbRotatedDimension
  0
LINE
  5
1A14
330
1A05
100
AcDbEntity
  8
中心線
100
AcDbLine
 10
-25.97857598945512
 20
97.20974302401129
 30
0.0
 11
-25.97857598945512
 21
73.28463913907507
 31
0.0
  0
LINE
  5
1A15
330
1A05
100
AcDbEntity
  8
中心線
100
AcDbLine
 10
-25.97857598945512
 20
97.20974302401129
 30
0.0
 11
-25.97857598945512
 21
122.905154338709
 31
0.0
  0
DIMENSION
  5
1A16
102
{ACAD_REACTORS
330
1A18
102
}
102
{ACAD_XDICTIONARY
360
1A17
102
}
330
1A05
100
AcDbEntity
  8
文字
100
AcDbDimension
280
     0
  2
*D11
 10
-107.3720409270395
 20
116.6320525348278
 30
0.0
 11
-109.2470409270396
 21
99.13205253482784
 31
0.0
 12
-232.2000002360858
 22
-18.80000018588799
 32
0.0
 70
    32
 71
     5
 42
35.0
 73
     0
 74
     0
 75
     0
  3
ISO-25
100
AcDbAlignedDimension
 13
-133.4463671028705
 23
81.6320525348278
 33
0.0
 14
-137.9787502058973
 24
116.6320525348278
 34
0.0
 50
90.0
100
AcDbRotatedDimension
1001
ACAD
1000
DSTYLE
1002
{
1070
   279
1070
     1
1002
}
  0
DIMENSION
  5
1A19
102
{ACAD_REACTORS
330
1A1B
102
}
102
{ACAD_XDICTIONARY
360
1A1A
102
}
330
1A05
100
AcDbEntity
  8
文字
100
AcDbDimension
280
     0
  2
*D10
 10
-107.3720409270395
 20
81.6320525348278
 30
0.0
 11
-103.3095409270396
 21
81.28841948541498
 31
0.0
 12
-232.2000002360858
 22
-18.80000018588799
 32
0.0
 70
    32
 71
     5
 42
5.499766098825717
 73
     0
 74
     0
 75
     0
  3
ISO-25
100
AcDbAlignedDimension
 13
-135.9625193135205
 23
76.13228643600209
 33
0.0
 14
-133.4463671028705
 24
81.6320525348278
 34
0.0
 50
90.0
100
AcDbRotatedDimension
1001
ACAD
1000
DSTYLE
1002
{
1070
   279
1070
     1
1002
}
  0
DIMENSION
  5
1A1C
102
{ACAD_REACTORS
330
1A1E
102
}
102
{ACAD_XDICTIONARY
360
1A1D
102
}
330
1A05
100
AcDbEntity
  8
文字
100
AcDbDimension
280
     0
  2
*D9
 10
-107.3720409270396
 20
76.13228643600209
 30
0.0
 11
-109.2470409270396
 21
69.84055340248625
 31
0.0
 12
-232.2000002360858
 22
-18.80000018588799
 32
0.0
 70
    32
  1
13
 71
     5
 42
12.58346606703174
 73
     0
 74
     0
 75
     0
  3
ISO-25
100
AcDbAlignedDimension
 13
-121.9787502058973
 23
63.54882036897036
 33
0.0
 14
-135.9625193135205
 24
76.13228643600209
 34
0.0
 50
90.0
100
AcDbRotatedDimension
  0
DIMENSION
  5
1A1F
330
1A05
100
AcDbEntity
  8
文字
100
AcDbDimension
280
     0
  2
*D8
 10
-121.9787502058973
 20
44.0968361446644
 30
0.0
 11
-140.9787502058973
 21
45.9718361446644
 31
0.0
 12
-232.2000002360858
 22
-18.80000018588799
 32
0.0
 70
    32
  1
%%c<>
 71
     5
 42
38.0
 73
     0
 74
     0
 75
     0
  3
ISO-25
100
AcDbAlignedDimension
 13
-159.9787502058973
 23
63.54882036897038
 33
0.0
 14
-121.9787502058973
 24
63.54882036897036
 34
0.0
100
AcDbRotatedDimension
  0
DIMENSION
  5
1A20
102
{ACAD_REACTORS
330
1A22
102
}
102
{ACAD_XDICTIONARY
360
1A21
102
}
330
1A05
100
AcDbEntity
  8
文字
100
AcDbDimension
280
     0
  2
*D7
 10
-136.9787502058973
 20
127.851572035212
 30
0.0
 11
-140.9787502058973
 21
129.726572035212
 31
0.0
 12
-232.2000002360858
 22
-18.80000018588799
 32
0.0
 70
    32
  1
{\fArial|b0|i0|c0|p32;M}<>
 71
     5
 42
8.000000000000014
 73
     0
 74
     0
 75
     0
  3
ISO-25
100
AcDbAlignedDimension
 13
-144.9787502058973
 23
115.6320525348278
 33
0.0
 14
-136.9787502058973
 24
115.6320525348278
 34
0.0
100
AcDbRotatedDimension
  0
LINE
  5
1A23
102
{ACAD_REACTORS
330
1A18
330
1A13
102
}
330
1A05
100
AcDbEntity
  8
実線
370
    20
100
AcDbLine
 10
-137.9787502058973
 20
116.6320525348278
 30
0.0
 11
-137.9787502058973
 21
95.18495711771044
 31
0.0
  0
LINE
  5
1A24
330
1A05
100
AcDbEntity
  8
実線
370
    20
100
AcDbLine
 10
-143.9787502058973
 20
116.6320525348278
 30
0.0
 11
-143.9787502058973
 21
95.18495711771044
 31
0.0
  0
LINE
  5
1A25
102
{ACAD_REACTORS
330
1A22
102
}
330
1A05
100
AcDbEntity
  8
実線
370
    20
100
AcDbLine
 10
-144.9787502058973
 20
115.6320525348278
 30
0.0
 11
-136.9787502058973
 21
115.6320525348278
 31
0.0
  0
LWPOLYLINE
  5
1A26
330
1A05
100
AcDbEntity
  8
実線
370
    50
100
AcDbPolyline
 90
        4
 70
     0
 43
0.0
 10
-144.9787502058973
 20
88.68519101888472
 10
-144.9787502058973
 20
81.6320525348278
 10
-136.9787502058973
 20
81.6320525348278
 10
-136.9787502058973
 20
88.68519101888472
  0
DIMENSION
  5
1A27
102
{ACAD_REACTORS
330
1A29
102
}
102
{ACAD_XDICTIONARY
360
1A28
102
}
330
1A05
100
AcDbEntity
  8
文字
100
AcDbDimension
280
     0
  2
*D6
 10
-19.48338546107183
 20
64.96985013205477
 30
0.0
 11
-25.79585274975142
 21
64.96985013205477
 31
0.0
 12
-232.2000002360858
 22
-18.80000018588799
 32
0.0
 70
   128
  1
13
 71
     5
 42
12.99038105676658
 73
     0
 74
     0
 75
     0
  3
ISO-25
100
AcDbAlignedDimension
 13
-32.47376651783841
 23
97.20974302401126
 33
0.0
 14
-19.48338546107183
 24
97.20974302401129
 34
0.0
100
AcDbRotatedDimension
  0
DIMENSION
  5
1A2A
102
{ACAD_REACTORS
330
1A2C
102
}
102
{ACAD_XDICTIONARY
360
1A2B
102
}
330
1A05
100
AcDbEntity
  8
文字
100
AcDbDimension
280
     0
  2
*D5
 10
-174.9740745621517
 20
63.54882036897038
 30
0.0
 11
-176.8490745621517
 21
55.84048703563706
 31
0.0
 12
-232.2000002360858
 22
-18.80000018588799
 32
0.0
 70
    32
  1
1.5
 71
     5
 42
1.599999999999994
 73
     0
 74
     0
 75
     0
  3
ISO-25
100
AcDbAlignedDimension
 13
-159.9787502058973
 23
65.14882036897038
 33
0.0
 14
-159.9787502058973
 24
63.54882036897038
 34
0.0
 50
90.0
100
AcDbRotatedDimension
  0
CIRCLE
  5
1A2D
330
1A05
100
AcDbEntity
  8
実線
370
    20
100
AcDbCircle
 10
-25.97857598945512
 20
97.20974302401129
 30
0.0
 40
3.4
  0
CIRCLE
  5
1A2E
330
1A05
100
AcDbEntity
  8
実線
370
    50
100
AcDbCircle
 10
-25.97857598945512
 20
97.20974302401129
 30
0.0
 40
4.0
  0
LWPOLYLINE
  5
1A2F
102
{ACAD_REACTORS
330
1A29
102
}
330
1A05
100
AcDbEntity
  8
実線
370
    50
100
AcDbPolyline
 90
        6
 70
     1
 43
0.0
 10
-19.48338546107183
 20
100.9597430240113
 10
-25.97857598945512
 20
104.7097430240113
 10
-32.47376651783841
 20
100.9597430240113
 10
-32.47376651783841
 20
93.45974302401126
 10
-25.97857598945512
 20
89.70974302401126
 10
-19.48338546107183
 20
93.45974302401126
  0
DIMENSION
  5
1A30
102
{ACAD_REACTORS
330
1A32
102
}
102
{ACAD_XDICTIONARY
360
1A31
102
}
330
1A05
100
AcDbEntity
  8
文字
100
AcDbDimension
280
     0
  2
*D4
 10
-11.97857598945512
 20
57.36396220779807
 30
0.0
 11
-25.97857598945512
 21
59.23896220779807
 31
0.0
 12
-232.2000002360858
 22
-18.80000018588799
 32
0.0
 70
    32
  1
%%c<>
 71
     5
 42
28.0
 73
     0
 74
     0
 75
     0
  3
ISO-25
100
AcDbAlignedDimension
 13
-39.97857598945512
 23
97.20974302401129
 33
0.0
 14
-11.97857598945512
 24
97.20974302401129
 34
0.0
100
AcDbRotatedDimension
  0
ARC
  5
1A33
330
1A05
100
AcDbEntity
  8
実線
370
    50
100
AcDbCircle
 10
-140.9787502058973
 20
62.86352625132333
 30
0.0
 40
14.18529411764706
100
AcDbArc
 50
110.7090084471018
 51
164.6470298493059
  0
LINE
  5
1A34
102
{ACAD_REACTORS
330
1A1E
330
1A1B
102
}
330
1A05
100
AcDbEntity
  8
実線
370
    50
100
AcDbLine
 10
-140.9787502058976
 20
76.13228643600209
 30
0.0
 11
-135.9625193135205
 21
76.13228643600209
 31
0.0
  0
LINE
  5
1A35
330
1A05
100
AcDbEntity
  8
実線
370
    50
100
AcDbLine
 10
-140.9787502058973
 20
76.13228643600209
 30
0.0
 11
-145.9949810982741
 21
76.13228643600209
 31
0.0
  0
ARC
  5
1A36
330
1A05
100
AcDbEntity
  8
実線
370
    50
100
AcDbCircle
 10
-135.4668448953261
 20
78.67205855451556
 30
0.0
 40
2.540462369428222
100
AcDbArc
 50
217.3146110078773
 51
322.6853889921216
  0
ARC
  5
1A37
330
1A05
100
AcDbEntity
  8
実線
370
    50
100
AcDbCircle
 10
-140.916483466825
 20
82.51117784324055
 30
0.0
 40
6.379195304435764
100
AcDbArc
 50
237.4827287485465
 51
302.5172712514534
  0
ARC
  5
1A38
330
1A05
100
AcDbEntity
  8
実線
370
    50
100
AcDbCircle
 10
-146.3960056743694
 20
78.73245065452514
 30
0.0
 40
2.601010597636193
100
AcDbArc
 50
217.973618634994
 51
322.0263813650058
  0
LINE
  5
1A39
330
1A05
100
AcDbEntity
  8
実線
370
    50
100
AcDbLine
 10
-137.4873226877818
 20
81.6320525348278
 30
0.0
 11
-137.4873226877818
 21
77.1320525348278
 31
0.0
  0
LINE
  5
1A3A
330
1A05
100
AcDbEntity
  8
実線
370
    50
100
AcDbLine
 10
-144.3456442458684
 20
81.6320525348278
 30
0.0
 11
-144.3456442458684
 21
77.1320525348278
 31
0.0
  0
LWPOLYLINE
  5
1A3B
102
{ACAD_REACTORS
330
1A1B
330
1A18
102
}
330
1A05
100
AcDbEntity
  8
実線
370
    50
100
AcDbPolyline
 90
        4
 70
     0
 43
0.0
 10
-133.4463671028705
 20
77.1320525348278
 10
-133.4463671028705
 20
81.6320525348278
 10
-148.4463671028705
 20
81.6320525348278
 10
-148.4463671028705
 20
77.1320525348278
  0
LINE
  5
1A3C
102
{ACAD_REACTORS
330
1A29
102
}
330
1A05
100
AcDbEntity
  8
中心線
100
AcDbLine
 10
-56.39333659375262
 20
97.20974302401129
 30
0.0
 11
-16.39090544331049
 21
97.20974302401129
 31
0.0
  0
LINE
  5
1A3D
330
1A05
100
AcDbEntity
  8
実線
370
    50
100
AcDbLine
 10
-156.4653650853308
 20
65.14882036897038
 30
0.0
 11
-125.371059793796
 21
65.14882036897035
 31
0.0
  0
LINE
  5
1A3E
330
1A05
100
AcDbEntity
  8
中心線
100
AcDbLine
 10
-16.39090544331049
 20
97.20974302401129
 30
0.0
 11
4.251392774196745
 21
97.20974302401129
 31
0.0
  0
CIRCLE
  5
1A3F
330
1A05
100
AcDbEntity
  8
実線
370
    50
100
AcDbCircle
 10
-25.97857598945512
 20
97.20974302401129
 30
0.0
 40
19.0
  0
CIRCLE
  5
1A40
102
{ACAD_REACTORS
330
1A32
102
}
330
1A05
100
AcDbEntity
  8
実線
370
    50
100
AcDbCircle
 10
-25.97857598945512
 20
97.20974302401129
 30
0.0
 40
14.0
  0
ARC
  5
1A41
330
1A05
100
AcDbEntity
  8
実線
370
    50
100
AcDbCircle
 10
-125.371059793796
 20
67.14882036897038
 30
0.0
 40
2.0
100
AcDbArc
 50
195.3529701506943
 51
270.0
  0
LINE
  5
1A42
330
1A05
100
AcDbEntity
  8
実線
370
    50
100
AcDbLine
 10
-125.371059793796
 20
65.14882036897035
 30
0.0
 11
-121.9787502058973
 21
65.14882036897035
 31
0.0
  0
ARC
  5
1A43
330
1A05
100
AcDbEntity
  8
実線
370
    50
100
AcDbCircle
 10
-156.5864406179986
 20
67.14882036897038
 30
0.0
 40
2.0
100
AcDbArc
 50
270.0
 51
344.6470298493056
  0
ARC
  5
1A44
102
{ACAD_REACTORS
330
1A1E
330
1A1B
102
}
330
1A05
100
AcDbEntity
  8
実線
370
    50
100
AcDbCircle
 10
-140.9787502058973
 20
62.86352625132333
 30
0.0
 40
14.18529411764706
100
AcDbArc
 50
15.35297015069416
 51
69.29099155289825
  0
LINE
  5
1A45
330
1A05
100
AcDbEntity
  8
実線
370
    50
100
AcDbLine
 10
-156.4653650853308
 20
65.14882036897038
 30
0.0
 11
-156.5864406179986
 21
65.14882036897038
 31
0.0
  0
LINE
  5
1A46
102
{ACAD_REACTORS
330
1A2C
102
}
330
1A05
100
AcDbEntity
  8
実線
370
    50
100
AcDbLine
 10
-159.9787502058973
 20
65.14882036897038
 30
0.0
 11
-156.4653650853308
 21
65.14882036897038
 31
0.0
  0
LINE
  5
1A47
330
1A05
100
AcDbEntity
  8
中心線
100
AcDbLine
 10
-140.9787502058973
 20
52.63205253482781
 30
0.0
 11
-140.9787502058973
 21
125.3376695381868
 31
0.0
  0
LINE
  5
1A48
102
{ACAD_REACTORS
330
1A1E
330
1A13
102
}
330
1A05
100
AcDbEntity
  8
実線
370
    50
100
AcDbLine
 10
-121.9787502058973
 20
65.14882036897035
 30
0.0
 11
-121.9787502058973
 21
63.54882036897036
 31
0.0
  0
LINE
  5
1A49
102
{ACAD_REACTORS
330
1A2C
102
}
330
1A05
100
AcDbEntity
  8
実線
370
    50
100
AcDbLine
 10
-159.9787502058973
 20
63.54882036897038
 30
0.0
 11
-159.9787502058973
 21
65.14882036897038
 31
0.0
  0
LINE
  5
1A4A
330
1A05
100
AcDbEntity
  8
実線
370
    50
100
AcDbLine
 10
-121.9787502058973
 20
63.54882036897036
 30
0.0
 11
-159.9787502058973
 21
63.54882036897038
 31
0.0
  0
TEXT
  5
1A4B
330
1A05
100
AcDbEntity
  8
文字
100
AcDbText
 10
2.672502397611936
 20
1.442331116837359
 30
0.0
 40
3.0
  1
ＳＵＳ304Ｊ3
100
AcDbText
  0
ENDBLK
  5
1A4D
330
1A05
100
AcDbEntity
  8
0
 62
     0
100
AcDbBlockEnd
  0
BLOCK
  5
1B99
330
1B8F
100
AcDbEntity
  8
0
 62
     1
100
AcDbBlockBegin
  2
*D14
 70
     1
 10
0.0
 20
0.0
 30
0.0
  3
*D14
  1
*D32
  0
LINE
  5
1C5A
330
1B8F
100
AcDbEntity
  8
文字
 62
     0
370
    -2
100
AcDbLine
 10
183.7522166104054
 20
119.2842636698851
 30
0.0
 11
183.7522166104054
 21
56.0972631035778
 31
0.0
  0
LINE
  5
1C5B
330
1B8F
100
AcDbEntity
  8
文字
 62
     0
370
    -2
100
AcDbLine
 10
239.7522166104054
 20
119.2842636698851
 30
0.0
 11
239.7522166104054
 21
56.0972631035778
 31
0.0
  0
LINE
  5
1C5C
330
1B8F
100
AcDbEntity
  8
文字
 62
     0
370
    -2
100
AcDbLine
 10
186.2522166104054
 20
57.3472631035778
 30
0.0
 11
237.2522166104054
 21
57.3472631035778
 31
0.0
  0
SOLID
  5
1C5D
330
1B8F
100
AcDbEntity
  8
文字
 62
     0
100
AcDbTrace
 10
186.2522166104054
 20
57.76392977024447
 30
0.0
 11
186.2522166104054
 21
56.93059643691114
 31
0.0
 12
183.7522166104054
 22
57.3472631035778
 32
0.0
 13
183.7522166104054
 23
57.3472631035778
 33
0.0
  0
SOLID
  5
1C5E
330
1B8F
100
AcDbEntity
  8
文字
 62
     0
100
AcDbTrace
 10
237.2522166104054
 20
57.76392977024447
 30
0.0
 11
237.2522166104054
 21
56.93059643691114
 31
0.0
 12
239.7522166104054
 22
57.3472631035778
 32
0.0
 13
239.7522166104054
 23
57.3472631035778
 33
0.0
  0
MTEXT
  5
1C5F
330
1B8F
100
AcDbEntity
  8
文字
 62
     0
100
AcDbMText
 10
211.7522166104054
 20
59.2222631035778
 30
0.0
 40
2.5
 41
0.0
 46
0.0
 71
     5
 72
     1
  1
%%c56
 73
     1
 44
1.0
  0
POINT
  5
1C60
330
1B8F
100
AcDbEntity
  8
Defpoints
 62
     0
100
AcDbPoint
 10
183.7522166104054
 20
119.9092636698851
 30
0.0
  0
POINT
  5
1C61
330
1B8F
100
AcDbEntity
  8
Defpoints
 62
     0
100
AcDbPoint
 10
239.7522166104054
 20
119.9092636698851
 30
0.0
  0
POINT
  5
1C62
330
1B8F
100
AcDbEntity
  8
Defpoints
 62
     0
100
AcDbPoint
 10
239.7522166104054
 20
57.3472631035778
 30
0.0
  0
ENDBLK
  5
1B9A
330
1B8F
100
AcDbEntity
  8
0
 62
     1
100
AcDbBlockEnd
  0
BLOCK
  5
1BA5
330
1B9B
100
AcDbEntity
  8
0
 62
     1
100
AcDbBlockBegin
  2
*D15
 70
     1
 10
0.0
 20
0.0
 30
0.0
  3
*D15
  1
*D33
  0
LINE
  5
1C48
330
1B9B
100
AcDbEntity
  8
文字
 62
     0
370
    -2
100
AcDbLine
 10
193.7388882116891
 20
108.8842636698851
 30
0.0
 11
193.7388882116891
 21
63.6641501627563
 31
0.0
  0
LINE
  5
1C49
330
1B9B
100
AcDbEntity
  8
文字
 62
     0
370
    -2
100
AcDbLine
 10
229.7655450091217
 20
108.8842636698851
 30
0.0
 11
229.7655450091217
 21
63.6641501627563
 31
0.0
  0
LINE
  5
1C4A
330
1B9B
100
AcDbEntity
  8
文字
 62
     0
370
    -2
100
AcDbLine
 10
196.2388882116891
 20
64.9141501627563
 30
0.0
 11
227.2655450091217
 21
64.9141501627563
 31
0.0
  0
SOLID
  5
1C4B
330
1B9B
100
AcDbEntity
  8
文字
 62
     0
100
AcDbTrace
 10
196.2388882116891
 20
65.33081682942297
 30
0.0
 11
196.2388882116891
 21
64.49748349608963
 31
0.0
 12
193.7388882116891
 22
64.9141501627563
 32
0.0
 13
193.7388882116891
 23
64.9141501627563
 33
0.0
  0
SOLID
  5
1C4C
330
1B9B
100
AcDbEntity
  8
文字
 62
     0
100
AcDbTrace
 10
227.2655450091217
 20
65.33081682942297
 30
0.0
 11
227.2655450091217
 21
64.49748349608963
 31
0.0
 12
229.7655450091217
 22
64.9141501627563
 32
0.0
 13
229.7655450091217
 23
64.9141501627563
 33
0.0
  0
MTEXT
  5
1C4D
330
1B9B
100
AcDbEntity
  8
文字
 62
     0
100
AcDbMText
 10
211.7522166104054
 20
66.7891501627563
 30
0.0
 40
2.5
 41
0.0
 46
0.0
 71
     5
 72
     1
  1
36
 73
     1
 44
1.0
  0
POINT
  5
1C4E
330
1B9B
100
AcDbEntity
  8
Defpoints
 62
     0
100
AcDbPoint
 10
193.7388882116891
 20
109.5092636698851
 30
0.0
  0
POINT
  5
1C4F
330
1B9B
100
AcDbEntity
  8
Defpoints
 62
     0
100
AcDbPoint
 10
229.7655450091217
 20
109.5092636698851
 30
0.0
  0
POINT
  5
1C50
330
1B9B
100
AcDbEntity
  8
Defpoints
 62
     0
100
AcDbPoint
 10
229.7655450091217
 20
64.9141501627563
 30
0.0
  0
ENDBLK
  5
1BA6
330
1B9B
100
AcDbEntity
  8
0
 62
     1
100
AcDbBlockEnd
  0
BLOCK
  5
1BB1
330
1BA7
100
AcDbEntity
  8
0
 62
     1
100
AcDbBlockBegin
  2
*D16
 70
     1
 10
0.0
 20
0.0
 30
0.0
  3
*D16
  1
*D34
  0
LINE
  5
1BA8
330
1BA7
100
AcDbEntity
  8
文字
 62
     0
370
    -2
100
AcDbLine
 10
87.03937904138826
 20
59.70918958987816
 30
0.0
 11
126.5016357371803
 21
59.70918958987816
 31
0.0
  0
LINE
  5
1BA9
330
1BA7
100
AcDbEntity
  8
文字
 62
     0
370
    -2
100
AcDbLine
 10
116.4721672699834
 20
41.70918958987818
 30
0.0
 11
126.5016357371803
 21
41.70918958987818
 31
0.0
  0
LINE
  5
1BAA
330
1BA7
100
AcDbEntity
  8
文字
 62
     0
370
    -2
100
AcDbLine
 10
125.2516357371803
 20
57.20918958987816
 30
0.0
 11
125.2516357371803
 21
44.20918958987818
 31
0.0
  0
SOLID
  5
1BAB
330
1BA7
100
AcDbEntity
  8
文字
 62
     0
100
AcDbTrace
 10
124.8349690705137
 20
57.20918958987816
 30
0.0
 11
125.668302403847
 21
57.20918958987816
 31
0.0
 12
125.2516357371803
 22
59.70918958987816
 32
0.0
 13
125.2516357371803
 23
59.70918958987816
 33
0.0
  0
SOLID
  5
1BAC
330
1BA7
100
AcDbEntity
  8
文字
 62
     0
100
AcDbTrace
 10
124.8349690705137
 20
44.20918958987818
 30
0.0
 11
125.668302403847
 21
44.20918958987818
 31
0.0
 12
125.2516357371803
 22
41.70918958987818
 32
0.0
 13
125.2516357371803
 23
41.70918958987818
 33
0.0
  0
MTEXT
  5
1BAD
330
1BA7
100
AcDbEntity
  8
文字
 62
     0
100
AcDbMText
 10
123.3766357371803
 20
50.70918958987819
 30
0.0
 40
2.5
 41
0.0
 46
0.0
 71
     5
 72
     1
  1
18
 11
6.123031769111886E-17
 21
1.0
 31
0.0
 73
     1
 44
1.0
  0
POINT
  5
1BAE
330
1BA7
100
AcDbEntity
  8
Defpoints
 62
     0
100
AcDbPoint
 10
86.41437904138826
 20
59.70918958987816
 30
0.0
  0
POINT
  5
1BAF
330
1BA7
100
AcDbEntity
  8
Defpoints
 62
     0
100
AcDbPoint
 10
115.8471672699834
 20
41.70918958987818
 30
0.0
  0
POINT
  5
1BB0
330
1BA7
100
AcDbEntity
  8
Defpoints
 62
     0
100
AcDbPoint
 10
125.2516357371803
 20
41.70918958987818
 30
0.0
  0
ENDBLK
  5
1BB2
330
1BA7
100
AcDbEntity
  8
0
 62
     1
100
AcDbBlockEnd
  0
BLOCK
  5
1BBD
330
1BB3
100
AcDbEntity
  8
0
 62
     1
100
AcDbBlockBegin
  2
*D17
 70
     1
 10
0.0
 20
0.0
 30
0.0
  3
*D17
  1
*D35
  0
LINE
  5
1BB4
330
1BB3
100
AcDbEntity
  8
文字
 62
     0
370
    -2
100
AcDbLine
 10
97.27216726998341
 20
74.70918958987818
 30
0.0
 11
126.5016357371803
 21
74.70918958987818
 31
0.0
  0
LINE
  5
1BB5
330
1BB3
100
AcDbEntity
  8
文字
 62
     0
370
    -2
100
AcDbLine
 10
86.41437904138826
 20
59.70918958987816
 30
0.0
 11
126.5016357371803
 21
59.70918958987816
 31
0.0
  0
LINE
  5
1BB6
330
1BB3
100
AcDbEntity
  8
文字
 62
     0
370
    -2
100
AcDbLine
 10
125.2516357371803
 20
72.20918958987818
 30
0.0
 11
125.2516357371803
 21
62.20918958987816
 31
0.0
  0
SOLID
  5
1BB7
330
1BB3
100
AcDbEntity
  8
文字
 62
     0
100
AcDbTrace
 10
124.8349690705137
 20
72.20918958987818
 30
0.0
 11
125.668302403847
 21
72.20918958987818
 31
0.0
 12
125.2516357371803
 22
74.70918958987818
 32
0.0
 13
125.2516357371803
 23
74.70918958987818
 33
0.0
  0
SOLID
  5
1BB8
330
1BB3
100
AcDbEntity
  8
文字
 62
     0
100
AcDbTrace
 10
124.8349690705137
 20
62.20918958987816
 30
0.0
 11
125.668302403847
 21
62.20918958987816
 31
0.0
 12
125.2516357371803
 22
59.70918958987816
 32
0.0
 13
125.2516357371803
 23
59.70918958987816
 33
0.0
  0
MTEXT
  5
1BB9
330
1BB3
100
AcDbEntity
  8
文字
 62
     0
100
AcDbMText
 10
123.3766357371803
 20
67.20918958987818
 30
0.0
 40
2.5
 41
0.0
 46
0.0
 71
     5
 72
     1
  1
15
 11
6.123031769111886E-17
 21
1.0
 31
0.0
 73
     1
 44
1.0
  0
POINT
  5
1BBA
330
1BB3
100
AcDbEntity
  8
Defpoints
 62
     0
100
AcDbPoint
 10
96.64716726998341
 20
74.70918958987818
 30
0.0
  0
POINT
  5
1BBB
330
1BB3
100
AcDbEntity
  8
Defpoints
 62
     0
100
AcDbPoint
 10
85.78937904138826
 20
59.70918958987816
 30
0.0
  0
POINT
  5
1BBC
330
1BB3
100
AcDbEntity
  8
Defpoints
 62
     0
100
AcDbPoint
 10
125.2516357371803
 20
59.70918958987816
 30
0.0
  0
ENDBLK
  5
1BBE
330
1BB3
100
AcDbEntity
  8
0
 62
     1
100
AcDbBlockEnd
  0
BLOCK
  5
1BC9
330
1BBF
100
AcDbEntity
  8
0
 62
     1
100
AcDbBlockBegin
  2
*D18
 70
     1
 10
0.0
 20
0.0
 30
0.0
  3
*D18
  1
*D36
  0
LINE
  5
1BC0
330
1BBF
100
AcDbEntity
  8
文字
 62
     0
370
    -2
100
AcDbLine
 10
85.4721672699834
 20
174.7091895898782
 30
0.0
 11
126.5016357371804
 21
174.7091895898782
 31
0.0
  0
LINE
  5
1BC1
330
1BBF
100
AcDbEntity
  8
文字
 62
     0
370
    -2
100
AcDbLine
 10
97.27216726998341
 20
74.70918958987818
 30
0.0
 11
126.5016357371803
 21
74.70918958987818
 31
0.0
  0
LINE
  5
1BC2
330
1BBF
100
AcDbEntity
  8
文字
 62
     0
370
    -2
100
AcDbLine
 10
125.2516357371804
 20
172.2091895898782
 30
0.0
 11
125.2516357371803
 21
77.20918958987818
 31
0.0
  0
SOLID
  5
1BC3
330
1BBF
100
AcDbEntity
  8
文字
 62
     0
100
AcDbTrace
 10
124.8349690705137
 20
172.2091895898782
 30
0.0
 11
125.668302403847
 21
172.2091895898782
 31
0.0
 12
125.2516357371804
 22
174.7091895898782
 32
0.0
 13
125.2516357371804
 23
174.7091895898782
 33
0.0
  0
SOLID
  5
1BC4
330
1BBF
100
AcDbEntity
  8
文字
 62
     0
100
AcDbTrace
 10
124.8349690705137
 20
77.20918958987818
 30
0.0
 11
125.668302403847
 21
77.20918958987818
 31
0.0
 12
125.2516357371803
 22
74.70918958987818
 32
0.0
 13
125.2516357371803
 23
74.70918958987818
 33
0.0
  0
MTEXT
  5
1BC5
330
1BBF
100
AcDbEntity
  8
文字
 62
     0
100
AcDbMText
 10
123.3766357371803
 20
124.7091895898782
 30
0.0
 40
2.5
 41
0.0
 46
0.0
 71
     5
 72
     1
  1
130
 11
6.123031769111886E-17
 21
1.0
 31
0.0
 73
     1
 44
1.0
  0
POINT
  5
1BC6
330
1BBF
100
AcDbEntity
  8
Defpoints
 62
     0
100
AcDbPoint
 10
84.8471672699834
 20
174.7091895898782
 30
0.0
  0
POINT
  5
1BC7
330
1BBF
100
AcDbEntity
  8
Defpoints
 62
     0
100
AcDbPoint
 10
96.64716726998341
 20
74.70918958987818
 30
0.0
  0
POINT
  5
1BC8
330
1BBF
100
AcDbEntity
  8
Defpoints
 62
     0
100
AcDbPoint
 10
125.2516357371803
 20
74.70918958987818
 30
0.0
  0
ENDBLK
  5
1BCA
330
1BBF
100
AcDbEntity
  8
0
 62
     1
100
AcDbBlockEnd
  0
BLOCK
  5
1BD5
330
1BCB
100
AcDbEntity
  8
0
 62
     1
100
AcDbBlockBegin
  2
*D19
 70
     1
 10
0.0
 20
0.0
 30
0.0
  3
*D19
  1
*D37
  0
LINE
  5
1BF1
330
1BCB
100
AcDbEntity
  8
文字
 62
     0
370
    -2
100
AcDbLine
 10
63.8471672699834
 20
172.3341895898782
 30
0.0
 11
63.8471672699834
 21
192.0185720974677
 31
0.0
  0
LINE
  5
1BF2
330
1BCB
100
AcDbEntity
  8
文字
 62
     0
370
    -2
100
AcDbLine
 10
87.8471672699834
 20
172.3341895898782
 30
0.0
 11
87.8471672699834
 21
192.0185720974677
 31
0.0
  0
LINE
  5
1BF3
330
1BCB
100
AcDbEntity
  8
文字
 62
     0
370
    -2
100
AcDbLine
 10
66.3471672699834
 20
190.7685720974677
 30
0.0
 11
85.3471672699834
 21
190.7685720974677
 31
0.0
  0
SOLID
  5
1BF4
330
1BCB
100
AcDbEntity
  8
文字
 62
     0
100
AcDbTrace
 10
66.3471672699834
 20
191.1852387641343
 30
0.0
 11
66.3471672699834
 21
190.351905430801
 31
0.0
 12
63.8471672699834
 22
190.7685720974677
 32
0.0
 13
63.8471672699834
 23
190.7685720974677
 33
0.0
  0
SOLID
  5
1BF5
330
1BCB
100
AcDbEntity
  8
文字
 62
     0
100
AcDbTrace
 10
85.3471672699834
 20
191.1852387641343
 30
0.0
 11
85.3471672699834
 21
190.351905430801
 31
0.0
 12
87.8471672699834
 22
190.7685720974677
 32
0.0
 13
87.8471672699834
 23
190.7685720974677
 33
0.0
  0
MTEXT
  5
1BF6
330
1BCB
100
AcDbEntity
  8
文字
 62
     0
100
AcDbMText
 10
75.8471672699834
 20
192.6435720974677
 30
0.0
 40
2.5
 41
0.0
 46
0.0
 71
     5
 72
     1
  1
M24
 73
     1
 44
1.0
  0
POINT
  5
1BF7
330
1BCB
100
AcDbEntity
  8
Defpoints
 62
     0
100
AcDbPoint
 10
63.8471672699834
 20
171.7091895898782
 30
0.0
  0
POINT
  5
1BF8
330
1BCB
100
AcDbEntity
  8
Defpoints
 62
     0
100
AcDbPoint
 10
87.8471672699834
 20
171.7091895898782
 30
0.0
  0
POINT
  5
1BF9
330
1BCB
100
AcDbEntity
  8
Defpoints
 62
     0
100
AcDbPoint
 10
87.8471672699834
 20
190.7685720974677
 30
0.0
  0
ENDBLK
  5
1BD6
330
1BCB
100
AcDbEntity
  8
0
 62
     1
100
AcDbBlockEnd
  0
BLOCK
  5
1BE1
330
1BD7
100
AcDbEntity
  8
0
 62
     1
100
AcDbBlockBegin
  2
*D20
 70
     1
 10
0.0
 20
0.0
 30
0.0
  3
*D20
  1
*D38
  0
LINE
  5
1BD8
330
1BD7
100
AcDbEntity
  8
文字
 62
     0
370
    -2
100
AcDbLine
 10
35.8471672699834
 20
41.08418958987818
 30
0.0
 11
35.8471672699834
 21
16.02288202360283
 31
0.0
  0
LINE
  5
1BD9
330
1BD7
100
AcDbEntity
  8
文字
 62
     0
370
    -2
100
AcDbLine
 10
115.8471672699834
 20
41.08418958987816
 30
0.0
 11
115.8471672699834
 21
16.02288202360283
 31
0.0
  0
LINE
  5
1BDA
330
1BD7
100
AcDbEntity
  8
文字
 62
     0
370
    -2
100
AcDbLine
 10
38.3471672699834
 20
17.27288202360283
 30
0.0
 11
113.3471672699834
 21
17.27288202360283
 31
0.0
  0
SOLID
  5
1BDB
330
1BD7
100
AcDbEntity
  8
文字
 62
     0
100
AcDbTrace
 10
38.3471672699834
 20
17.6895486902695
 30
0.0
 11
38.3471672699834
 21
16.85621535693616
 31
0.0
 12
35.8471672699834
 22
17.27288202360283
 32
0.0
 13
35.8471672699834
 23
17.27288202360283
 33
0.0
  0
SOLID
  5
1BDC
330
1BD7
100
AcDbEntity
  8
文字
 62
     0
100
AcDbTrace
 10
113.3471672699834
 20
17.6895486902695
 30
0.0
 11
113.3471672699834
 21
16.85621535693616
 31
0.0
 12
115.8471672699834
 22
17.27288202360283
 32
0.0
 13
115.8471672699834
 23
17.27288202360283
 33
0.0
  0
MTEXT
  5
1BDD
330
1BD7
100
AcDbEntity
  8
文字
 62
     0
100
AcDbMText
 10
75.8471672699834
 20
19.14788202360283
 30
0.0
 40
2.5
 41
0.0
 46
0.0
 71
     5
 72
     1
  1
%%c80
 73
     1
 44
1.0
  0
POINT
  5
1BDE
330
1BD7
100
AcDbEntity
  8
Defpoints
 62
     0
100
AcDbPoint
 10
35.8471672699834
 20
41.70918958987818
 30
0.0
  0
POINT
  5
1BDF
330
1BD7
100
AcDbEntity
  8
Defpoints
 62
     0
100
AcDbPoint
 10
115.8471672699834
 20
41.70918958987816
 30
0.0
  0
POINT
  5
1BE0
330
1BD7
100
AcDbEntity
  8
Defpoints
 62
     0
100
AcDbPoint
 10
115.8471672699834
 20
17.27288202360283
 30
0.0
  0
ENDBLK
  5
1BE2
330
1BD7
100
AcDbEntity
  8
0
 62
     1
100
AcDbBlockEnd
  0
BLOCK
  5
1BEF
330
1BE3
100
AcDbEntity
  8
0
 62
     1
100
AcDbBlockBegin
  2
*D21
 70
     1
 10
0.0
 20
0.0
 30
0.0
  3
*D21
  1
*D39
  0
LINE
  5
1BE4
330
1BE3
100
AcDbEntity
  8
文字
 62
     0
370
    -2
100
AcDbLine
 10
35.2221672699834
 20
41.70918958987818
 30
0.0
 11
21.93350719845597
 21
41.70918958987818
 31
0.0
  0
LINE
  5
1BE5
330
1BE3
100
AcDbEntity
  8
文字
 62
     0
370
    -2
100
AcDbLine
 10
35.2221672699834
 20
43.70918958987818
 30
0.0
 11
21.93350719845597
 21
43.70918958987818
 31
0.0
  0
LINE
  5
1BE6
330
1BE3
100
AcDbEntity
  8
文字
 62
     0
370
    -2
100
AcDbLine
 10
23.18350719845597
 20
39.20918958987818
 30
0.0
 11
23.18350719845597
 21
36.70918958987818
 31
0.0
  0
LINE
  5
1BE7
330
1BE3
100
AcDbEntity
  8
文字
 62
     0
370
    -2
100
AcDbLine
 10
23.18350719845597
 20
46.20918958987818
 30
0.0
 11
23.18350719845597
 21
51.62585625654484
 31
0.0
  0
LINE
  5
1BE8
330
1BE3
100
AcDbEntity
  8
文字
 62
     0
370
    -2
100
AcDbLine
 10
23.18350719845597
 20
41.70918958987818
 30
0.0
 11
23.18350719845597
 21
43.70918958987818
 31
0.0
  0
SOLID
  5
1BE9
330
1BE3
100
AcDbEntity
  8
文字
 62
     0
100
AcDbTrace
 10
22.7668405317893
 20
39.20918958987818
 30
0.0
 11
23.60017386512263
 21
39.20918958987818
 31
0.0
 12
23.18350719845597
 22
41.70918958987818
 32
0.0
 13
23.18350719845597
 23
41.70918958987818
 33
0.0
  0
SOLID
  5
1BEA
330
1BE3
100
AcDbEntity
  8
文字
 62
     0
100
AcDbTrace
 10
22.7668405317893
 20
46.20918958987818
 30
0.0
 11
23.60017386512264
 21
46.20918958987818
 31
0.0
 12
23.18350719845597
 22
43.70918958987818
 32
0.0
 13
23.18350719845597
 23
43.70918958987818
 33
0.0
  0
MTEXT
  5
1BEB
330
1BE3
100
AcDbEntity
  8
文字
 62
     0
100
AcDbMText
 10
21.30850719845596
 20
50.16752292321152
 30
0.0
 40
2.5
 41
0.0
 46
0.0
 71
     5
 72
     1
  1
2
 11
6.123031769111886E-17
 21
1.0
 31
0.0
 73
     1
 44
1.0
  0
POINT
  5
1BEC
330
1BE3
100
AcDbEntity
  8
Defpoints
 62
     0
100
AcDbPoint
 10
35.8471672699834
 20
41.70918958987818
 30
0.0
  0
POINT
  5
1BED
330
1BE3
100
AcDbEntity
  8
Defpoints
 62
     0
100
AcDbPoint
 10
35.8471672699834
 20
43.70918958987818
 30
0.0
  0
POINT
  5
1BEE
330
1BE3
100
AcDbEntity
  8
Defpoints
 62
     0
100
AcDbPoint
 10
23.18350719845597
 20
43.70918958987818
 30
0.0
  0
ENDBLK
  5
1BF0
330
1BE3
100
AcDbEntity
  8
0
 62
     1
100
AcDbBlockEnd
  0
BLOCK
  5
1C05
330
1BFB
100
AcDbEntity
  8
0
100
AcDbBlockBegin
  2
*D22
 70
     1
 10
0.0
 20
0.0
 30
0.0
  3
*D22
  1
*D40
  0
LINE
  5
1C3F
330
1BFB
100
AcDbEntity
  8
文字
 62
     0
370
    -2
100
AcDbLine
 10
85.4721672699834
 20
174.7091895898782
 30
0.0
 11
133.5484579792346
 21
174.7091895898782
 31
0.0
  0
LINE
  5
1C40
330
1BFB
100
AcDbEntity
  8
文字
 62
     0
370
    -2
100
AcDbLine
 10
116.4721672699834
 20
41.70918958987818
 30
0.0
 11
133.5484579792346
 21
41.70918958987818
 31
0.0
  0
LINE
  5
1C41
330
1BFB
100
AcDbEntity
  8
文字
 62
     0
370
    -2
100
AcDbLine
 10
132.2984579792346
 20
172.2091895898782
 30
0.0
 11
132.2984579792346
 21
44.20918958987818
 31
0.0
  0
SOLID
  5
1C42
330
1BFB
100
AcDbEntity
  8
文字
 62
     0
100
AcDbTrace
 10
131.881791312568
 20
172.2091895898782
 30
0.0
 11
132.7151246459013
 21
172.2091895898782
 31
0.0
 12
132.2984579792346
 22
174.7091895898782
 32
0.0
 13
132.2984579792346
 23
174.7091895898782
 33
0.0
  0
SOLID
  5
1C43
330
1BFB
100
AcDbEntity
  8
文字
 62
     0
100
AcDbTrace
 10
131.8817913125679
 20
44.20918958987818
 30
0.0
 11
132.7151246459013
 21
44.20918958987818
 31
0.0
 12
132.2984579792346
 22
41.70918958987818
 32
0.0
 13
132.2984579792346
 23
41.70918958987818
 33
0.0
  0
MTEXT
  5
1C44
330
1BFB
100
AcDbEntity
  8
文字
 62
     0
100
AcDbMText
 10
130.4234579792346
 20
108.2091895898782
 30
0.0
 40
2.5
 41
0.0
 46
0.0
 71
     5
 72
     1
  1
163
 11
6.123031769111886E-17
 21
1.0
 31
0.0
 73
     1
 44
1.0
  0
POINT
  5
1C45
330
1BFB
100
AcDbEntity
  8
Defpoints
 62
     0
100
AcDbPoint
 10
84.8471672699834
 20
174.7091895898782
 30
0.0
  0
POINT
  5
1C46
330
1BFB
100
AcDbEntity
  8
Defpoints
 62
     0
100
AcDbPoint
 10
115.8471672699834
 20
41.70918958987818
 30
0.0
  0
POINT
  5
1C47
330
1BFB
100
AcDbEntity
  8
Defpoints
 62
     0
100
AcDbPoint
 10
132.2984579792346
 20
41.70918958987818
 30
0.0
  0
ENDBLK
  5
1C06
330
1BFB
100
AcDbEntity
  8
0
100
AcDbBlockEnd
  0
ENDSEC
  0
SECTION
  2
ENTITIES
  0
MTEXT
  5
B75
330
21
100
AcDbEntity
  8
中心線
100
AcDbMText
 10
112.831139206696
 20
180.2175614817369
 30
0.0
 40
2.5
 41
0.0
 46
0.0
 71
     7
 72
     1
  1

 73
     1
 44
1.0
  0
DIMENSION
  5
1B51
102
{ACAD_REACTORS
330
1B53
102
}
102
{ACAD_XDICTIONARY
360
1B52
102
}
330
21
100
AcDbEntity
  8
文字
100
AcDbDimension
280
     0
  2
*D14
 10
239.7522166104054
 20
57.3472631035778
 30
0.0
 11
211.7522166104054
 21
59.2222631035778
 31
0.0
 70
    32
  1
%%c<>
 71
     5
 42
56.0
 73
     0
 74
     0
 75
     0
  3
ISO-25
100
AcDbAlignedDimension
 13
183.7522166104054
 23
119.9092636698851
 33
0.0
 14
239.7522166104054
 24
119.9092636698851
 34
0.0
100
AcDbRotatedDimension
  0
LINE
  5
1B54
330
21
100
AcDbEntity
  8
中心線
100
AcDbLine
 10
211.7522166104054
 20
119.9092636698851
 30
0.0
 11
211.7522166104054
 21
75.42106195230065
 31
0.0
  0
LINE
  5
1B55
330
21
100
AcDbEntity
  8
中心線
100
AcDbLine
 10
211.7522166104054
 20
119.9092636698851
 30
0.0
 11
211.7522166104054
 21
164.7282082674719
 31
0.0
  0
LINE
  5
1B56
102
{ACAD_REACTORS
330
1B53
102
}
330
21
100
AcDbEntity
  8
中心線
100
AcDbLine
 10
211.7522166104054
 20
119.9092636698851
 30
0.0
 11
258.5713596026419
 21
119.9092636698851
 31
0.0
  0
LINE
  5
1B57
102
{ACAD_REACTORS
330
1B53
102
}
330
21
100
AcDbEntity
  8
中心線
100
AcDbLine
 10
211.7522166104054
 20
119.9092636698851
 30
0.0
 11
165.2797670817824
 21
119.9092636698851
 31
0.0
  0
CIRCLE
  5
1B58
102
{ACAD_REACTORS
330
1B53
102
}
330
21
100
AcDbEntity
  8
実線
100
AcDbCircle
 10
211.7522166104054
 20
119.9092636698851
 30
0.0
 40
28.0
  0
LWPOLYLINE
  5
1B59
330
21
100
AcDbEntity
  8
実線
100
AcDbPolyline
 90
        2
 70
     0
 43
0.0
 10
63.84716726998339
 20
125.7148237728156
 10
63.8471672699834
 20
90.7622659129215
  0
LINE
  5
1B5A
330
21
100
AcDbEntity
  8
実線
370
    15
100
AcDbLine
 10
66.84716726998337
 20
127.4468745803844
 30
0.0
 11
66.84716726998339
 21
90.7622659129215
 31
0.0
  0
LINE
  5
1B5B
330
21
100
AcDbEntity
  8
実線
370
    15
100
AcDbLine
 10
84.84716726998337
 20
137.8391794257977
 30
0.0
 11
84.84716726998339
 21
90.7622659129215
 31
0.0
  0
LINE
  5
1B5C
330
21
100
AcDbEntity
  8
実線
100
AcDbLine
 10
54.95819575022819
 20
122.8921747498245
 30
0.0
 11
96.1597599426898
 21
146.6799089273758
 31
0.0
  0
LINE
  5
1B5D
330
21
100
AcDbEntity
  8
実線
100
AcDbLine
 10
54.85838801335984
 20
120.5251496493178
 30
0.0
 11
96.15646832680956
 21
144.3686074353028
 31
0.0
  0
DIMENSION
  5
1B5E
102
{ACAD_REACTORS
330
1B60
102
}
102
{ACAD_XDICTIONARY
360
1B5F
102
}
330
21
100
AcDbEntity
  8
文字
100
AcDbDimension
280
     0
  2
*D15
 10
229.7655450091217
 20
64.9141501627563
 30
0.0
 11
211.7522166104054
 21
66.7891501627563
 31
0.0
 70
    32
  1
36
 71
     5
 42
36.02665679743265
 73
     0
 74
     0
 75
     0
  3
ISO-25
100
AcDbAlignedDimension
 13
193.7388882116891
 23
109.5092636698851
 33
0.0
 14
229.7655450091217
 24
109.5092636698851
 34
0.0
100
AcDbRotatedDimension
  0
DIMENSION
  5
1B61
102
{ACAD_REACTORS
330
1B63
102
}
102
{ACAD_XDICTIONARY
360
1B62
102
}
330
21
100
AcDbEntity
  8
文字
100
AcDbDimension
280
     0
  2
*D16
 10
125.2516357371803
 20
41.70918958987818
 30
0.0
 11
123.3766357371803
 21
50.70918958987819
 31
0.0
 70
    32
 71
     5
 42
17.99999999999998
 73
     0
 74
     0
 75
     0
  3
ISO-25
100
AcDbAlignedDimension
 13
86.41437904138826
 23
59.70918958987816
 33
0.0
 14
115.8471672699834
 24
41.70918958987818
 34
0.0
 50
90.0
100
AcDbRotatedDimension
  0
DIMENSION
  5
1B64
102
{ACAD_REACTORS
330
1B66
102
}
102
{ACAD_XDICTIONARY
360
1B65
102
}
330
21
100
AcDbEntity
  8
文字
100
AcDbDimension
280
     0
  2
*D17
 10
125.2516357371803
 20
59.70918958987816
 30
0.0
 11
123.3766357371803
 21
67.20918958987818
 31
0.0
 70
    32
 71
     5
 42
15.00000000000002
 73
     0
 74
     0
 75
     0
  3
ISO-25
100
AcDbAlignedDimension
 13
96.64716726998341
 23
74.70918958987818
 33
0.0
 14
85.78937904138826
 24
59.70918958987816
 34
0.0
 50
90.0
100
AcDbRotatedDimension
  0
DIMENSION
  5
1B67
102
{ACAD_REACTORS
330
1B69
102
}
102
{ACAD_XDICTIONARY
360
1B68
102
}
330
21
100
AcDbEntity
  8
文字
100
AcDbDimension
280
     0
  2
*D18
 10
125.2516357371803
 20
74.70918958987818
 30
0.0
 11
123.3766357371803
 21
124.7091895898782
 31
0.0
 70
    32
  1
130
 71
     5
 42
100.0
 73
     0
 74
     0
 75
     0
  3
ISO-25
100
AcDbAlignedDimension
 13
84.8471672699834
 23
174.7091895898782
 33
0.0
 14
96.64716726998341
 24
74.70918958987818
 34
0.0
 50
90.0
100
AcDbRotatedDimension
  0
CIRCLE
  5
1B6A
330
21
100
AcDbEntity
  8
実線
370
    30
100
AcDbCircle
 10
211.7522166104054
 20
119.9092636698851
 30
0.0
 40
9.0
  0
CIRCLE
  5
1B6B
330
21
100
AcDbEntity
  8
実線
100
AcDbCircle
 10
211.7522166104054
 20
119.9092636698851
 30
0.0
 40
12.0
  0
LWPOLYLINE
  5
1B6C
102
{ACAD_REACTORS
330
1B60
102
}
330
21
100
AcDbEntity
  8
実線
100
AcDbPolyline
 90
        6
 70
     1
 43
0.0
 10
229.7655450091218
 20
130.3092636698851
 10
211.7522166104054
 20
140.7092636698851
 10
193.7388882116891
 20
130.3092636698851
 10
193.7388882116891
 20
109.5092636698851
 10
211.7522166104054
 20
99.10926366988511
 10
229.7655450091217
 20
109.5092636698851
  0
CIRCLE
  5
1B6D
330
21
100
AcDbEntity
  8
実線
100
AcDbCircle
 10
211.7522166104054
 20
119.9092636698851
 30
0.0
 40
40.0
  0
DIMENSION
  5
1B6E
102
{ACAD_REACTORS
330
1B70
102
}
102
{ACAD_XDICTIONARY
360
1B6F
102
}
330
21
100
AcDbEntity
  8
文字
100
AcDbDimension
280
     0
  2
*D19
 10
87.8471672699834
 20
190.7685720974677
 30
0.0
 11
75.8471672699834
 21
192.6435720974677
 31
0.0
 70
    32
  1
M<>
 71
     5
 42
24.0
 73
     0
 74
     0
 75
     0
  3
ISO-25
100
AcDbAlignedDimension
 13
63.8471672699834
 23
171.7091895898782
 33
0.0
 14
87.8471672699834
 24
171.7091895898782
 34
0.0
100
AcDbRotatedDimension
  0
LINE
  5
1B71
102
{ACAD_REACTORS
330
1B69
102
}
330
21
100
AcDbEntity
  8
実線
370
    15
100
AcDbLine
 10
84.8471672699834
 20
174.7091895898782
 30
0.0
 11
84.84716726998337
 21
140.1485805025562
 31
0.0
  0
LINE
  5
1B72
330
21
100
AcDbEntity
  8
実線
370
    15
100
AcDbLine
 10
66.8471672699834
 20
174.7091895898782
 30
0.0
 11
66.84716726998337
 21
129.7562756571429
 31
0.0
  0
LINE
  5
1B73
102
{ACAD_REACTORS
330
1B70
102
}
330
21
100
AcDbEntity
  8
実線
370
    20
100
AcDbLine
 10
63.8471672699834
 20
171.7091895898782
 30
0.0
 11
87.8471672699834
 21
171.7091895898782
 31
0.0
  0
LWPOLYLINE
  5
1B74
102
{ACAD_REACTORS
330
1C11
102
}
330
21
100
AcDbEntity
  8
実線
100
AcDbPolyline
 90
        6
 70
     0
 43
0.0
 10
87.84716726998339
 20
141.8806313101251
 10
87.8471672699834
 20
171.7091895898782
 10
84.8471672699834
 20
174.7091895898782
 10
66.8471672699834
 20
174.7091895898782
 10
63.8471672699834
 20
171.7091895898782
 10
63.84716726998339
 20
128.0242248495741
  0
LWPOLYLINE
  5
1B75
330
21
100
AcDbEntity
  8
実線
100
AcDbPolyline
 90
        2
 70
     0
 43
0.0
 10
60.24716726998341
 20
59.70918958987818
 10
91.44716726998342
 20
59.70918958987818
  0
LINE
  5
1B76
330
21
100
AcDbEntity
  8
実線
100
AcDbLine
 10
86.24716726998342
 20
61.70918958987818
 30
0.0
 11
86.24716726998342
 21
74.70918958987818
 31
0.0
  0
LINE
  5
1B77
330
21
100
AcDbEntity
  8
実線
100
AcDbLine
 10
65.44716726998344
 20
61.70918958987816
 30
0.0
 11
65.44716726998344
 21
74.70918958987818
 31
0.0
  0
ARC
  5
1B78
330
21
100
AcDbEntity
  8
実線
100
AcDbCircle
 10
91.44716726998342
 20
67.46918958987817
 30
0.0
 40
7.759999999999995
100
AcDbArc
 50
227.9249779491562
 51
312.0750220508438
  0
ARC
  5
1B79
330
21
100
AcDbEntity
  8
実線
100
AcDbCircle
 10
75.84716726998342
 20
87.74918958987824
 30
0.0
 40
28.04000000000006
100
AcDbArc
 50
248.2289458906826
 51
291.7710541093174
  0
ARC
  5
1B7A
330
21
100
AcDbEntity
  8
実線
100
AcDbCircle
 10
60.24716726998341
 20
67.46918958987816
 30
0.0
 40
7.759999999999985
100
AcDbArc
 50
227.9249779491562
 51
312.0750220508438
  0
LWPOLYLINE
  5
1B7B
102
{ACAD_REACTORS
330
1B69
330
1B66
102
}
330
21
100
AcDbEntity
  8
実線
100
AcDbPolyline
 90
        4
 70
     0
 43
0.0
 10
96.64716726998341
 20
61.70918958987816
 10
96.64716726998341
 20
74.70918958987818
 10
55.0471672699834
 20
74.70918958987818
 10
55.0471672699834
 20
61.70918958987818
  0
LINE
  5
1B7C
330
21
100
AcDbEntity
  8
中心線
100
AcDbLine
 10
75.8471672699834
 20
29.70918958987818
 30
0.0
 11
75.8471672699834
 21
182.8011869131567
 31
0.0
  0
ARC
  5
1B7D
330
21
100
AcDbEntity
  8
実線
100
AcDbCircle
 10
73.63322811301799
 20
32.79685408370358
 30
0.0
 40
28.0
100
AcDbArc
 50
106.022196881245
 51
153.3342414546739
  0
ARC
  5
1B7E
102
{ACAD_REACTORS
330
1B66
102
}
330
21
100
AcDbEntity
  8
実線
100
AcDbCircle
 10
78.06110642694881
 20
32.79685408370358
 30
0.0
 40
28.0
100
AcDbArc
 50
26.665758545325
 51
73.97780311875505
  0
LINE
  5
1B7F
102
{ACAD_REACTORS
330
1B63
102
}
330
21
100
AcDbEntity
  8
実線
100
AcDbLine
 10
115.8471672699834
 20
41.70918958987818
 30
0.0
 11
35.8471672699834
 21
41.70918958987818
 31
0.0
  0
LINE
  5
1B80
102
{ACAD_REACTORS
330
1B8B
330
1B8E
102
}
330
21
100
AcDbEntity
  8
実線
100
AcDbLine
 10
35.8471672699834
 20
41.70918958987818
 30
0.0
 11
35.8471672699834
 21
43.70918958987818
 31
0.0
  0
LINE
  5
1B81
102
{ACAD_REACTORS
330
1B8E
102
}
330
21
100
AcDbEntity
  8
実線
100
AcDbLine
 10
35.8471672699834
 20
43.70918958987818
 30
0.0
 11
45.93039575306545
 21
43.70918958987818
 31
0.0
  0
LINE
  5
1B82
102
{ACAD_REACTORS
330
1B8B
330
1C11
102
}
330
21
100
AcDbEntity
  8
実線
100
AcDbLine
 10
115.8471672699834
 20
43.70918958987818
 30
0.0
 11
115.8471672699834
 21
41.70918958987818
 31
0.0
  0
LINE
  5
1B83
330
21
100
AcDbEntity
  8
実線
100
AcDbLine
 10
45.93039575306545
 20
43.70918958987818
 30
0.0
 11
45.93039575306543
 21
43.70918958987818
 31
0.0
  0
ARC
  5
1B84
330
21
100
AcDbEntity
  8
実線
100
AcDbCircle
 10
45.93039575306546
 20
46.70918958987819
 30
0.0
 40
3.0
100
AcDbArc
 50
269.9999999999992
 51
333.3342414546739
  0
ARC
  5
1B85
330
21
100
AcDbEntity
  8
実線
100
AcDbCircle
 10
105.7639387869014
 20
46.70918958987812
 30
0.0
 40
3.0
100
AcDbArc
 50
206.6657585453261
 51
270.0000000000007
  0
LINE
  5
1B86
330
21
100
AcDbEntity
  8
実線
100
AcDbLine
 10
105.7639387869014
 20
43.70918958987812
 30
0.0
 11
105.7639387869014
 21
43.70918958987812
 31
0.0
  0
LINE
  5
1B87
330
21
100
AcDbEntity
  8
実線
100
AcDbLine
 10
115.8471672699835
 20
43.70918958987812
 30
0.0
 11
105.7639387869014
 21
43.70918958987812
 31
0.0
  0
LINE
  5
1B88
330
21
100
AcDbEntity
  8
実線
100
AcDbLine
 10
45.93039575306545
 20
43.70918958987818
 30
0.0
 11
105.7639387869014
 21
43.70918958987812
 31
0.0
  0
DIMENSION
  5
1B89
102
{ACAD_REACTORS
330
1B8B
102
}
102
{ACAD_XDICTIONARY
360
1B8A
102
}
330
21
100
AcDbEntity
  8
文字
100
AcDbDimension
280
     0
  2
*D20
 10
115.8471672699834
 20
17.27288202360283
 30
0.0
 11
75.8471672699834
 21
19.14788202360283
 31
0.0
 70
    32
  1
%%c<>
 71
     5
 42
80.0
 73
     0
 74
     0
 75
     0
  3
ISO-25
100
AcDbAlignedDimension
 13
35.8471672699834
 23
41.70918958987818
 33
0.0
 14
115.8471672699834
 24
41.70918958987816
 34
0.0
 50
180.0
100
AcDbRotatedDimension
  0
DIMENSION
  5
1B8C
102
{ACAD_REACTORS
330
1B8E
102
}
102
{ACAD_XDICTIONARY
360
1B8D
102
}
330
21
100
AcDbEntity
  8
文字
100
AcDbDimension
280
     0
  2
*D21
 10
23.18350719845597
 20
43.70918958987818
 30
0.0
 11
21.30850719845596
 21
50.16752292321152
 31
0.0
 70
    32
 71
     5
 42
2.0
 73
     0
 74
     0
 75
     0
  3
ISO-25
100
AcDbAlignedDimension
 13
35.8471672699834
 23
41.70918958987818
 33
0.0
 14
35.8471672699834
 24
43.70918958987818
 34
0.0
 50
90.0
100
AcDbRotatedDimension
  0
LWPOLYLINE
  5
1C3A
330
21
100
AcDbEntity
  8
実線
100
AcDbPolyline
 90
        4
 70
     0
 43
0.0
 10
63.8471672699834
 20
90.7622659129215
 10
63.8471672699834
 20
74.70918958987818
 10
87.8471672699834
 20
74.70918958987818
 10
87.8471672699834
 20
90.7622659129215
  0
LINE
  5
1C3B
330
21
100
AcDbEntity
  8
実線
370
    15
100
AcDbLine
 10
66.84716726998339
 20
90.7622659129215
 30
0.0
 11
66.84716726998339
 21
74.70918958987818
 31
0.0
  0
LINE
  5
1C3C
330
21
100
AcDbEntity
  8
実線
370
    15
100
AcDbLine
 10
84.84716726998339
 20
90.7622659129215
 30
0.0
 11
84.84716726998339
 21
74.70918958987818
 31
0.0
  0
LWPOLYLINE
  5
1C3D
330
21
100
AcDbEntity
  8
実線
100
AcDbPolyline
 90
        2
 70
     0
 43
0.0
 10
87.8471672699834
 20
90.7622659129215
 10
87.84716726998339
 20
139.5712302333666
  0
MTEXT
  5
1CFE
330
21
100
AcDbEntity
  8
文字・寸法線
 62
     0
100
AcDbMText
 10
74.62767159453648
 20
223.4568537055967
 30
0.0
 40
6.0
 41
0.0
 46
6.0
 71
     9
 72
     1
  1
{\fＭＳ ゴシック|b0|i0|c0|p0;S-C M24X130}
 73
     1
 44
1.0
1001
ACAD
1000
ACAD_MTEXT_DEFINED_HEIGHT_BEGIN
1070
    46
1040
6.0
1000
ACAD_MTEXT_DEFINED_HEIGHT_END
  0
VIEWPORT
  5
1CC4
330
1CC0
100
AcDbEntity
 67
     1
  8
0
100
AcDbViewport
 10
203.7291666666666
 20
142.1694444444444
 30
0.0
 40
488.9499999999999
 41
341.2066666666665
 68
     1
 69
     1
 12
203.7291666666666
 22
142.1694444444444
 13
0.0
 23
0.0
 14
0.5
 24
0.5
 15
0.0
 25
0.0
 16
0.0
 26
0.0
 36
1.0
 17
0.0
 27
0.0
 37
0.0
 42
50.0
 43
0.0
 44
0.0
 45
341.2066666666665
 50
0.0
 51
0.0
 72
   100
 90
   557152
  1

281
     0
 71
     1
 74
     0
110
0.0
120
0.0
130
0.0
111
1.0
121
0.0
131
0.0
112
0.0
122
1.0
132
0.0
 79
     0
146
0.0
170
     0
 61
     5
348
1C82
292
     1
282
     1
141
0.0
142
0.0
 63
   256
361
1CC6
  0
VIEWPORT
  5
1CC5
330
1CC0
100
AcDbEntity
 67
     1
  8
0
100
AcDbViewport
 10
203.7291666666666
 20
142.1694444444444
 30
0.0
 40
325.9666666666666
 41
227.471111111111
 68
     2
 69
     2
 12
139.3149334005489
 22
104.9582270605352
 13
0.0
 23
0.0
 14
0.5
 24
0.5
 15
0.0
 25
0.0
 16
0.0
 26
0.0
 36
1.0
 17
0.0
 27
0.0
 37
0.0
 42
50.0
 43
0.0
 44
0.0
 45
181.4281038753421
 50
0.0
 51
0.0
 72
   100
 90
   557152
  1

281
     0
 71
     1
 74
     0
110
0.0
120
0.0
130
0.0
111
1.0
121
0.0
131
0.0
112
0.0
122
1.0
132
0.0
 79
     0
146
0.0
170
     0
 61
     5
348
1C82
292
     1
282
     1
141
0.0
142
0.0
 63
   256
  0
ENDSEC
  0
SECTION
  2
OBJECTS
  0
DICTIONARY
  5
C
330
0
100
AcDbDictionary
281
     1
  3
ACAD_COLOR
350
1C
  3
ACAD_DETAILVIEWSTYLE
350
1CCF
  3
ACAD_GROUP
350
D
  3
ACAD_IMAGE_VARS
350
1CBF
  3
ACAD_LAYOUT
350
1A
  3
ACAD_MATERIAL
350
1B
  3
ACAD_MLEADERSTYLE
350
1CCD
  3
ACAD_MLINESTYLE
350
17
  3
ACAD_PLOTSETTINGS
350
19
  3
ACAD_PLOTSTYLENAME
350
E
  3
ACAD_SCALELIST
350
1C96
  3
ACAD_SECTIONVIEWSTYLE
350
1CD0
  3
ACAD_TABLESTYLE
350
1CBB
  3
ACAD_VISUALSTYLE
350
1C7D
  3
AcadDim
350
1271
  3
ACDB_RECOMPOSE_DATA
350
1D04
  3
AcDbVariableDictionary
350
13CA
  3
APPDATA
350
1CBD
  0
SUN
  5
1CC7
330
1C71
100
AcDbSun
 90
        1
290
     0
 63
     7
421
 16777215
 40
1.0
291
     1
 91
  2455826
 92
 54000000
292
     0
 70
     2
 71
   256
280
     1
  0
DICTIONARY
  5
1A12
330
1A11
100
AcDbDictionary
280
     1
281
     1
  3
ACAD_DIMASSOC
360
1A13
  0
DICTIONARY
  5
1A17
330
1A16
100
AcDbDictionary
280
     1
281
     1
  3
ACAD_DIMASSOC
360
1A18
  0
DICTIONARY
  5
1A1A
330
1A19
100
AcDbDictionary
280
     1
281
     1
  3
ACAD_DIMASSOC
360
1A1B
  0
DICTIONARY
  5
1A1D
330
1A1C
100
AcDbDictionary
280
     1
281
     1
  3
ACAD_DIMASSOC
360
1A1E
  0
DICTIONARY
  5
1A21
330
1A20
100
AcDbDictionary
280
     1
281
     1
  3
ACAD_DIMASSOC
360
1A22
  0
DICTIONARY
  5
1A28
330
1A27
100
AcDbDictionary
280
     1
281
     1
  3
ACAD_DIMASSOC
360
1A29
  0
DICTIONARY
  5
1A2B
330
1A2A
100
AcDbDictionary
280
     1
281
     1
  3
ACAD_DIMASSOC
360
1A2C
  0
DICTIONARY
  5
1A31
330
1A30
100
AcDbDictionary
280
     1
281
     1
  3
ACAD_DIMASSOC
360
1A32
  0
DICTIONARY
  5
1B52
330
1B51
100
AcDbDictionary
280
     1
281
     1
  3
ACAD_DIMASSOC
360
1B53
  0
DICTIONARY
  5
1B5F
330
1B5E
100
AcDbDictionary
280
     1
281
     1
  3
ACAD_DIMASSOC
360
1B60
  0
DICTIONARY
  5
1B62
330
1B61
100
AcDbDictionary
280
     1
281
     1
  3
ACAD_DIMASSOC
360
1B63
  0
DICTIONARY
  5
1B65
330
1B64
100
AcDbDictionary
280
     1
281
     1
  3
ACAD_DIMASSOC
360
1B66
  0
DICTIONARY
  5
1B68
330
1B67
100
AcDbDictionary
280
     1
281
     1
  3
ACAD_DIMASSOC
360
1B69
  0
DICTIONARY
  5
1B6F
330
1B6E
100
AcDbDictionary
280
     1
281
     1
  3
ACAD_DIMASSOC
360
1B70
  0
DICTIONARY
  5
1B8A
330
1B89
100
AcDbDictionary
280
     1
281
     1
  3
ACAD_DIMASSOC
360
1B8B
  0
DICTIONARY
  5
1B8D
330
1B8C
100
AcDbDictionary
280
     1
281
     1
  3
ACAD_DIMASSOC
360
1B8E
  0
SUN
  5
1CC6
330
1CC4
100
AcDbSun
 90
        1
290
     0
 63
     7
421
 16777215
 40
1.0
291
     1
 91
  2455826
 92
 54000000
292
     0
 70
     2
 71
   256
280
     1
  0
DICTIONARY
  5
1C
102
{ACAD_REACTORS
330
C
102
}
330
C
100
AcDbDictionary
281
     1
  0
DICTIONARY
  5
1CCF
102
{ACAD_REACTORS
330
C
102
}
330
C
100
AcDbDictionary
281
     1
  0
DICTIONARY
  5
D
102
{ACAD_REACTORS
330
C
102
}
330
C
100
AcDbDictionary
281
     1
  0
RASTERVARIABLES
  5
1CBF
102
{ACAD_REACTORS
330
C
102
}
330
C
100
AcDbRasterVariables
 90
        0
 70
     1
 71
     1
 72
     1
  0
DICTIONARY
  5
1A
102
{ACAD_REACTORS
330
C
102
}
330
C
100
AcDbDictionary
281
     1
  3
Model
350
24
  3
Sheet1
350
1CC1
  0
DICTIONARY
  5
1B
102
{ACAD_REACTORS
330
C
102
}
330
C
100
AcDbDictionary
281
     1
  3
ByBlock
350
1CB9
  3
ByLayer
350
1CB8
  3
Global
350
1CBA
  0
DICTIONARY
  5
1CCD
102
{ACAD_REACTORS
330
C
102
}
330
C
100
AcDbDictionary
281
     1
  0
DICTIONARY
  5
17
102
{ACAD_REACTORS
330
C
102
}
330
C
100
AcDbDictionary
281
     1
  3
Standard
350
18
  0
DICTIONARY
  5
19
102
{ACAD_REACTORS
330
C
102
}
330
C
100
AcDbDictionary
281
     1
  0
ACDBDICTIONARYWDFLT
  5
E
102
{ACAD_REACTORS
330
C
102
}
330
C
100
AcDbDictionary
281
     1
  3
Normal
350
F
100
AcDbDictionaryWithDefault
340
F
  0
DICTIONARY
  5
1C96
102
{ACAD_REACTORS
330
C
102
}
330
C
100
AcDbDictionary
281
     1
  3
A0
350
1C97
  3
A1
350
1C98
  3
A2
350
1C99
  3
A3
350
1C9A
  3
A4
350
1C9B
  3
A5
350
1C9C
  3
A6
350
1C9D
  3
A7
350
1C9E
  3
A8
350
1C9F
  3
A9
350
1CA0
  3
B0
350
1CA1
  3
B1
350
1CA2
  3
B2
350
1CA3
  3
B3
350
1CA4
  3
B4
350
1CA5
  3
B5
350
1CA6
  3
B6
350
1CA7
  3
B7
350
1CA8
  3
B8
350
1CA9
  3
B9
350
1CAA
  3
C0
350
1CAB
  3
C1
350
1CAC
  3
C2
350
1CAD
  3
C3
350
1CAE
  3
C4
350
1CAF
  3
C5
350
1CB0
  3
C6
350
1CB1
  3
C7
350
1CB2
  3
C8
350
1CB3
  3
C9
350
1CB4
  3
D0
350
1CB5
  3
D1
350
1CB6
  3
D2
350
1CB7
  0
DICTIONARY
  5
1CD0
102
{ACAD_REACTORS
330
C
102
}
330
C
100
AcDbDictionary
281
     1
  0
DICTIONARY
  5
1CBB
102
{ACAD_REACTORS
330
C
102
}
330
C
100
AcDbDictionary
281
     1
  3
Standard
350
1CBC
  0
DICTIONARY
  5
1C7D
102
{ACAD_REACTORS
330
C
102
}
330
C
100
AcDbDictionary
281
     1
  3
2dWireframe
350
1C82
  3
Basic
350
1C85
  3
Brighten
350
1C89
  3
ColorChange
350
1C8D
  3
Conceptual
350
1C87
  3
Dim
350
1C88
  3
EdgeColorOff
350
1C90
  3
Facepattern
350
1C8C
  3
Flat
350
1C7E
  3
FlatWithEdges
350
1C7F
  3
Gouraud
350
1C80
  3
GouraudWithEdges
350
1C81
  3
Hidden
350
1C84
  3
JitterOff
350
1C8E
  3
Linepattern
350
1C8B
  3
OverhangOff
350
1C8F
  3
Realistic
350
1C86
  3
Shaded
350
1C95
  3
Shaded with edges
350
1C94
  3
Shades of Gray
350
1C91
  3
Sketchy
350
1C92
  3
Thicken
350
1C8A
  3
Wireframe
350
1C83
  3
X-Ray
350
1C93
  0
XRECORD
  5
1271
102
{ACAD_REACTORS
330
C
102
}
330
C
100
AcDbXrecord
280
     1
 90
   990106
  3

 60
     0
 61
     0
 62
     4
 63
     4
 64
     1
 65
     0
 66
     0
 67
     3
 68
     1
 69
     0
 70
     0
 71
     0
 72
     0
 40
0.0
170
     2
340
0
  0
XRECORD
  5
1D04
102
{ACAD_REACTORS
330
C
102
}
330
C
100
AcDbXrecord
280
     1
 90
        1
330
1CBC
  0
DICTIONARY
  5
13CA
102
{ACAD_REACTORS
330
C
102
}
330
C
100
AcDbDictionary
281
     1
  3
CANNOSCALE
350
1CC8
  3
CTABLESTYLE
350
1CCC
  3
DIMASSOC
350
13CC
  3
HIDETEXT
350
13CB
  3
MSLTSCALE
350
1CCE
  3
PROJECTNAME
350
13CD
  0
DICTIONARY
  5
1CBD
102
{ACAD_REACTORS
330
C
102
}
330
C
100
AcDbDictionary
281
     1
  0
DIMASSOC
  5
1A13
102
{ACAD_REACTORS
330
1A12
102
}
330
1A12
100
AcDbDimAssoc
330
1A11
 90
        3
 70
     0
 71
     0
  1
AcDbOsnapPointRef
 72
     1
331
1A48
 73
     2
 91
        0
 40
1.0
 10
0.0
 20
0.0
 30
2.000000000000000E+50
 75
     0
  1
AcDbOsnapPointRef
 72
    13
331
1A23
 73
     2
 91
        0
 40
0.0
 10
0.0
 20
0.0
 30
2.000000000000000E+50
 75
     0
  0
DIMASSOC
  5
1A18
102
{ACAD_REACTORS
330
1A17
102
}
330
1A17
100
AcDbDimAssoc
330
1A16
 90
        3
 70
     0
 71
     0
  1
AcDbOsnapPointRef
 72
     1
331
1A3B
 73
     2
 91
        1
 40
1.0
 10
0.0
 20
0.0
 30
2.000000000000000E+50
 75
     0
  1
AcDbOsnapPointRef
 72
    13
331
1A23
 73
     2
 91
        0
 40
0.0
 10
0.0
 20
0.0
 30
2.000000000000000E+50
 75
     0
  0
DIMASSOC
  5
1A1B
102
{ACAD_REACTORS
330
1A1A
102
}
330
1A1A
100
AcDbDimAssoc
330
1A19
 90
        3
 70
     0
 71
     0
  1
AcDbOsnapPointRef
 72
     6
331
1A34
 73
     2
 91
        0
 40
1.0
 10
0.0
 20
0.0
 30
0.0
332
1A44
 74
     2
 92
        0
 75
     0
  1
AcDbOsnapPointRef
 72
     1
331
1A3B
 73
     2
 91
        1
 40
1.0
 10
0.0
 20
0.0
 30
2.000000000000000E+50
 75
     0
  0
DIMASSOC
  5
1A1E
102
{ACAD_REACTORS
330
1A1D
102
}
330
1A1D
100
AcDbDimAssoc
330
1A1C
 90
        3
 70
     0
 71
     0
  1
AcDbOsnapPointRef
 72
     1
331
1A48
 73
     2
 91
        0
 40
1.0
 10
0.0
 20
0.0
 30
2.000000000000000E+50
 75
     0
  1
AcDbOsnapPointRef
 72
     6
331
1A34
 73
     2
 91
        0
 40
1.0
 10
0.0
 20
0.0
 30
0.0
332
1A44
 74
     2
 92
        0
 75
     0
  0
DIMASSOC
  5
1A22
102
{ACAD_REACTORS
330
1A21
102
}
330
1A21
100
AcDbDimAssoc
330
1A20
 90
        3
 70
     0
 71
     0
  1
AcDbOsnapPointRef
 72
    13
331
1A25
 73
     2
 91
        0
 40
0.0
 10
0.0
 20
0.0
 30
2.000000000000000E+50
 75
     0
  1
AcDbOsnapPointRef
 72
     1
331
1A25
 73
     2
 91
        0
 40
1.0
 10
0.0
 20
0.0
 30
2.000000000000000E+50
 75
     0
  0
DIMASSOC
  5
1A29
102
{ACAD_REACTORS
330
1A28
102
}
330
1A28
100
AcDbDimAssoc
330
1A27
 90
        3
 70
     0
 71
     0
  1
AcDbOsnapPointRef
 72
     2
331
1A2F
 73
     2
 91
        3
 40
0.5
 10
0.0
 20
0.0
 30
0.0
 75
     0
  1
AcDbOsnapPointRef
 72
     6
331
1A2F
 73
     2
 91
        6
 40
0.5000000000000038
 10
0.0
 20
0.0
 30
0.0
332
1A3C
 74
     2
 92
        0
 75
     0
  0
DIMASSOC
  5
1A2C
102
{ACAD_REACTORS
330
1A2B
102
}
330
1A2B
100
AcDbDimAssoc
330
1A2A
 90
        3
 70
     0
 71
     0
  1
AcDbOsnapPointRef
 72
    13
331
1A46
 73
     2
 91
        0
 40
0.0
 10
0.0
 20
0.0
 30
2.000000000000000E+50
 75
     0
  1
AcDbOsnapPointRef
 72
    13
331
1A49
 73
     2
 91
        0
 40
0.0
 10
0.0
 20
0.0
 30
2.000000000000000E+50
 75
     0
  0
DIMASSOC
  5
1A32
102
{ACAD_REACTORS
330
1A31
102
}
330
1A31
100
AcDbDimAssoc
330
1A30
 90
        3
 70
     0
 71
     0
  1
AcDbOsnapPointRef
 72
     5
331
1A40
 73
     2
 91
        0
 40
3.141592653589793
 10
0.0
 20
0.0
 30
0.0
 75
     0
  1
AcDbOsnapPointRef
 72
     5
331
1A40
 73
     2
 91
        0
 40
0.0
 10
0.0
 20
0.0
 30
0.0
 75
     0
  0
DIMASSOC
  5
1B53
102
{ACAD_REACTORS
330
1B52
102
}
330
1B52
100
AcDbDimAssoc
330
1B51
 90
        3
 70
     0
 71
     0
  1
AcDbOsnapPointRef
 72
     6
331
1B57
 73
     2
 91
        0
 40
0.6025075132472723
 10
0.0
 20
0.0
 30
0.0
332
1B58
 74
     2
 92
        0
 75
     0
  1
AcDbOsnapPointRef
 72
     6
331
1B56
 73
     2
 91
        0
 40
0.598045974584433
 10
0.0
 20
0.0
 30
0.0
332
1B58
 74
     2
 92
        0
 75
     0
  0
DIMASSOC
  5
1B60
102
{ACAD_REACTORS
330
1B5F
102
}
330
1B5F
100
AcDbDimAssoc
330
1B5E
 90
        3
 70
     0
 71
     0
  1
AcDbOsnapPointRef
 72
     1
331
1B6C
 73
     2
 91
        3
 40
1.0
 10
0.0
 20
0.0
 30
2.000000000000000E+50
 75
     0
  1
AcDbOsnapPointRef
 72
     1
331
1B6C
 73
     2
 91
        5
 40
1.0
 10
0.0
 20
0.0
 30
2.000000000000000E+50
 75
     0
  0
DIMASSOC
  5
1B63
102
{ACAD_REACTORS
330
1B62
102
}
330
1B62
100
AcDbDimAssoc
330
1B61
 90
        2
 70
     0
 71
     0
  1
AcDbOsnapPointRef
 72
    13
331
1B7F
 73
     2
 91
        0
 40
0.0
 10
0.0
 20
0.0
 30
2.000000000000000E+50
 75
     0
  0
DIMASSOC
  5
1B66
102
{ACAD_REACTORS
330
1B65
102
}
330
1B65
100
AcDbDimAssoc
330
1B64
 90
        3
 70
     0
 71
     0
  1
AcDbOsnapPointRef
 72
     1
331
1B7B
 73
     2
 91
        1
 40
1.0
 10
0.0
 20
0.0
 30
2.000000000000000E+50
 75
     0
  1
AcDbOsnapPointRef
 72
     1
331
1B7E
 73
     2
 91
        0
 40
1.291156237814405
 10
0.0
 20
0.0
 30
2.000000000000000E+50
 75
     0
  0
DIMASSOC
  5
1B69
102
{ACAD_REACTORS
330
1B68
102
}
330
1B68
100
AcDbDimAssoc
330
1B67
 90
        3
 70
     0
 71
     0
  1
AcDbOsnapPointRef
 72
    13
331
1B71
 73
     2
 91
        0
 40
0.0
 10
0.0
 20
0.0
 30
2.000000000000000E+50
 75
     0
  1
AcDbOsnapPointRef
 72
     1
331
1B7B
 73
     2
 91
        1
 40
1.0
 10
0.0
 20
0.0
 30
2.000000000000000E+50
 75
     0
  0
DIMASSOC
  5
1B70
102
{ACAD_REACTORS
330
1B6F
102
}
330
1B6F
100
AcDbDimAssoc
330
1B6E
 90
        3
 70
     0
 71
     0
  1
AcDbOsnapPointRef
 72
    13
331
1B73
 73
     2
 91
        0
 40
0.0
 10
0.0
 20
0.0
 30
2.000000000000000E+50
 75
     0
  1
AcDbOsnapPointRef
 72
     1
331
1B73
 73
     2
 91
        0
 40
1.0
 10
0.0
 20
0.0
 30
2.000000000000000E+50
 75
     0
  0
DIMASSOC
  5
1B8B
102
{ACAD_REACTORS
330
1B8A
102
}
330
1B8A
100
AcDbDimAssoc
330
1B89
 90
        3
 70
     0
 71
     0
  1
AcDbOsnapPointRef
 72
    13
331
1B80
 73
     2
 91
        0
 40
0.0
 10
0.0
 20
0.0
 30
2.000000000000000E+50
 75
     0
  1
AcDbOsnapPointRef
 72
     1
331
1B82
 73
     2
 91
        0
 40
1.0
 10
0.0
 20
0.0
 30
2.000000000000000E+50
 75
     0
  0
DIMASSOC
  5
1B8E
102
{ACAD_REACTORS
330
1B8D
102
}
330
1B8D
100
AcDbDimAssoc
330
1B8C
 90
        3
 70
     0
 71
     0
  1
AcDbOsnapPointRef
 72
    13
331
1B80
 73
     2
 91
        0
 40
0.0
 10
0.0
 20
0.0
 30
2.000000000000000E+50
 75
     0
  1
AcDbOsnapPointRef
 72
    13
331
1B81
 73
     2
 91
        0
 40
0.0
 10
0.0
 20
0.0
 30
2.000000000000000E+50
 75
     0
  0
LAYOUT
  5
24
102
{ACAD_REACTORS
330
1A
102
}
330
1A
100
AcDbPlotSettings
  1

  2
\\SF05\Brother HL-1440 series
  4
A4
  6

 40
6.72041654586792
 41
5.027085304260254
 42
6.889755249023438
 43
5.027069091796875
 44
209.9733276367188
 45
296.9259948730469
 46
-6.82
 47
-5.06
 48
0.0
 49
0.0
140
297.0000000000001
141
210.0
142
1.0
143
1.0
 70
 11956
 72
     1
 73
     1
 74
     4
  7

 75
    16
 76
     0
 77
     2
 78
   300
147
1.0
148
0.0
149
0.0
100
AcDbLayout
  1
Model
 70
     1
 71
     0
 10
0.0
 20
0.0
 11
12.0
 21
9.0
 12
0.0
 22
0.0
 32
0.0
 14
0.0
 24
0.0
 34
0.0
 15
258.5713596026419
 25
229.4568537055967
 35
0.0
146
0.0
 13
0.0
 23
0.0
 33
0.0
 16
1.0
 26
0.0
 36
0.0
 17
0.0
 27
1.0
 37
0.0
 76
     0
330
21
331
1C71
  0
LAYOUT
  5
1CC1
102
{ACAD_REACTORS
330
1A
102
}
330
1A
100
AcDbPlotSettings
  1

  2
none_device
  4
iso-a3
  6

 40
6.35
 41
6.35
 42
6.35
 43
6.35
 44
297.0388888888888
 45
420.1583333333333
 46
0.0
 47
0.0
 48
0.0
 49
0.0
140
0.0
141
0.0
142
1.0
143
1.0
 70
   688
 72
     1
 73
     1
 74
     5
  7

 75
    16
 76
     0
 77
     2
 78
   300
147
1.0
148
0.0
149
0.0
100
AcDbLayout
  1
Sheet1
 70
     1
 71
     1
 10
0.0
 20
0.0
 11
0.0
 21
0.0
 12
0.0
 22
0.0
 32
0.0
 14
0.0
 24
0.0
 34
0.0
 15
0.0
 25
0.0
 35
0.0
146
0.0
 13
0.0
 23
0.0
 33
0.0
 16
1.0
 26
0.0
 36
0.0
 17
0.0
 27
1.0
 37
0.0
 76
     0
330
1CC0
331
1CC4
  0
MATERIAL
  5
1CB9
102
{ACAD_REACTORS
330
1B
102
}
330
1B
100
AcDbMaterial
  1
ByBlock
 72
     1
 94
      127
  0
MATERIAL
  5
1CB8
102
{ACAD_REACTORS
330
1B
102
}
330
1B
100
AcDbMaterial
  1
ByLayer
 72
     1
 94
      127
  0
MATERIAL
  5
1CBA
102
{ACAD_REACTORS
330
1B
102
}
330
1B
100
AcDbMaterial
  1
Global
 72
     1
 94
      127
  0
MLINESTYLE
  5
18
102
{ACAD_REACTORS
330
17
102
}
330
17
100
AcDbMlineStyle
  2
STANDARD
 70
     0
  3

 62
   256
 51
90.0
 52
90.0
 71
     2
 49
0.5
 62
   256
  6
BYLAYER
 49
-0.5
 62
   256
  6
BYLAYER
  0
ACDBPLACEHOLDER
  5
F
102
{ACAD_REACTORS
330
E
102
}
330
E
  0
SCALE
  5
1C97
102
{ACAD_REACTORS
330
1C96
102
}
330
1C96
100
AcDbScale
 70
     0
300
1:1
140
1.0
141
1.0
290
     1
  0
SCALE
  5
1C98
102
{ACAD_REACTORS
330
1C96
102
}
330
1C96
100
AcDbScale
 70
     0
300
1:2
140
1.0
141
2.0
290
     0
  0
SCALE
  5
1C99
102
{ACAD_REACTORS
330
1C96
102
}
330
1C96
100
AcDbScale
 70
     0
300
1:4
140
1.0
141
4.0
290
     0
  0
SCALE
  5
1C9A
102
{ACAD_REACTORS
330
1C96
102
}
330
1C96
100
AcDbScale
 70
     0
300
1:5
140
1.0
141
5.0
290
     0
  0
SCALE
  5
1C9B
102
{ACAD_REACTORS
330
1C96
102
}
330
1C96
100
AcDbScale
 70
     0
300
1:8
140
1.0
141
8.0
290
     0
  0
SCALE
  5
1C9C
102
{ACAD_REACTORS
330
1C96
102
}
330
1C96
100
AcDbScale
 70
     0
300
1:10
140
1.0
141
10.0
290
     0
  0
SCALE
  5
1C9D
102
{ACAD_REACTORS
330
1C96
102
}
330
1C96
100
AcDbScale
 70
     0
300
1:16
140
1.0
141
16.0
290
     0
  0
SCALE
  5
1C9E
102
{ACAD_REACTORS
330
1C96
102
}
330
1C96
100
AcDbScale
 70
     0
300
1:20
140
1.0
141
20.0
290
     0
  0
SCALE
  5
1C9F
102
{ACAD_REACTORS
330
1C96
102
}
330
1C96
100
AcDbScale
 70
     0
300
1:30
140
1.0
141
30.0
290
     0
  0
SCALE
  5
1CA0
102
{ACAD_REACTORS
330
1C96
102
}
330
1C96
100
AcDbScale
 70
     0
300
1:40
140
1.0
141
40.0
290
     0
  0
SCALE
  5
1CA1
102
{ACAD_REACTORS
330
1C96
102
}
330
1C96
100
AcDbScale
 70
     0
300
1:50
140
1.0
141
50.0
290
     0
  0
SCALE
  5
1CA2
102
{ACAD_REACTORS
330
1C96
102
}
330
1C96
100
AcDbScale
 70
     0
300
1:100
140
1.0
141
100.0
290
     0
  0
SCALE
  5
1CA3
102
{ACAD_REACTORS
330
1C96
102
}
330
1C96
100
AcDbScale
 70
     0
300
2:1
140
2.0
141
1.0
290
     0
  0
SCALE
  5
1CA4
102
{ACAD_REACTORS
330
1C96
102
}
330
1C96
100
AcDbScale
 70
     0
300
4:1
140
4.0
141
1.0
290
     0
  0
SCALE
  5
1CA5
102
{ACAD_REACTORS
330
1C96
102
}
330
1C96
100
AcDbScale
 70
     0
300
8:1
140
8.0
141
1.0
290
     0
  0
SCALE
  5
1CA6
102
{ACAD_REACTORS
330
1C96
102
}
330
1C96
100
AcDbScale
 70
     0
300
10:1
140
10.0
141
1.0
290
     0
  0
SCALE
  5
1CA7
102
{ACAD_REACTORS
330
1C96
102
}
330
1C96
100
AcDbScale
 70
     0
300
100:1
140
100.0
141
1.0
290
     0
  0
SCALE
  5
1CA8
102
{ACAD_REACTORS
330
1C96
102
}
330
1C96
100
AcDbScale
 70
     0
300
1/128" = 1'-0"
140
0.0078125
141
12.0
290
     0
  0
SCALE
  5
1CA9
102
{ACAD_REACTORS
330
1C96
102
}
330
1C96
100
AcDbScale
 70
     0
300
1/64" = 1'-0"
140
0.015625
141
12.0
290
     0
  0
SCALE
  5
1CAA
102
{ACAD_REACTORS
330
1C96
102
}
330
1C96
100
AcDbScale
 70
     0
300
1/32" = 1'-0"
140
0.03125
141
12.0
290
     0
  0
SCALE
  5
1CAB
102
{ACAD_REACTORS
330
1C96
102
}
330
1C96
100
AcDbScale
 70
     0
300
1/16" = 1'-0"
140
0.0625
141
12.0
290
     0
  0
SCALE
  5
1CAC
102
{ACAD_REACTORS
330
1C96
102
}
330
1C96
100
AcDbScale
 70
     0
300
3/32" = 1'-0"
140
0.09375
141
12.0
290
     0
  0
SCALE
  5
1CAD
102
{ACAD_REACTORS
330
1C96
102
}
330
1C96
100
AcDbScale
 70
     0
300
1/8" = 1'-0"
140
0.125
141
12.0
290
     0
  0
SCALE
  5
1CAE
102
{ACAD_REACTORS
330
1C96
102
}
330
1C96
100
AcDbScale
 70
     0
300
3/16" = 1'-0"
140
0.1875
141
12.0
290
     0
  0
SCALE
  5
1CAF
102
{ACAD_REACTORS
330
1C96
102
}
330
1C96
100
AcDbScale
 70
     0
300
1/4" = 1'-0"
140
0.25
141
12.0
290
     0
  0
SCALE
  5
1CB0
102
{ACAD_REACTORS
330
1C96
102
}
330
1C96
100
AcDbScale
 70
     0
300
3/8" = 1'-0"
140
0.375
141
12.0
290
     0
  0
SCALE
  5
1CB1
102
{ACAD_REACTORS
330
1C96
102
}
330
1C96
100
AcDbScale
 70
     0
300
1/2" = 1'-0"
140
0.5
141
12.0
290
     0
  0
SCALE
  5
1CB2
102
{ACAD_REACTORS
330
1C96
102
}
330
1C96
100
AcDbScale
 70
     0
300
3/4" = 1'-0"
140
0.75
141
12.0
290
     0
  0
SCALE
  5
1CB3
102
{ACAD_REACTORS
330
1C96
102
}
330
1C96
100
AcDbScale
 70
     0
300
1" = 1'-0"
140
1.0
141
12.0
290
     0
  0
SCALE
  5
1CB4
102
{ACAD_REACTORS
330
1C96
102
}
330
1C96
100
AcDbScale
 70
     0
300
1-1/2" = 1'-0"
140
1.5
141
12.0
290
     0
  0
SCALE
  5
1CB5
102
{ACAD_REACTORS
330
1C96
102
}
330
1C96
100
AcDbScale
 70
     0
300
3" = 1'-0"
140
3.0
141
12.0
290
     0
  0
SCALE
  5
1CB6
102
{ACAD_REACTORS
330
1C96
102
}
330
1C96
100
AcDbScale
 70
     0
300
6" = 1'-0"
140
6.0
141
12.0
290
     0
  0
SCALE
  5
1CB7
102
{ACAD_REACTORS
330
1C96
102
}
330
1C96
100
AcDbScale
 70
     0
300
1'-0" = 1'-0"
140
12.0
141
12.0
290
     0
  0
TABLESTYLE
  5
1CBC
102
{ACAD_REACTORS
330
1CBB
102
}
102
{ACAD_XDICTIONARY
360
1D02
102
}
330
1CBB
100
AcDbTableStyle
  3
Standard
 70
     0
 71
     0
 40
0.06
 41
0.06
280
     0
281
     0
  7
Standard
140
4.5
170
     2
 62
     0
 63
   257
283
     0
 90
        4
 91
        0
  1

274
    -2
284
     1
 64
     0
275
    -2
285
     1
 65
     0
276
    -2
286
     1
 66
     0
277
    -2
287
     1
 67
     0
278
    -2
288
     1
 68
     0
279
    -2
289
     1
 69
     0
  7
Standard
140
6.0
170
     5
 62
     0
 63
   257
283
     0
 90
        4
 91
        0
  1

274
    -2
284
     1
 64
     0
275
    -2
285
     1
 65
     0
276
    -2
286
     1
 66
     0
277
    -2
287
     1
 67
     0
278
    -2
288
     1
 68
     0
279
    -2
289
     1
 69
     0
  7
Standard
140
4.5
170
     5
 62
     0
 63
   257
283
     0
 90
        4
 91
        0
  1

274
    -2
284
     1
 64
     0
275
    -2
285
     1
 65
     0
276
    -2
286
     1
 66
     0
277
    -2
287
     1
 67
     0
278
    -2
288
     1
 68
     0
279
    -2
289
     1
 69
     0
  0
VISUALSTYLE
  5
1C82
102
{ACAD_REACTORS
330
1C7D
102
}
330
1C7D
100
AcDbVisualStyle
  2
2dWireframe
 70
     4
177
     3
291
     0
 70
    58
 90
        0
176
     1
 90
        2
176
     1
 90
        0
176
     1
 90
        0
176
     1
 40
0.6
176
     1
 40
30.0
176
     1
 62
     7
420
 16777215
176
     1
 90
        1
176
     1
 90
        4
176
     1
 62
     7
176
     1
 62
   257
176
     1
 90
        1
176
     1
 90
        1
176
     1
 40
1.0
176
     1
 90
        0
176
     1
 62
   257
176
     1
 40
1.0
176
     1
 90
        1
176
     1
 90
        6
176
     1
 90
        2
176
     1
 62
     7
176
     1
 90
        5
176
     1
 90
        0
176
     1
 90
        0
176
     1
290
     0
176
     1
 90
        1
176
     1
 40
0.0
176
     1
 90
        0
176
     1
290
     1
176
     1
290
     1
176
     1
290
     0
176
     1
290
     0
176
     1
290
     0
176
     1
290
     0
176
     1
290
     0
176
     1
290
     0
176
     1
290
     0
176
     1
 90
       50
176
     1
 40
0.0
176
     1
 40
1.0
176
     1
 90
        0
176
     1
 62
    18
420
        0
176
     1
 90
       50
176
     1
 90
        3
176
     1
 62
     5
420
      255
176
     1
290
     0
176
     1
 90
       50
176
     1
 90
       50
176
     1
 90
       50
176
     1
290
     0
176
     1
 90
       50
176
     1
 62
   256
176
     0
 40
1.0
176
     0
 90
        2
176
     1
  1
strokes_ogs.tif
176
     1
290
     0
176
     1
 40
1.0
176
     1
 40
1.0
176
     1
  0
VISUALSTYLE
  5
1C85
102
{ACAD_REACTORS
330
1C7D
102
}
330
1C7D
100
AcDbVisualStyle
  2
Basic
 70
     7
177
     3
291
     1
 70
    58
 90
        1
176
     1
 90
        0
176
     1
 90
        1
176
     1
 90
        0
176
     1
 40
0.6
176
     1
 40
30.0
176
     1
 62
     7
420
 16777215
176
     1
 90
        0
176
     1
 90
        4
176
     1
 62
     7
176
     1
 62
   257
176
     1
 90
        1
176
     1
 90
        1
176
     1
 40
1.0
176
     1
 90
        8
176
     1
 62
     7
176
     1
 40
1.0
176
     1
 90
        1
176
     1
 90
        6
176
     1
 90
        2
176
     1
 62
     7
176
     1
 90
        5
176
     1
 90
        0
176
     1
 90
        0
176
     1
290
     0
176
     1
 90
        1
176
     1
 40
0.0
176
     1
 90
        0
176
     1
290
     0
176
     1
290
     1
176
     1
290
     1
176
     1
290
     0
176
     1
290
     0
176
     1
290
     0
176
     1
290
     0
176
     1
290
     0
176
     1
290
     0
176
     1
 90
       50
176
     1
 40
0.0
176
     1
 40
1.0
176
     1
 90
        0
176
     1
 62
    18
420
        0
176
     1
 90
       50
176
     1
 90
        3
176
     1
 62
     5
420
      255
176
     1
290
     0
176
     1
 90
       50
176
     1
 90
       50
176
     1
 90
       50
176
     1
290
     0
176
     1
 90
       50
176
     1
 62
   256
176
     0
 40
1.0
176
     0
 90
        2
176
     1
  1
strokes_ogs.tif
176
     1
290
     0
176
     1
 40
1.0
176
     1
 40
1.0
176
     1
  0
VISUALSTYLE
  5
1C89
102
{ACAD_REACTORS
330
1C7D
102
}
330
1C7D
100
AcDbVisualStyle
  2
Brighten
 70
    12
177
     3
291
     1
 70
    58
 90
        2
176
     1
 90
        2
176
     1
 90
        0
176
     1
 90
        0
176
     1
 40
0.6
176
     1
 40
30.0
176
     1
 62
     7
420
 16777215
176
     1
 90
        1
176
     1
 90
        4
176
     1
 62
     7
176
     1
 62
   257
176
     1
 90
        1
176
     1
 90
        1
176
     1
 40
1.0
176
     1
 90
        8
176
     1
 62
     7
176
     1
 40
1.0
176
     1
 90
        1
176
     1
 90
        6
176
     1
 90
        2
176
     1
 62
     7
176
     1
 90
        5
176
     1
 90
        0
176
     1
 90
        0
176
     1
290
     0
176
     1
 90
        1
176
     1
 40
50.0
176
     1
 90
        0
176
     1
290
     0
176
     1
290
     1
176
     1
290
     1
176
     1
290
     0
176
     1
290
     0
176
     1
290
     0
176
     1
290
     0
176
     1
290
     0
176
     1
290
     0
176
     1
 90
       50
176
     1
 40
0.0
176
     1
 40
1.0
176
     1
 90
        0
176
     1
 62
    18
420
        0
176
     1
 90
       50
176
     1
 90
        3
176
     1
 62
     5
420
      255
176
     1
290
     0
176
     1
 90
       50
176
     1
 90
       50
176
     1
 90
       50
176
     1
290
     0
176
     1
 90
       50
176
     1
 62
   256
176
     0
 40
1.0
176
     0
 90
        2
176
     1
  1
strokes_ogs.tif
176
     1
290
     0
176
     1
 40
1.0
176
     1
 40
1.0
176
     1
  0
VISUALSTYLE
  5
1C8D
102
{ACAD_REACTORS
330
1C7D
102
}
330
1C7D
100
AcDbVisualStyle
  2
ColorChange
 70
    16
177
     3
291
     1
 70
    58
 90
        2
176
     1
 90
        2
176
     1
 90
        3
176
     1
 90
        0
176
     1
 40
0.6
176
     1
 40
30.0
176
     1
 62
     8
420
  8421504
176
     1
 90
        1
176
     1
 90
        4
176
     1
 62
     7
176
     1
 62
   257
176
     1
 90
        1
176
     1
 90
        1
176
     1
 40
1.0
176
     1
 90
        8
176
     1
 62
     8
420
  8421504
176
     1
 40
1.0
176
     1
 90
        1
176
     1
 90
        6
176
     1
 90
        2
176
     1
 62
     7
176
     1
 90
        5
176
     1
 90
        0
176
     1
 90
        0
176
     1
290
     0
176
     1
 90
        1
176
     1
 40
0.0
176
     1
 90
        0
176
     1
290
     0
176
     1
290
     1
176
     1
290
     1
176
     1
290
     0
176
     1
290
     0
176
     1
290
     0
176
     1
290
     0
176
     1
290
     0
176
     1
290
     0
176
     1
 90
       50
176
     1
 40
0.0
176
     1
 40
1.0
176
     1
 90
        0
176
     1
 62
    18
420
        0
176
     1
 90
       50
176
     1
 90
        3
176
     1
 62
     5
420
      255
176
     1
290
     0
176
     1
 90
       50
176
     1
 90
       50
176
     1
 90
       50
176
     1
290
     0
176
     1
 90
       50
176
     1
 62
   256
176
     0
 40
1.0
176
     0
 90
        2
176
     1
  1
strokes_ogs.tif
176
     1
290
     0
176
     1
 40
1.0
176
     1
 40
1.0
176
     1
  0
VISUALSTYLE
  5
1C87
102
{ACAD_REACTORS
330
1C7D
102
}
330
1C7D
100
AcDbVisualStyle
  2
Conceptual
 70
     9
177
     3
291
     0
 70
    58
 90
        3
176
     1
 90
        2
176
     1
 90
        0
176
     1
 90
        0
176
     1
 40
0.6
176
     1
 40
30.0
176
     1
 62
     7
420
 16777215
176
     1
 90
        2
176
     1
 90
        2
176
     1
 62
     7
176
     1
 62
   257
176
     1
 90
        1
176
     1
 90
        1
176
     1
 40
179.0
176
     1
 90
        8
176
     1
 62
     7
176
     1
 40
1.0
176
     1
 90
        1
176
     1
 90
        6
176
     1
 90
        2
176
     1
 62
     7
176
     1
 90
        3
176
     1
 90
        0
176
     1
 90
        0
176
     1
290
     0
176
     1
 90
        1
176
     1
 40
0.0
176
     1
 90
        0
176
     1
290
     0
176
     1
290
     1
176
     1
290
     1
176
     1
290
     0
176
     1
290
     0
176
     1
290
     0
176
     1
290
     0
176
     1
290
     0
176
     1
290
     0
176
     1
 90
       50
176
     1
 40
0.0
176
     1
 40
1.0
176
     1
 90
        0
176
     1
 62
    18
420
        0
176
     1
 90
       50
176
     1
 90
        3
176
     1
 62
     5
420
      255
176
     1
290
     0
176
     1
 90
       50
176
     1
 90
       50
176
     1
 90
       50
176
     1
290
     0
176
     1
 90
       50
176
     1
 62
   256
176
     0
 40
1.0
176
     0
 90
        2
176
     1
  1
strokes_ogs.tif
176
     1
290
     0
176
     1
 40
1.0
176
     1
 40
1.0
176
     1
  0
VISUALSTYLE
  5
1C88
102
{ACAD_REACTORS
330
1C7D
102
}
330
1C7D
100
AcDbVisualStyle
  2
Dim
 70
    11
177
     3
291
     1
 70
    58
 90
        2
176
     1
 90
        2
176
     1
 90
        0
176
     1
 90
        0
176
     1
 40
0.6
176
     1
 40
30.0
176
     1
 62
     7
420
 16777215
176
     1
 90
        1
176
     1
 90
        4
176
     1
 62
     7
176
     1
 62
   257
176
     1
 90
        1
176
     1
 90
        1
176
     1
 40
1.0
176
     1
 90
        8
176
     1
 62
     7
176
     1
 40
1.0
176
     1
 90
        1
176
     1
 90
        6
176
     1
 90
        2
176
     1
 62
     7
176
     1
 90
        5
176
     1
 90
        0
176
     1
 90
        0
176
     1
290
     0
176
     1
 90
        1
176
     1
 40
-50.0
176
     1
 90
        0
176
     1
290
     0
176
     1
290
     1
176
     1
290
     1
176
     1
290
     0
176
     1
290
     0
176
     1
290
     0
176
     1
290
     0
176
     1
290
     0
176
     1
290
     0
176
     1
 90
       50
176
     1
 40
0.0
176
     1
 40
1.0
176
     1
 90
        0
176
     1
 62
    18
420
        0
176
     1
 90
       50
176
     1
 90
        3
176
     1
 62
     5
420
      255
176
     1
290
     0
176
     1
 90
       50
176
     1
 90
       50
176
     1
 90
       50
176
     1
290
     0
176
     1
 90
       50
176
     1
 62
   256
176
     0
 40
1.0
176
     0
 90
        2
176
     1
  1
strokes_ogs.tif
176
     1
290
     0
176
     1
 40
1.0
176
     1
 40
1.0
176
     1
  0
VISUALSTYLE
  5
1C90
102
{ACAD_REACTORS
330
1C7D
102
}
330
1C7D
100
AcDbVisualStyle
  2
EdgeColorOff
 70
    22
177
     3
291
     1
 70
    58
 90
        2
176
     0
 90
        2
176
     0
 90
        0
176
     0
 90
        0
176
     0
 40
0.6
176
     0
 40
30.0
176
     0
 62
     7
420
 16777215
176
     0
 90
        1
176
     0
 90
        4
176
     0
 62
     7
176
     0
 62
   257
176
     0
 90
        1
176
     0
 90
        1
176
     0
 40
1.0
176
     0
 90
        8
176
     2
 62
     7
176
     0
 40
1.0
176
     0
 90
        1
176
     0
 90
        6
176
     0
 90
        2
176
     0
 62
     7
176
     0
 90
        5
176
     0
 90
        0
176
     0
 90
        0
176
     0
290
     0
176
     0
 90
        1
176
     0
 40
0.0
176
     0
 90
        0
176
     0
290
     0
176
     0
290
     1
176
     0
290
     1
176
     0
290
     0
176
     0
290
     0
176
     0
290
     0
176
     0
290
     0
176
     0
290
     0
176
     0
290
     0
176
     0
 90
       50
176
     0
 40
0.0
176
     0
 40
1.0
176
     0
 90
        0
176
     0
 62
    18
420
        0
176
     0
 90
       50
176
     0
 90
        3
176
     0
 62
     5
420
      255
176
     0
290
     0
176
     0
 90
       50
176
     0
 90
       50
176
     0
 90
       50
176
     0
290
     0
176
     0
 90
       50
176
     0
 62
   256
176
     0
 40
1.0
176
     0
 90
        2
176
     0
  1
strokes_ogs.tif
176
     0
290
     0
176
     0
 40
1.0
176
     0
 40
1.0
176
     0
  0
VISUALSTYLE
  5
1C8C
102
{ACAD_REACTORS
330
1C7D
102
}
330
1C7D
100
AcDbVisualStyle
  2
Facepattern
 70
    15
177
     3
291
     1
 70
    58
 90
        2
176
     1
 90
        2
176
     1
 90
        0
176
     1
 90
        0
176
     1
 40
0.6
176
     1
 40
30.0
176
     1
 62
     7
420
 16777215
176
     1
 90
        1
176
     1
 90
        4
176
     1
 62
     7
176
     1
 62
   257
176
     1
 90
        1
176
     1
 90
        1
176
     1
 40
1.0
176
     1
 90
        8
176
     1
 62
     7
176
     1
 40
1.0
176
     1
 90
        1
176
     1
 90
        6
176
     1
 90
        2
176
     1
 62
     7
176
     1
 90
        5
176
     1
 90
        0
176
     1
 90
        0
176
     1
290
     0
176
     1
 90
        1
176
     1
 40
0.0
176
     1
 90
        0
176
     1
290
     0
176
     1
290
     1
176
     1
290
     1
176
     1
290
     0
176
     1
290
     0
176
     1
290
     0
176
     1
290
     0
176
     1
290
     0
176
     1
290
     0
176
     1
 90
       50
176
     1
 40
0.0
176
     1
 40
1.0
176
     1
 90
        0
176
     1
 62
    18
420
        0
176
     1
 90
       50
176
     1
 90
        3
176
     1
 62
     5
420
      255
176
     1
290
     0
176
     1
 90
       50
176
     1
 90
       50
176
     1
 90
       50
176
     1
290
     0
176
     1
 90
       50
176
     1
 62
   256
176
     0
 40
1.0
176
     0
 90
        2
176
     1
  1
strokes_ogs.tif
176
     1
290
     0
176
     1
 40
1.0
176
     1
 40
1.0
176
     1
  0
VISUALSTYLE
  5
1C7E
102
{ACAD_REACTORS
330
1C7D
102
}
330
1C7D
100
AcDbVisualStyle
  2
Flat
 70
     0
177
     3
291
     1
 70
    58
 90
        2
176
     1
 90
        1
176
     1
 90
        1
176
     1
 90
        2
176
     1
 40
0.6
176
     1
 40
30.0
176
     1
 62
     7
420
 16777215
176
     1
 90
        0
176
     1
 90
        0
176
     1
 62
     7
176
     1
 62
   257
176
     1
 90
        1
176
     1
 90
        1
176
     1
 40
1.0
176
     1
 90
        8
176
     1
 62
     7
176
     1
 40
1.0
176
     1
 90
        1
176
     1
 90
        6
176
     1
 90
        2
176
     1
 62
     7
176
     1
 90
        5
176
     1
 90
        0
176
     1
 90
        0
176
     1
290
     0
176
     1
 90
       13
176
     1
 40
0.0
176
     1
 90
        0
176
     1
290
     0
176
     1
290
     1
176
     1
290
     1
176
     1
290
     0
176
     1
290
     0
176
     1
290
     0
176
     1
290
     0
176
     1
290
     0
176
     1
290
     0
176
     1
 90
       50
176
     1
 40
0.0
176
     1
 40
1.0
176
     1
 90
        0
176
     1
 62
    18
420
        0
176
     1
 90
       50
176
     1
 90
        3
176
     1
 62
     5
420
      255
176
     1
290
     0
176
     1
 90
       50
176
     1
 90
       50
176
     1
 90
       50
176
     1
290
     0
176
     1
 90
       50
176
     1
 62
   256
176
     0
 40
1.0
176
     0
 90
        2
176
     1
  1
strokes_ogs.tif
176
     1
290
     0
176
     1
 40
1.0
176
     1
 40
1.0
176
     1
  0
VISUALSTYLE
  5
1C7F
102
{ACAD_REACTORS
330
1C7D
102
}
330
1C7D
100
AcDbVisualStyle
  2
FlatWithEdges
 70
     1
177
     3
291
     1
 70
    58
 90
        2
176
     1
 90
        1
176
     1
 90
        1
176
     1
 90
        2
176
     1
 40
0.6
176
     1
 40
30.0
176
     1
 62
     7
420
 16777215
176
     1
 90
        1
176
     1
 90
        0
176
     1
 62
     7
176
     1
 62
   257
176
     1
 90
        1
176
     1
 90
        1
176
     1
 40
1.0
176
     1
 90
        0
176
     1
 62
   257
176
     1
 40
1.0
176
     1
 90
        1
176
     1
 90
        6
176
     1
 90
        2
176
     1
 62
     7
176
     1
 90
        5
176
     1
 90
        0
176
     1
 90
        0
176
     1
290
     0
176
     1
 90
       13
176
     1
 40
0.0
176
     1
 90
        0
176
     1
290
     0
176
     1
290
     1
176
     1
290
     1
176
     1
290
     0
176
     1
290
     0
176
     1
290
     0
176
     1
290
     0
176
     1
290
     0
176
     1
290
     0
176
     1
 90
       50
176
     1
 40
0.0
176
     1
 40
1.0
176
     1
 90
        0
176
     1
 62
    18
420
        0
176
     1
 90
       50
176
     1
 90
        3
176
     1
 62
     5
420
      255
176
     1
290
     0
176
     1
 90
       50
176
     1
 90
       50
176
     1
 90
       50
176
     1
290
     0
176
     1
 90
       50
176
     1
 62
   256
176
     0
 40
1.0
176
     0
 90
        2
176
     1
  1
strokes_ogs.tif
176
     1
290
     0
176
     1
 40
1.0
176
     1
 40
1.0
176
     1
  0
VISUALSTYLE
  5
1C80
102
{ACAD_REACTORS
330
1C7D
102
}
330
1C7D
100
AcDbVisualStyle
  2
Gouraud
 70
     2
177
     3
291
     1
 70
    58
 90
        2
176
     1
 90
        2
176
     1
 90
        1
176
     1
 90
        2
176
     1
 40
0.6
176
     1
 40
30.0
176
     1
 62
     7
420
 16777215
176
     1
 90
        0
176
     1
 90
        0
176
     1
 62
     7
176
     1
 62
   257
176
     1
 90
        1
176
     1
 90
        1
176
     1
 40
1.0
176
     1
 90
        0
176
     1
 62
     7
176
     1
 40
1.0
176
     1
 90
        1
176
     1
 90
        6
176
     1
 90
        2
176
     1
 62
     7
176
     1
 90
        5
176
     1
 90
        0
176
     1
 90
        0
176
     1
290
     0
176
     1
 90
       13
176
     1
 40
0.0
176
     1
 90
        0
176
     1
290
     0
176
     1
290
     1
176
     1
290
     1
176
     1
290
     0
176
     1
290
     0
176
     1
290
     0
176
     1
290
     0
176
     1
290
     0
176
     1
290
     0
176
     1
 90
       50
176
     1
 40
0.0
176
     1
 40
1.0
176
     1
 90
        0
176
     1
 62
    18
420
        0
176
     1
 90
       50
176
     1
 90
        3
176
     1
 62
     5
420
      255
176
     1
290
     0
176
     1
 90
       50
176
     1
 90
       50
176
     1
 90
       50
176
     1
290
     0
176
     1
 90
       50
176
     1
 62
   256
176
     0
 40
1.0
176
     0
 90
        2
176
     1
  1
strokes_ogs.tif
176
     1
290
     0
176
     1
 40
1.0
176
     1
 40
1.0
176
     1
  0
VISUALSTYLE
  5
1C81
102
{ACAD_REACTORS
330
1C7D
102
}
330
1C7D
100
AcDbVisualStyle
  2
GouraudWithEdges
 70
     3
177
     3
291
     1
 70
    58
 90
        2
176
     1
 90
        2
176
     1
 90
        1
176
     1
 90
        2
176
     1
 40
0.6
176
     1
 40
30.0
176
     1
 62
     7
420
 16777215
176
     1
 90
        1
176
     1
 90
        0
176
     1
 62
     7
176
     1
 62
   257
176
     1
 90
        1
176
     1
 90
        1
176
     1
 40
1.0
176
     1
 90
        0
176
     1
 62
   257
176
     1
 40
1.0
176
     1
 90
        1
176
     1
 90
        6
176
     1
 90
        2
176
     1
 62
     7
176
     1
 90
        5
176
     1
 90
        0
176
     1
 90
        0
176
     1
290
     0
176
     1
 90
       13
176
     1
 40
0.0
176
     1
 90
        0
176
     1
290
     0
176
     1
290
     1
176
     1
290
     1
176
     1
290
     0
176
     1
290
     0
176
     1
290
     0
176
     1
290
     0
176
     1
290
     0
176
     1
290
     0
176
     1
 90
       50
176
     1
 40
0.0
176
     1
 40
1.0
176
     1
 90
        0
176
     1
 62
    18
420
        0
176
     1
 90
       50
176
     1
 90
        3
176
     1
 62
     5
420
      255
176
     1
290
     0
176
     1
 90
       50
176
     1
 90
       50
176
     1
 90
       50
176
     1
290
     0
176
     1
 90
       50
176
     1
 62
   256
176
     0
 40
1.0
176
     0
 90
        2
176
     1
  1
strokes_ogs.tif
176
     1
290
     0
176
     1
 40
1.0
176
     1
 40
1.0
176
     1
  0
VISUALSTYLE
  5
1C84
102
{ACAD_REACTORS
330
1C7D
102
}
330
1C7D
100
AcDbVisualStyle
  2
Hidden
 70
     6
177
     3
291
     0
 70
    58
 90
        1
176
     1
 90
        2
176
     1
 90
        2
176
     1
 90
        0
176
     1
 40
0.6
176
     1
 40
30.0
176
     1
 62
     7
420
 16777215
176
     1
 90
        2
176
     1
 90
        2
176
     1
 62
     7
176
     1
 62
   257
176
     1
 90
        2
176
     1
 90
        1
176
     1
 40
40.0
176
     1
 90
        0
176
     1
 62
   257
176
     1
 40
1.0
176
     1
 90
        1
176
     1
 90
        6
176
     1
 90
        2
176
     1
 62
     7
176
     1
 90
        3
176
     1
 90
        0
176
     1
 90
        0
176
     1
290
     0
176
     1
 90
        1
176
     1
 40
0.0
176
     1
 90
        0
176
     1
290
     0
176
     1
290
     1
176
     1
290
     1
176
     1
290
     0
176
     1
290
     0
176
     1
290
     0
176
     1
290
     0
176
     1
290
     0
176
     1
290
     0
176
     1
 90
       50
176
     1
 40
0.0
176
     1
 40
1.0
176
     1
 90
        0
176
     1
 62
    18
420
        0
176
     1
 90
       50
176
     1
 90
        3
176
     1
 62
     5
420
      255
176
     1
290
     0
176
     1
 90
       50
176
     1
 90
       50
176
     1
 90
       50
176
     1
290
     0
176
     1
 90
       50
176
     1
 62
   256
176
     0
 40
1.0
176
     0
 90
        2
176
     1
  1
strokes_ogs.tif
176
     1
290
     0
176
     1
 40
1.0
176
     1
 40
1.0
176
     1
  0
VISUALSTYLE
  5
1C8E
102
{ACAD_REACTORS
330
1C7D
102
}
330
1C7D
100
AcDbVisualStyle
  2
JitterOff
 70
    20
177
     3
291
     1
 70
    58
 90
        2
176
     0
 90
        2
176
     0
 90
        0
176
     0
 90
        0
176
     0
 40
0.6
176
     0
 40
30.0
176
     0
 62
     7
420
 16777215
176
     0
 90
        1
176
     0
 90
        4
176
     0
 62
     7
176
     0
 62
   257
176
     0
 90
        1
176
     0
 90
        1
176
     0
 40
1.0
176
     0
 90
       10
176
     2
 62
     7
176
     0
 40
1.0
176
     0
 90
        1
176
     0
 90
        6
176
     0
 90
        2
176
     0
 62
     7
176
     0
 90
        5
176
     0
 90
        0
176
     0
 90
        0
176
     0
290
     0
176
     0
 90
        1
176
     0
 40
0.0
176
     0
 90
        0
176
     0
290
     0
176
     0
290
     1
176
     0
290
     1
176
     0
290
     0
176
     0
290
     0
176
     0
290
     0
176
     0
290
     0
176
     0
290
     0
176
     0
290
     0
176
     0
 90
       50
176
     0
 40
0.0
176
     0
 40
1.0
176
     0
 90
        0
176
     0
 62
    18
420
        0
176
     0
 90
       50
176
     0
 90
        3
176
     0
 62
     5
420
      255
176
     0
290
     0
176
     0
 90
       50
176
     0
 90
       50
176
     0
 90
       50
176
     0
290
     0
176
     0
 90
       50
176
     0
 62
   256
176
     0
 40
1.0
176
     0
 90
        2
176
     0
  1
strokes_ogs.tif
176
     0
290
     0
176
     0
 40
1.0
176
     0
 40
1.0
176
     0
  0
VISUALSTYLE
  5
1C8B
102
{ACAD_REACTORS
330
1C7D
102
}
330
1C7D
100
AcDbVisualStyle
  2
Linepattern
 70
    14
177
     3
291
     1
 70
    58
 90
        2
176
     1
 90
        2
176
     1
 90
        0
176
     1
 90
        0
176
     1
 40
0.6
176
     1
 40
30.0
176
     1
 62
     7
420
 16777215
176
     1
 90
        1
176
     1
 90
        4
176
     1
 62
     7
176
     1
 62
   257
176
     1
 90
        7
176
     1
 90
        7
176
     1
 40
1.0
176
     1
 90
        8
176
     1
 62
     7
176
     1
 40
1.0
176
     1
 90
        1
176
     1
 90
        6
176
     1
 90
        2
176
     1
 62
     7
176
     1
 90
        5
176
     1
 90
        0
176
     1
 90
        0
176
     1
290
     0
176
     1
 90
        1
176
     1
 40
0.0
176
     1
 90
        0
176
     1
290
     0
176
     1
290
     1
176
     1
290
     1
176
     1
290
     0
176
     1
290
     0
176
     1
290
     0
176
     1
290
     0
176
     1
290
     0
176
     1
290
     0
176
     1
 90
       50
176
     1
 40
0.0
176
     1
 40
1.0
176
     1
 90
        0
176
     1
 62
    18
420
        0
176
     1
 90
       50
176
     1
 90
        3
176
     1
 62
     5
420
      255
176
     1
290
     0
176
     1
 90
       50
176
     1
 90
       50
176
     1
 90
       50
176
     1
290
     0
176
     1
 90
       50
176
     1
 62
   256
176
     0
 40
1.0
176
     0
 90
        2
176
     1
  1
strokes_ogs.tif
176
     1
290
     0
176
     1
 40
1.0
176
     1
 40
1.0
176
     1
  0
VISUALSTYLE
  5
1C8F
102
{ACAD_REACTORS
330
1C7D
102
}
330
1C7D
100
AcDbVisualStyle
  2
OverhangOff
 70
    21
177
     3
291
     1
 70
    58
 90
        2
176
     0
 90
        2
176
     0
 90
        0
176
     0
 90
        0
176
     0
 40
0.6
176
     0
 40
30.0
176
     0
 62
     7
420
 16777215
176
     0
 90
        1
176
     0
 90
        4
176
     0
 62
     7
176
     0
 62
   257
176
     0
 90
        1
176
     0
 90
        1
176
     0
 40
1.0
176
     0
 90
        9
176
     2
 62
     7
176
     0
 40
1.0
176
     0
 90
        1
176
     0
 90
        6
176
     0
 90
        2
176
     0
 62
     7
176
     0
 90
        5
176
     0
 90
        0
176
     0
 90
        0
176
     0
290
     0
176
     0
 90
        1
176
     0
 40
0.0
176
     0
 90
        0
176
     0
290
     0
176
     0
290
     1
176
     0
290
     1
176
     0
290
     0
176
     0
290
     0
176
     0
290
     0
176
     0
290
     0
176
     0
290
     0
176
     0
290
     0
176
     0
 90
       50
176
     0
 40
0.0
176
     0
 40
1.0
176
     0
 90
        0
176
     0
 62
    18
420
        0
176
     0
 90
       50
176
     0
 90
        3
176
     0
 62
     5
420
      255
176
     0
290
     0
176
     0
 90
       50
176
     0
 90
       50
176
     0
 90
       50
176
     0
290
     0
176
     0
 90
       50
176
     0
 62
   256
176
     0
 40
1.0
176
     0
 90
        2
176
     0
  1
strokes_ogs.tif
176
     0
290
     0
176
     0
 40
1.0
176
     0
 40
1.0
176
     0
  0
VISUALSTYLE
  5
1C86
102
{ACAD_REACTORS
330
1C7D
102
}
330
1C7D
100
AcDbVisualStyle
  2
Realistic
 70
     8
177
     3
291
     0
 70
    58
 90
        2
176
     1
 90
        3
176
     1
 90
        0
176
     1
 90
        2
176
     1
 40
0.6
176
     1
 40
30.0
176
     1
 62
     7
420
 16777215
176
     1
 90
        0
176
     1
 90
        0
176
     1
 62
     7
176
     1
 62
   257
176
     1
 90
        1
176
     1
 90
        1
176
     1
 40
1.0
176
     1
 90
        8
176
     1
 62
   257
176
     1
 40
1.0
176
     1
 90
        1
176
     1
 90
        6
176
     1
 90
        2
176
     1
 62
     7
176
     1
 90
        3
176
     1
 90
        0
176
     1
 90
        0
176
     1
290
     0
176
     1
 90
       13
176
     1
 40
0.0
176
     1
 90
        0
176
     1
290
     0
176
     1
290
     1
176
     1
290
     1
176
     1
290
     0
176
     1
290
     0
176
     1
290
     0
176
     1
290
     0
176
     1
290
     0
176
     1
290
     0
176
     1
 90
       50
176
     1
 40
0.0
176
     1
 40
1.0
176
     1
 90
        0
176
     1
 62
    18
420
        0
176
     1
 90
       50
176
     1
 90
        3
176
     1
 62
     5
420
      255
176
     1
290
     0
176
     1
 90
       50
176
     1
 90
       50
176
     1
 90
       50
176
     1
290
     0
176
     1
 90
       50
176
     1
 62
   256
176
     0
 40
1.0
176
     0
 90
        2
176
     1
  1
strokes_ogs.tif
176
     1
290
     0
176
     1
 40
1.0
176
     1
 40
1.0
176
     1
  0
VISUALSTYLE
  5
1C95
102
{ACAD_REACTORS
330
1C7D
102
}
330
1C7D
100
AcDbVisualStyle
  2
Shaded
 70
    27
177
     3
291
     0
 70
    58
 90
        2
176
     1
 90
        2
176
     1
 90
        1
176
     1
 90
        2
176
     1
 40
0.6
176
     1
 40
30.0
176
     1
 62
     7
420
 16777215
176
     1
 90
        0
176
     1
 90
        4
176
     1
 62
     7
176
     1
 62
   257
176
     1
 90
        1
176
     1
 90
        1
176
     1
 40
1.0
176
     1
 90
        8
176
     1
 62
   257
176
     1
 40
1.0
176
     1
 90
        1
176
     1
 90
        6
176
     1
 90
        2
176
     1
 62
     8
420
  7895160
176
     1
 90
        3
176
     1
 90
        0
176
     1
 90
        0
176
     1
290
     0
176
     1
 90
        5
176
     1
 40
0.0
176
     1
 90
        0
176
     1
290
     0
176
     1
290
     1
176
     1
290
     1
176
     1
290
     0
176
     1
290
     0
176
     1
290
     0
176
     1
290
     0
176
     1
290
     0
176
     1
290
     0
176
     1
 90
       50
176
     1
 40
0.0
176
     1
 40
1.0
176
     1
 90
        0
176
     1
 62
    18
420
        0
176
     1
 90
       50
176
     1
 90
        3
176
     1
 62
     5
420
      255
176
     1
290
     0
176
     1
 90
       50
176
     1
 90
       50
176
     1
 90
       50
176
     1
290
     0
176
     1
 90
       50
176
     1
 62
   256
176
     0
 40
1.0
176
     0
 90
        2
176
     1
  1
strokes_ogs.tif
176
     1
290
     0
176
     1
 40
1.0
176
     1
 40
1.0
176
     1
  0
VISUALSTYLE
  5
1C94
102
{ACAD_REACTORS
330
1C7D
102
}
330
1C7D
100
AcDbVisualStyle
  2
Shaded with edges
 70
    26
177
     3
291
     0
 70
    58
 90
        2
176
     1
 90
        2
176
     1
 90
        1
176
     1
 90
        2
176
     1
 40
0.6
176
     1
 40
30.0
176
     1
 62
     7
420
 16777215
176
     1
 90
        1
176
     1
 90
       10
176
     1
 62
     7
176
     1
 62
   257
176
     1
 90
        2
176
     1
 90
        1
176
     1
 40
1.0
176
     1
 90
        8
176
     1
 62
   257
176
     1
 40
1.0
176
     1
 90
        1
176
     1
 90
        6
176
     1
 90
        2
176
     1
 62
     7
176
     1
 90
        3
176
     1
 90
        0
176
     1
 90
        0
176
     1
290
     0
176
     1
 90
        5
176
     1
 40
0.0
176
     1
 90
        0
176
     1
290
     0
176
     1
290
     1
176
     1
290
     1
176
     1
290
     0
176
     1
290
     0
176
     1
290
     0
176
     1
290
     0
176
     1
290
     0
176
     1
290
     0
176
     1
 90
       50
176
     1
 40
0.0
176
     1
 40
1.0
176
     1
 90
        0
176
     1
 62
    18
420
        0
176
     1
 90
       50
176
     1
 90
        3
176
     1
 62
     5
420
      255
176
     1
290
     0
176
     1
 90
       50
176
     1
 90
       50
176
     1
 90
       50
176
     1
290
     0
176
     1
 90
       50
176
     1
 62
   256
176
     0
 40
1.0
176
     0
 90
        2
176
     1
  1
strokes_ogs.tif
176
     1
290
     0
176
     1
 40
1.0
176
     1
 40
1.0
176
     1
  0
VISUALSTYLE
  5
1C91
102
{ACAD_REACTORS
330
1C7D
102
}
330
1C7D
100
AcDbVisualStyle
  2
Shades of Gray
 70
    23
177
     3
291
     0
 70
    58
 90
        2
176
     1
 90
        2
176
     1
 90
        3
176
     1
 90
        0
176
     1
 40
0.6
176
     1
 40
30.0
176
     1
 62
     7
420
 16777215
176
     1
 90
        2
176
     1
 90
        2
176
     1
 62
     7
176
     1
 62
     7
176
     1
 90
        1
176
     1
 90
        1
176
     1
 40
40.0
176
     1
 90
        8
176
     1
 62
     7
176
     1
 40
1.0
176
     1
 90
        1
176
     1
 90
        6
176
     1
 90
        2
176
     1
 62
     7
176
     1
 90
        3
176
     1
 90
        0
176
     1
 90
        0
176
     1
290
     0
176
     1
 90
        1
176
     1
 40
0.0
176
     1
 90
        0
176
     1
290
     0
176
     1
290
     1
176
     1
290
     1
176
     1
290
     0
176
     1
290
     0
176
     1
290
     0
176
     1
290
     0
176
     1
290
     0
176
     1
290
     0
176
     1
 90
       50
176
     1
 40
0.0
176
     1
 40
1.0
176
     1
 90
        0
176
     1
 62
    18
420
        0
176
     1
 90
       50
176
     1
 90
        3
176
     1
 62
     5
420
      255
176
     1
290
     0
176
     1
 90
       50
176
     1
 90
       50
176
     1
 90
       50
176
     1
290
     0
176
     1
 90
       50
176
     1
 62
   256
176
     0
 40
1.0
176
     0
 90
        2
176
     1
  1
strokes_ogs.tif
176
     1
290
     0
176
     1
 40
1.0
176
     1
 40
1.0
176
     1
  0
VISUALSTYLE
  5
1C92
102
{ACAD_REACTORS
330
1C7D
102
}
330
1C7D
100
AcDbVisualStyle
  2
Sketchy
 70
    24
177
     3
291
     0
 70
    58
 90
        1
176
     1
 90
        2
176
     1
 90
        2
176
     1
 90
        0
176
     1
 40
0.6
176
     1
 40
30.0
176
     1
 62
     7
420
 16777215
176
     1
 90
        2
176
     1
 90
        2
176
     1
 62
     7
176
     1
 62
     7
176
     1
 90
        1
176
     1
 90
        1
176
     1
 40
40.0
176
     1
 90
       11
176
     1
 62
     7
176
     1
 40
1.0
176
     1
 90
        1
176
     1
 90
        6
176
     1
 90
        2
176
     1
 62
     7
176
     1
 90
        6
176
     1
 90
        0
176
     1
 90
        0
176
     1
290
     0
176
     1
 90
        1
176
     1
 40
0.0
176
     1
 90
        0
176
     1
290
     0
176
     1
290
     1
176
     1
290
     1
176
     1
290
     0
176
     1
290
     0
176
     1
290
     0
176
     1
290
     0
176
     1
290
     0
176
     1
290
     0
176
     1
 90
       50
176
     1
 40
0.0
176
     1
 40
1.0
176
     1
 90
        0
176
     1
 62
    18
420
        0
176
     1
 90
       50
176
     1
 90
        3
176
     1
 62
     5
420
      255
176
     1
290
     0
176
     1
 90
       50
176
     1
 90
       50
176
     1
 90
       50
176
     1
290
     0
176
     1
 90
       50
176
     1
 62
   256
176
     0
 40
1.0
176
     0
 90
        2
176
     1
  1
strokes_ogs.tif
176
     1
290
     0
176
     1
 40
1.0
176
     1
 40
1.0
176
     1
  0
VISUALSTYLE
  5
1C8A
102
{ACAD_REACTORS
330
1C7D
102
}
330
1C7D
100
AcDbVisualStyle
  2
Thicken
 70
    13
177
     3
291
     1
 70
    58
 90
        2
176
     1
 90
        2
176
     1
 90
        0
176
     1
 90
        0
176
     1
 40
0.6
176
     1
 40
30.0
176
     1
 62
     7
420
 16777215
176
     1
 90
        1
176
     1
 90
        4
176
     1
 62
     7
176
     1
 62
   257
176
     1
 90
        1
176
     1
 90
        1
176
     1
 40
1.0
176
     1
 90
       12
176
     1
 62
     7
176
     1
 40
1.0
176
     1
 90
        1
176
     1
 90
        6
176
     1
 90
        2
176
     1
 62
     7
176
     1
 90
        5
176
     1
 90
        0
176
     1
 90
        0
176
     1
290
     0
176
     1
 90
        1
176
     1
 40
0.0
176
     1
 90
        0
176
     1
290
     0
176
     1
290
     1
176
     1
290
     1
176
     1
290
     0
176
     1
290
     0
176
     1
290
     0
176
     1
290
     0
176
     1
290
     0
176
     1
290
     0
176
     1
 90
       50
176
     1
 40
0.0
176
     1
 40
1.0
176
     1
 90
        0
176
     1
 62
    18
420
        0
176
     1
 90
       50
176
     1
 90
        3
176
     1
 62
     5
420
      255
176
     1
290
     0
176
     1
 90
       50
176
     1
 90
       50
176
     1
 90
       50
176
     1
290
     0
176
     1
 90
       50
176
     1
 62
   256
176
     0
 40
1.0
176
     0
 90
        2
176
     1
  1
strokes_ogs.tif
176
     1
290
     0
176
     1
 40
1.0
176
     1
 40
1.0
176
     1
  0
VISUALSTYLE
  5
1C83
102
{ACAD_REACTORS
330
1C7D
102
}
330
1C7D
100
AcDbVisualStyle
  2
Wireframe
 70
     5
177
     3
291
     0
 70
    58
 90
        0
176
     1
 90
        2
176
     1
 90
        0
176
     1
 90
        0
176
     1
 40
0.6
176
     1
 40
30.0
176
     1
 62
     7
420
 16777215
176
     1
 90
        1
176
     1
 90
        4
176
     1
 62
     7
176
     1
 62
   257
176
     1
 90
        1
176
     1
 90
        1
176
     1
 40
1.0
176
     1
 90
        0
176
     1
 62
   257
176
     1
 40
1.0
176
     1
 90
        1
176
     1
 90
        6
176
     1
 90
        2
176
     1
 62
     7
176
     1
 90
        3
176
     1
 90
        0
176
     1
 90
        0
176
     1
290
     0
176
     1
 90
        1
176
     1
 40
0.0
176
     1
 90
        0
176
     1
290
     0
176
     1
290
     1
176
     1
290
     1
176
     1
290
     0
176
     1
290
     0
176
     1
290
     0
176
     1
290
     0
176
     1
290
     0
176
     1
290
     0
176
     1
 90
       50
176
     1
 40
0.0
176
     1
 40
1.0
176
     1
 90
        0
176
     1
 62
    18
420
        0
176
     1
 90
       50
176
     1
 90
        3
176
     1
 62
     5
420
      255
176
     1
290
     0
176
     1
 90
       50
176
     1
 90
       50
176
     1
 90
       50
176
     1
290
     0
176
     1
 90
       50
176
     1
 62
   256
176
     0
 40
1.0
176
     0
 90
        2
176
     1
  1
strokes_ogs.tif
176
     1
290
     0
176
     1
 40
1.0
176
     1
 40
1.0
176
     1
  0
VISUALSTYLE
  5
1C93
102
{ACAD_REACTORS
330
1C7D
102
}
330
1C7D
100
AcDbVisualStyle
  2
X-Ray
 70
    25
177
     3
291
     0
 70
    58
 90
        2
176
     1
 90
        2
176
     1
 90
        1
176
     1
 90
        1
176
     1
 40
0.5
176
     1
 40
30.0
176
     1
 62
     7
420
 16777215
176
     1
 90
        1
176
     1
 90
        0
176
     1
 62
     7
176
     1
 62
   257
176
     1
 90
        1
176
     1
 90
        1
176
     1
 40
1.0
176
     1
 90
        8
176
     1
 62
     7
176
     1
 40
1.0
176
     1
 90
        1
176
     1
 90
        6
176
     1
 90
        2
176
     1
 62
     7
176
     1
 90
        3
176
     1
 90
        0
176
     1
 90
        0
176
     1
290
     0
176
     1
 90
       13
176
     1
 40
0.0
176
     1
 90
        0
176
     1
290
     0
176
     1
290
     1
176
     1
290
     1
176
     1
290
     0
176
     1
290
     0
176
     1
290
     0
176
     1
290
     0
176
     1
290
     0
176
     1
290
     0
176
     1
 90
       50
176
     1
 40
0.0
176
     1
 40
1.0
176
     1
 90
        0
176
     1
 62
    18
420
        0
176
     1
 90
       50
176
     1
 90
        3
176
     1
 62
     5
420
      255
176
     1
290
     0
176
     1
 90
       50
176
     1
 90
       50
176
     1
 90
       50
176
     1
290
     0
176
     1
 90
       50
176
     1
 62
   256
176
     0
 40
1.0
176
     0
 90
        2
176
     1
  1
strokes_ogs.tif
176
     1
290
     0
176
     1
 40
1.0
176
     1
 40
1.0
176
     1
  0
DICTIONARYVAR
  5
1CC8
102
{ACAD_REACTORS
330
13CA
102
}
330
13CA
100
DictionaryVariables
280
     0
  1
1:1
  0
DICTIONARYVAR
  5
1CCC
102
{ACAD_REACTORS
330
13CA
102
}
330
13CA
100
DictionaryVariables
280
     0
  1
Standard
  0
DICTIONARYVAR
  5
13CC
102
{ACAD_REACTORS
330
13CA
102
}
330
13CA
100
DictionaryVariables
280
     0
  1
2
  0
DICTIONARYVAR
  5
13CB
102
{ACAD_REACTORS
330
13CA
102
}
330
13CA
100
DictionaryVariables
280
     0
  1
1
  0
DICTIONARYVAR
  5
1CCE
102
{ACAD_REACTORS
330
13CA
102
}
330
13CA
100
DictionaryVariables
280
     0
  1
0
  0
DICTIONARYVAR
  5
13CD
102
{ACAD_REACTORS
330
13CA
102
}
330
13CA
100
DictionaryVariables
280
     0
  1

  0
DICTIONARY
  5
1D02
330
1CBC
100
AcDbDictionary
280
     1
281
     1
  3
ACAD_ROUNDTRIP_2008_TABLESTYLE_CELLSTYLEMAP
360
1D03
  0
CELLSTYLEMAP
  5
1D03
102
{ACAD_REACTORS
330
1D02
102
}
330
1D02
100
AcDbCellStyleMap
 90
        3
300
CELLSTYLE
  1
TABLEFORMAT_BEGIN
 90
        5
170
     1
 91
        0
 92
        0
 62
   257
 93
        1
300
CONTENTFORMAT
  1
CONTENTFORMAT_BEGIN
 90
        0
 91
        0
 92
        4
 93
        0
300

 40
0.0
140
1.0
 94
        5
 62
     0
340
11
144
6.0
309
CONTENTFORMAT_END
171
     1
301
MARGIN
  1
CELLMARGIN_BEGIN
 40
1.5
 40
1.5
 40
1.5
 40
1.5
 40
1.5
 40
1.5
309
CELLMARGIN_END
 94
        6
 95
        1
302
GRIDFORMAT
  1
GRIDFORMAT_BEGIN
 90
        0
 91
        1
 62
     0
 92
       -2
340
14
 93
        0
 40
0.045
309
GRIDFORMAT_END
 95
        2
302
GRIDFORMAT
  1
GRIDFORMAT_BEGIN
 90
        0
 91
        1
 62
     0
 92
       -2
340
14
 93
        0
 40
0.045
309
GRIDFORMAT_END
 95
        4
302
GRIDFORMAT
  1
GRIDFORMAT_BEGIN
 90
        0
 91
        1
 62
     0
 92
       -2
340
14
 93
        0
 40
0.045
309
GRIDFORMAT_END
 95
        8
302
GRIDFORMAT
  1
GRIDFORMAT_BEGIN
 90
        0
 91
        1
 62
     0
 92
       -2
340
14
 93
        0
 40
0.045
309
GRIDFORMAT_END
 95
       16
302
GRIDFORMAT
  1
GRIDFORMAT_BEGIN
 90
        0
 91
        1
 62
     0
 92
       -2
340
14
 93
        0
 40
0.045
309
GRIDFORMAT_END
 95
       32
302
GRIDFORMAT
  1
GRIDFORMAT_BEGIN
 90
        0
 91
        1
 62
     0
 92
       -2
340
14
 93
        0
 40
0.045
309
GRIDFORMAT_END
309
TABLEFORMAT_END
  1
CELLSTYLE_BEGIN
 90
        1
 91
        1
300
_TITLE
309
CELLSTYLE_END
300
CELLSTYLE
  1
TABLEFORMAT_BEGIN
 90
        5
170
     1
 91
        0
 92
        0
 62
   257
 93
        1
300
CONTENTFORMAT
  1
CONTENTFORMAT_BEGIN
 90
        0
 91
        0
 92
        4
 93
        0
300

 40
0.0
140
1.0
 94
        5
 62
     0
340
11
144
4.5
309
CONTENTFORMAT_END
171
     1
301
MARGIN
  1
CELLMARGIN_BEGIN
 40
1.5
 40
1.5
 40
1.5
 40
1.5
 40
1.5
 40
1.5
309
CELLMARGIN_END
 94
        6
 95
        1
302
GRIDFORMAT
  1
GRIDFORMAT_BEGIN
 90
        0
 91
        1
 62
     0
 92
       -2
340
14
 93
        0
 40
0.045
309
GRIDFORMAT_END
 95
        2
302
GRIDFORMAT
  1
GRIDFORMAT_BEGIN
 90
        0
 91
        1
 62
     0
 92
       -2
340
14
 93
        0
 40
0.045
309
GRIDFORMAT_END
 95
        4
302
GRIDFORMAT
  1
GRIDFORMAT_BEGIN
 90
        0
 91
        1
 62
     0
 92
       -2
340
14
 93
        0
 40
0.045
309
GRIDFORMAT_END
 95
        8
302
GRIDFORMAT
  1
GRIDFORMAT_BEGIN
 90
        0
 91
        1
 62
     0
 92
       -2
340
14
 93
        0
 40
0.045
309
GRIDFORMAT_END
 95
       16
302
GRIDFORMAT
  1
GRIDFORMAT_BEGIN
 90
        0
 91
        1
 62
     0
 92
       -2
340
14
 93
        0
 40
0.045
309
GRIDFORMAT_END
 95
       32
302
GRIDFORMAT
  1
GRIDFORMAT_BEGIN
 90
        0
 91
        1
 62
     0
 92
       -2
340
14
 93
        0
 40
0.045
309
GRIDFORMAT_END
309
TABLEFORMAT_END
  1
CELLSTYLE_BEGIN
 90
        2
 91
        1
300
_HEADER
309
CELLSTYLE_END
300
CELLSTYLE
  1
TABLEFORMAT_BEGIN
 90
        5
170
     1
 91
        0
 92
        0
 62
   257
 93
        1
300
CONTENTFORMAT
  1
CONTENTFORMAT_BEGIN
 90
        0
 91
        0
 92
        4
 93
        0
300

 40
0.0
140
1.0
 94
        2
 62
     0
340
11
144
4.5
309
CONTENTFORMAT_END
171
     1
301
MARGIN
  1
CELLMARGIN_BEGIN
 40
1.5
 40
1.5
 40
1.5
 40
1.5
 40
1.5
 40
1.5
309
CELLMARGIN_END
 94
        6
 95
        1
302
GRIDFORMAT
  1
GRIDFORMAT_BEGIN
 90
        0
 91
        1
 62
     0
 92
       -2
340
14
 93
        0
 40
0.045
309
GRIDFORMAT_END
 95
        2
302
GRIDFORMAT
  1
GRIDFORMAT_BEGIN
 90
        0
 91
        1
 62
     0
 92
       -2
340
14
 93
        0
 40
0.045
309
GRIDFORMAT_END
 95
        4
302
GRIDFORMAT
  1
GRIDFORMAT_BEGIN
 90
        0
 91
        1
 62
     0
 92
       -2
340
14
 93
        0
 40
0.045
309
GRIDFORMAT_END
 95
        8
302
GRIDFORMAT
  1
GRIDFORMAT_BEGIN
 90
        0
 91
        1
 62
     0
 92
       -2
340
14
 93
        0
 40
0.045
309
GRIDFORMAT_END
 95
       16
302
GRIDFORMAT
  1
GRIDFORMAT_BEGIN
 90
        0
 91
        1
 62
     0
 92
       -2
340
14
 93
        0
 40
0.045
309
GRIDFORMAT_END
 95
       32
302
GRIDFORMAT
  1
GRIDFORMAT_BEGIN
 90
        0
 91
        1
 62
     0
 92
       -2
340
14
 93
        0
 40
0.045
309
GRIDFORMAT_END
309
TABLEFORMAT_END
  1
CELLSTYLE_BEGIN
 90
        3
 91
        2
300
_DATA
309
CELLSTYLE_END
  0
ENDSEC
  0
EOF
