  0
SECTION
  2
HEADER
  9
$ACADVER
  1
AC1027
  9
$ACADMAINTVER
 70
     8
  9
$DWGCODEPAGE
  3
ANSI_932
  9
$REQUIREDVERSIONS
160
                 0
  9
$LASTSAVEDBY
  1
Yasu
  9
$INSBASE
 10
0.0
 20
0.0
 30
0.0
  9
$EXTMIN
 10
2.772946679998533
 20
16.3335422994211
 30
0.0
  9
$EXTMAX
 10
268.0949544900826
 20
226.5857418286863
 30
0.0
  9
$LIMMIN
 10
0.0
 20
0.0
  9
$LIMMAX
 10
420.0
 20
297.0
  9
$ORTHOMODE
 70
     0
  9
$REGENMODE
 70
     1
  9
$FILLMODE
 70
     1
  9
$QTEXTMODE
 70
     0
  9
$MIRRTEXT
 70
     0
  9
$LTSCALE
 40
0.2
  9
$ATTMODE
 70
     1
  9
$TEXTSIZE
 40
3.0
  9
$TRACEWID
 40
1.0
  9
$TEXTSTYLE
  7
Standard
  9
$CLAYER
  8
文字
  9
$CELTYPE
  6
ByLayer
  9
$CECOLOR
 62
   256
  9
$CELTSCALE
 40
1.0
  9
$DISPSILH
 70
     0
  9
$DIMSCALE
 40
1.0
  9
$DIMASZ
 40
2.5
  9
$DIMEXO
 40
0.625
  9
$DIMDLI
 40
3.75
  9
$DIMRND
 40
0.0
  9
$DIMDLE
 40
0.0
  9
$DIMEXE
 40
1.25
  9
$DIMTP
 40
0.0
  9
$DIMTM
 40
0.0
  9
$DIMTXT
 40
2.5
  9
$DIMCEN
 40
2.5
  9
$DIMTSZ
 40
0.0
  9
$DIMTOL
 70
     0
  9
$DIMLIM
 70
     0
  9
$DIMTIH
 70
     0
  9
$DIMTOH
 70
     0
  9
$DIMSE1
 70
     0
  9
$DIMSE2
 70
     0
  9
$DIMTAD
 70
     1
  9
$DIMZIN
 70
     8
  9
$DIMBLK
  1

  9
$DIMASO
 70
     1
  9
$DIMSHO
 70
     1
  9
$DIMPOST
  1

  9
$DIMAPOST
  1

  9
$DIMALT
 70
     0
  9
$DIMALTD
 70
     3
  9
$DIMALTF
 40
0.03937007874016
  9
$DIMLFAC
 40
1.0
  9
$DIMTOFL
 70
     1
  9
$DIMTVP
 40
0.0
  9
$DIMTIX
 70
     0
  9
$DIMSOXD
 70
     0
  9
$DIMSAH
 70
     0
  9
$DIMBLK1
  1

  9
$DIMBLK2
  1

  9
$DIMSTYLE
  2
ISO-25
  9
$DIMCLRD
 70
     0
  9
$DIMCLRE
 70
     0
  9
$DIMCLRT
 70
     0
  9
$DIMTFAC
 40
1.0
  9
$DIMGAP
 40
0.625
  9
$DIMJUST
 70
     0
  9
$DIMSD1
 70
     0
  9
$DIMSD2
 70
     0
  9
$DIMTOLJ
 70
     0
  9
$DIMTZIN
 70
     8
  9
$DIMALTZ
 70
     0
  9
$DIMALTTZ
 70
     0
  9
$DIMUPT
 70
     0
  9
$DIMDEC
 70
     2
  9
$DIMTDEC
 70
     2
  9
$DIMALTU
 70
     2
  9
$DIMALTTD
 70
     3
  9
$DIMTXSTY
  7
Standard
  9
$DIMAUNIT
 70
     0
  9
$DIMADEC
 70
     0
  9
$DIMALTRND
 40
0.0
  9
$DIMAZIN
 70
     0
  9
$DIMDSEP
 70
    46
  9
$DIMATFIT
 70
     3
  9
$DIMFRAC
 70
     0
  9
$DIMLDRBLK
  1

  9
$DIMLUNIT
 70
     2
  9
$DIMLWD
 70
    -2
  9
$DIMLWE
 70
    -2
  9
$DIMTMOVE
 70
     0
  9
$DIMFXL
 40
1.0
  9
$DIMFXLON
 70
     0
  9
$DIMJOGANG
 40
0.7853981633974483
  9
$DIMTFILL
 70
     0
  9
$DIMTFILLCLR
 70
     0
  9
$DIMARCSYM
 70
     0
  9
$DIMLTYPE
  6

  9
$DIMLTEX1
  6

  9
$DIMLTEX2
  6

  9
$DIMTXTDIRECTION
 70
     0
  9
$LUNITS
 70
     2
  9
$LUPREC
 70
     4
  9
$SKETCHINC
 40
1.0
  9
$FILLETRAD
 40
3.0
  9
$AUNITS
 70
     0
  9
$AUPREC
 70
     0
  9
$MENU
  1
.
  9
$ELEVATION
 40
0.0
  9
$PELEVATION
 40
0.0
  9
$THICKNESS
 40
0.0
  9
$LIMCHECK
 70
     0
  9
$CHAMFERA
 40
3.0
  9
$CHAMFERB
 40
3.0
  9
$CHAMFERC
 40
0.0
  9
$CHAMFERD
 40
0.0
  9
$SKPOLY
 70
     0
  9
$TDCREATE
 40
2452936.788310359
  9
$TDUCREATE
 40
2452936.413310359
  9
$TDUPDATE
 40
2456739.709337755
  9
$TDUUPDATE
 40
2456739.334337755
  9
$TDINDWG
 40
0.6006685995
  9
$TDUSRTIMER
 40
2456739.333756227
  9
$USRTIMER
 70
     1
  9
$ANGBASE
 50
0.0
  9
$ANGDIR
 70
     0
  9
$PDMODE
 70
     0
  9
$PDSIZE
 40
0.0
  9
$PLINEWID
 40
0.0
  9
$SPLFRAME
 70
     0
  9
$SPLINETYPE
 70
     6
  9
$SPLINESEGS
 70
     8
  9
$HANDSEED
  5
1126
  9
$SURFTAB1
 70
     6
  9
$SURFTAB2
 70
     6
  9
$SURFTYPE
 70
     6
  9
$SURFU
 70
     6
  9
$SURFV
 70
     6
  9
$UCSBASE
  2

  9
$UCSNAME
  2

  9
$UCSORG
 10
0.0
 20
0.0
 30
0.0
  9
$UCSXDIR
 10
1.0
 20
0.0
 30
0.0
  9
$UCSYDIR
 10
0.0
 20
1.0
 30
0.0
  9
$UCSORTHOREF
  2

  9
$UCSORTHOVIEW
 70
     0
  9
$UCSORGTOP
 10
0.0
 20
0.0
 30
0.0
  9
$UCSORGBOTTOM
 10
0.0
 20
0.0
 30
0.0
  9
$UCSORGLEFT
 10
0.0
 20
0.0
 30
0.0
  9
$UCSORGRIGHT
 10
0.0
 20
0.0
 30
0.0
  9
$UCSORGFRONT
 10
0.0
 20
0.0
 30
0.0
  9
$UCSORGBACK
 10
0.0
 20
0.0
 30
0.0
  9
$PUCSBASE
  2

  9
$PUCSNAME
  2

  9
$PUCSORG
 10
0.0
 20
0.0
 30
0.0
  9
$PUCSXDIR
 10
1.0
 20
0.0
 30
0.0
  9
$PUCSYDIR
 10
0.0
 20
1.0
 30
0.0
  9
$PUCSORTHOREF
  2

  9
$PUCSORTHOVIEW
 70
     0
  9
$PUCSORGTOP
 10
0.0
 20
0.0
 30
0.0
  9
$PUCSORGBOTTOM
 10
0.0
 20
0.0
 30
0.0
  9
$PUCSORGLEFT
 10
0.0
 20
0.0
 30
0.0
  9
$PUCSORGRIGHT
 10
0.0
 20
0.0
 30
0.0
  9
$PUCSORGFRONT
 10
0.0
 20
0.0
 30
0.0
  9
$PUCSORGBACK
 10
0.0
 20
0.0
 30
0.0
  9
$USERI1
 70
     0
  9
$USERI2
 70
     0
  9
$USERI3
 70
     0
  9
$USERI4
 70
     0
  9
$USERI5
 70
     0
  9
$USERR1
 40
0.0
  9
$USERR2
 40
0.0
  9
$USERR3
 40
0.0
  9
$USERR4
 40
0.0
  9
$USERR5
 40
0.0
  9
$WORLDVIEW
 70
     1
  9
$SHADEDGE
 70
     3
  9
$SHADEDIF
 70
    70
  9
$TILEMODE
 70
     1
  9
$MAXACTVP
 70
    64
  9
$PINSBASE
 10
0.0
 20
0.0
 30
0.0
  9
$PLIMCHECK
 70
     0
  9
$PEXTMIN
 10
1.000000000000000E+20
 20
1.000000000000000E+20
 30
1.000000000000000E+20
  9
$PEXTMAX
 10
-1.000000000000000E+20
 20
-1.000000000000000E+20
 30
-1.000000000000000E+20
  9
$PLIMMIN
 10
0.0
 20
0.0
  9
$PLIMMAX
 10
0.0
 20
0.0
  9
$UNITMODE
 70
     0
  9
$VISRETAIN
 70
     1
  9
$PLINEGEN
 70
     0
  9
$PSLTSCALE
 70
     0
  9
$TREEDEPTH
 70
  3020
  9
$CMLSTYLE
  2
Standard
  9
$CMLJUST
 70
     0
  9
$CMLSCALE
 40
20.0
  9
$PROXYGRAPHICS
 70
     1
  9
$MEASUREMENT
 70
     1
  9
$CELWEIGHT
370
    -1
  9
$ENDCAPS
280
     0
  9
$JOINSTYLE
280
     0
  9
$LWDISPLAY
290
     0
  9
$INSUNITS
 70
     4
  9
$HYPERLINKBASE
  1

  9
$STYLESHEET
  1

  9
$XEDIT
290
     1
  9
$CEPSNTYPE
380
     0
  9
$PSTYLEMODE
290
     1
  9
$FINGERPRINTGUID
  2
{86E58535-AB5B-4AFE-AB1B-6758AAB7EA7D}
  9
$VERSIONGUID
  2
{AD331A0F-7475-4C42-ACD0-0BF1406C3277}
  9
$EXTNAMES
290
     1
  9
$PSVPSCALE
 40
0.0
  9
$OLESTARTUP
290
     0
  9
$SORTENTS
280
   127
  9
$INDEXCTL
280
     0
  9
$HIDETEXT
280
     1
  9
$XCLIPFRAME
280
     0
  9
$HALOGAP
280
     0
  9
$OBSCOLOR
 70
   257
  9
$OBSLTYPE
280
     0
  9
$INTERSECTIONDISPLAY
280
     0
  9
$INTERSECTIONCOLOR
 70
   257
  9
$DIMASSOC
280
     2
  9
$PROJECTNAME
  1

  9
$CAMERADISPLAY
290
     0
  9
$LENSLENGTH
 40
50.0
  9
$CAMERAHEIGHT
 40
0.0
  9
$STEPSPERSEC
 40
2.0
  9
$STEPSIZE
 40
6.0
  9
$3DDWFPREC
 40
2.0
  9
$PSOLWIDTH
 40
0.25
  9
$PSOLHEIGHT
 40
4.0
  9
$LOFTANG1
 40
1.570796326794897
  9
$LOFTANG2
 40
1.570796326794897
  9
$LOFTMAG1
 40
0.0
  9
$LOFTMAG2
 40
0.0
  9
$LOFTPARAM
 70
     7
  9
$LOFTNORMALS
280
     1
  9
$LATITUDE
 40
37.795
  9
$LONGITUDE
 40
-122.394
  9
$NORTHDIRECTION
 40
0.0
  9
$TIMEZONE
 70
 -8000
  9
$LIGHTGLYPHDISPLAY
280
     1
  9
$TILEMODELIGHTSYNCH
280
     1
  9
$SOLIDHIST
280
     1
  9
$SHOWHIST
280
     1
  9
$DWFFRAME
280
     2
  9
$DGNFRAME
280
     2
  9
$REALWORLDSCALE
290
     1
  9
$INTERFERECOLOR
 62
   256
  9
$CSHADOW
280
     0
  9
$SHADOWPLANELOCATION
 40
0.0
  0
ENDSEC
  0
SECTION
  2
CLASSES
  0
CLASS
  1
ACDBDICTIONARYWDFLT
  2
AcDbDictionaryWithDefault
  3
ObjectDBX Classes
 90
        0
 91
        9
280
     0
281
     0
  0
CLASS
  1
DIMASSOC
  2
AcDbDimAssoc
  3
"AcDbDimAssoc|Product Desc:     AcDim ARX App For Dimension|Company:          Autodesk, Inc.|WEB Address:      www.autodesk.com"
 90
        0
 91
        6
280
     0
281
     0
  0
CLASS
  1
VISUALSTYLE
  2
AcDbVisualStyle
  3
ObjectDBX Classes
 90
     4095
 91
        9
280
     0
281
     0
  0
CLASS
  1
SCALE
  2
AcDbScale
  3
ObjectDBX Classes
 90
     1153
 91
        9
280
     0
281
     0
  0
CLASS
  1
MATERIAL
  2
AcDbMaterial
  3
ObjectDBX Classes
 90
     1153
 91
        9
280
     0
281
     0
  0
CLASS
  1
TABLESTYLE
  2
AcDbTableStyle
  3
ObjectDBX Classes
 90
     4095
 91
        9
280
     0
281
     0
  0
CLASS
  1
SUN
  2
AcDbSun
  3
SCENEOE
 90
     1153
 91
        9
280
     0
281
     0
  0
CLASS
  1
RASTERVARIABLES
  2
AcDbRasterVariables
  3
ISM
 90
        0
 91
        9
280
     0
281
     0
  0
CLASS
  1
DICTIONARYVAR
  2
AcDbDictionaryVar
  3
ObjectDBX Classes
 90
        0
 91
        6
280
     0
281
     0
  0
CLASS
  1
CELLSTYLEMAP
  2
AcDbCellStyleMap
  3
ObjectDBX Classes
 90
     1152
 91
        6
280
     0
281
     0
  0
ENDSEC
  0
SECTION
  2
TABLES
  0
TABLE
  2
VPORT
  5
8
330
0
100
AcDbSymbolTable
 70
     1
  0
VPORT
  5
FFB
330
8
100
AcDbSymbolTableRecord
100
AcDbViewportTableRecord
  2
*Active
 70
     0
 10
0.0
 20
0.0
 11
1.0
 21
1.0
 12
135.4339505850406
 22
121.4596420640537
 13
0.0
 23
0.0
 14
10.0
 24
10.0
 15
10.0
 25
10.0
 16
0.0
 26
0.0
 36
1.0
 17
0.0
 27
0.0
 37
0.0
 40
214.4572435198505
 41
1.762376237623762
 42
50.0
 43
0.0
 44
0.0
 50
0.0
 51
0.0
 71
    16
 72
  1000
 73
     1
 74
     3
 75
     0
 76
     0
 77
     0
 78
     0
281
     0
 65
     1
110
0.0
120
0.0
130
0.0
111
1.0
121
0.0
131
0.0
112
0.0
122
1.0
132
0.0
 79
     0
146
0.0
348
1001
 60
     3
 61
     5
292
     1
282
     1
141
0.0
142
0.0
 63
   256
361
103D
  0
ENDTAB
  0
TABLE
  2
LTYPE
  5
5
330
0
100
AcDbSymbolTable
 70
     6
  0
LTYPE
  5
14
330
5
100
AcDbSymbolTableRecord
100
AcDbLinetypeTableRecord
  2
ByBlock
 70
     0
  3

 72
    65
 73
     0
 40
0.0
  0
LTYPE
  5
15
330
5
100
AcDbSymbolTableRecord
100
AcDbLinetypeTableRecord
  2
ByLayer
 70
     0
  3

 72
    65
 73
     0
 40
0.0
  0
LTYPE
  5
16
330
5
100
AcDbSymbolTableRecord
100
AcDbLinetypeTableRecord
  2
Continuous
 70
     0
  3
Solid line
 72
    65
 73
     0
 40
0.0
  0
LTYPE
  5
35
330
5
100
AcDbSymbolTableRecord
100
AcDbLinetypeTableRecord
  2
ACAD_ISO08W100
 70
     0
  3
ISO long-dash short-dash ____ __ ____ __ ____ _
 72
    65
 73
     4
 40
36.0
 49
24.0
 74
     0
 49
-3.0
 74
     0
 49
6.0
 74
     0
 49
-3.0
 74
     0
  0
LTYPE
  5
127
330
5
100
AcDbSymbolTableRecord
100
AcDbLinetypeTableRecord
  2
HIDDENX2
 70
     0
  3
Hidden (2x) ____ ____ ____ ____ ____ ____ ____
 72
    65
 73
     2
 40
19.05
 49
12.7
 74
     0
 49
-6.35
 74
     0
  0
LTYPE
  5
5EC
330
5
100
AcDbSymbolTableRecord
100
AcDbLinetypeTableRecord
  2
CENTER
 70
     0
  3
Center ____ _ ____ _ ____ _ ____ _ ____ _ ____
 72
    65
 73
     4
 40
50.8
 49
31.75
 74
     0
 49
-6.35
 74
     0
 49
6.35
 74
     0
 49
-6.35
 74
     0
  0
LTYPE
  5
5ED
330
5
100
AcDbSymbolTableRecord
100
AcDbLinetypeTableRecord
  2
ACAD_ISO02W100
 70
     0
  3
ISO dash __ __ __ __ __ __ __ __ __ __ __ __ __
 72
    65
 73
     2
 40
15.0
 49
12.0
 74
     0
 49
-3.0
 74
     0
  0
LTYPE
  5
605
330
5
100
AcDbSymbolTableRecord
100
AcDbLinetypeTableRecord
  2
DASHED
 70
     0
  3
Dashed __ __ __ __ __ __ __ __ __ __ __ __ __ _
 72
    65
 73
     2
 40
19.05
 49
12.7
 74
     0
 49
-6.35
 74
     0
  0
ENDTAB
  0
TABLE
  2
LAYER
  5
2
330
0
100
AcDbSymbolTable
 70
    12
  0
LAYER
  5
10
330
2
100
AcDbSymbolTableRecord
100
AcDbLayerTableRecord
  2
0
 70
     0
 62
     7
  6
Continuous
370
    -3
390
F
347
1039
348
0
  0
LAYER
  5
2E
330
2
100
AcDbSymbolTableRecord
100
AcDbLayerTableRecord
  2
枠
 70
     0
 62
     1
  6
Continuous
370
    30
390
F
347
1039
348
0
  0
LAYER
  5
2F
330
2
100
AcDbSymbolTableRecord
100
AcDbLayerTableRecord
  2
文字
 70
     0
 62
     7
  6
Continuous
370
    30
390
F
347
1039
348
0
  0
LAYER
  5
36
330
2
100
AcDbSymbolTableRecord
100
AcDbLayerTableRecord
  2
中心線
 70
     0
 62
     7
  6
CENTER
370
    30
390
F
347
1039
348
0
  0
LAYER
  5
52
330
2
100
AcDbSymbolTableRecord
100
AcDbLayerTableRecord
  2
隠れ線
 70
     0
 62
     2
  6
Continuous
290
     0
370
    -3
390
F
347
1039
348
0
  0
LAYER
  5
128
330
2
100
AcDbSymbolTableRecord
100
AcDbLayerTableRecord
  2
実線
 70
     0
 62
     7
  6
Continuous
370
    50
390
F
347
1039
348
0
  0
LAYER
  5
129
330
2
100
AcDbSymbolTableRecord
100
AcDbLayerTableRecord
  2
破線
 70
     0
 62
     7
  6
DASHED
370
    20
390
F
347
1039
348
0
  0
LAYER
  5
693
330
2
100
AcDbSymbolTableRecord
100
AcDbLayerTableRecord
  2
Defpoints
 70
     0
 62
     7
  6
Continuous
290
     0
370
    -3
390
F
347
1039
348
0
  0
LAYER
  5
D0A
330
2
100
AcDbSymbolTableRecord
100
AcDbLayerTableRecord
  2
hyou
 70
     0
 62
     7
  6
Continuous
370
    -3
390
F
347
1039
348
0
  0
LAYER
  5
D0B
330
2
100
AcDbSymbolTableRecord
100
AcDbLayerTableRecord
  2
center
 70
     0
 62
     7
  6
ACAD_ISO08W100
370
    -3
390
F
347
1039
348
0
  0
LAYER
  5
D0C
330
2
100
AcDbSymbolTableRecord
100
AcDbLayerTableRecord
  2
1
 70
     0
 62
   140
  6
Continuous
370
    25
390
F
347
1039
348
0
  0
LAYER
  5
1051
330
2
100
AcDbSymbolTableRecord
100
AcDbLayerTableRecord
  2
文字・寸法線
 70
     0
 62
     7
  6
Continuous
370
    13
390
F
347
1039
348
0
  0
ENDTAB
  0
TABLE
  2
STYLE
  5
3
330
0
100
AcDbSymbolTable
 70
     2
  0
STYLE
  5
11
330
3
100
AcDbSymbolTableRecord
100
AcDbTextStyleTableRecord
  2
Standard
 70
     0
 40
0.0
 41
1.0
 50
0.0
 71
     0
 42
3.0
  3
txt.shx
  4
bigfont.shx
  0
STYLE
  5
34
330
3
100
AcDbSymbolTableRecord
100
AcDbTextStyleTableRecord
  2

 70
     1
 40
0.0
 41
1.0
 50
0.0
 71
     0
 42
2.5
  3
ltypeshp.shx
  4

  0
ENDTAB
  0
TABLE
  2
VIEW
  5
6
330
0
100
AcDbSymbolTable
 70
     0
  0
ENDTAB
  0
TABLE
  2
UCS
  5
7
330
0
100
AcDbSymbolTable
 70
     0
  0
ENDTAB
  0
TABLE
  2
APPID
  5
9
330
0
100
AcDbSymbolTable
 70
     1
  0
APPID
  5
12
330
9
100
AcDbSymbolTableRecord
100
AcDbRegAppTableRecord
  2
ACAD
 70
     0
  0
ENDTAB
  0
TABLE
  2
DIMSTYLE
  5
A
330
0
100
AcDbSymbolTable
 70
     1
100
AcDbDimStyleTable
  0
DIMSTYLE
105
29
102
{ACAD_REACTORS
330
B2D
330
B9A
330
F14
330
F2C
330
FBF
330
10E5
330
10EB
330
10ED
102
}
330
A
100
AcDbSymbolTableRecord
100
AcDbDimStyleTableRecord
  2
ISO-25
 70
     0
 41
2.5
 42
0.625
 43
3.75
 44
1.25
 73
     0
 74
     0
 77
     1
 78
     8
140
2.5
141
2.5
143
0.03937007874016
147
0.625
171
     3
172
     1
178
     0
271
     2
272
     2
274
     3
283
     0
284
     8
340
11
  0
ENDTAB
  0
TABLE
  2
BLOCK_RECORD
  5
1
330
0
100
AcDbSymbolTable
 70
    14
  0
BLOCK_RECORD
  5
21
330
1
100
AcDbSymbolTableRecord
100
AcDbBlockTableRecord
  2
*Model_Space
340
24
 70
     0
280
     1
281
     0
  0
BLOCK_RECORD
  5
103F
330
1
100
AcDbSymbolTableRecord
100
AcDbBlockTableRecord
  2
*Paper_Space
340
1040
 70
     0
280
     1
281
     0
  0
BLOCK_RECORD
  5
B2E
330
1
100
AcDbSymbolTableRecord
100
AcDbBlockTableRecord
  2
*D0
340
0
 70
     0
280
     1
281
     0
  0
BLOCK_RECORD
  5
B9B
330
1
100
AcDbSymbolTableRecord
100
AcDbBlockTableRecord
  2
*D1
340
0
 70
     0
280
     1
281
     0
  0
BLOCK_RECORD
  5
D6A
330
1
100
AcDbSymbolTableRecord
100
AcDbBlockTableRecord
  2
*D2
340
0
 70
     0
280
     1
281
     0
  0
BLOCK_RECORD
  5
ECB
330
1
100
AcDbSymbolTableRecord
100
AcDbBlockTableRecord
  2
*D3
340
0
 70
     0
280
     1
281
     0
  0
BLOCK_RECORD
  5
EFD
330
1
100
AcDbSymbolTableRecord
100
AcDbBlockTableRecord
  2
*D4
340
0
 70
     0
280
     1
281
     0
  0
BLOCK_RECORD
  5
F15
330
1
100
AcDbSymbolTableRecord
100
AcDbBlockTableRecord
  2
*D5
340
0
 70
     0
280
     1
281
     0
  0
BLOCK_RECORD
  5
F2D
330
1
100
AcDbSymbolTableRecord
100
AcDbBlockTableRecord
  2
*D6
340
0
 70
     0
280
     1
281
     0
  0
BLOCK_RECORD
  5
FC0
330
1
100
AcDbSymbolTableRecord
100
AcDbBlockTableRecord
  2
*D7
340
0
 70
     0
280
     1
281
     0
  0
BLOCK_RECORD
  5
10A9
330
1
100
AcDbSymbolTableRecord
100
AcDbBlockTableRecord
  2
*D8
340
0
 70
     0
280
     1
281
     0
  0
BLOCK_RECORD
  5
10BB
330
1
100
AcDbSymbolTableRecord
100
AcDbBlockTableRecord
  2
*D9
340
0
 70
     0
280
     1
281
     0
  0
BLOCK_RECORD
  5
10CD
330
1
100
AcDbSymbolTableRecord
100
AcDbBlockTableRecord
  2
*D10
340
0
 70
     0
280
     1
281
     0
  0
BLOCK_RECORD
  5
10F3
330
1
100
AcDbSymbolTableRecord
100
AcDbBlockTableRecord
  2
*D11
340
0
 70
     0
280
     1
281
     0
  0
BLOCK_RECORD
  5
10FF
330
1
100
AcDbSymbolTableRecord
100
AcDbBlockTableRecord
  2
*D12
340
0
 70
     0
280
     1
281
     0
  0
BLOCK_RECORD
  5
110E
330
1
100
AcDbSymbolTableRecord
100
AcDbBlockTableRecord
  2
*D13
340
0
 70
     0
280
     1
281
     0
  0
ENDTAB
  0
ENDSEC
  0
SECTION
  2
BLOCKS
  0
BLOCK
  5
22
330
21
100
AcDbEntity
  8
0
100
AcDbBlockBegin
  2
*Model_Space
 70
     0
 10
0.0
 20
0.0
 30
0.0
  3
*Model_Space
  1
*Model_Space
  0
ENDBLK
  5
23
330
21
100
AcDbEntity
  8
0
100
AcDbBlockEnd
  0
BLOCK
  5
1041
330
103F
100
AcDbEntity
 67
     1
  8
0
100
AcDbBlockBegin
  2
*Paper_Space
 70
     0
 10
0.0
 20
0.0
 30
0.0
  3
*Paper_Space
  1
*Paper_Space
  0
ENDBLK
  5
1042
330
103F
100
AcDbEntity
 67
     1
  8
0
100
AcDbBlockEnd
  0
BLOCK
  5
B38
330
B2E
100
AcDbEntity
  8
0
100
AcDbBlockBegin
  2
*D0
 70
     1
 10
0.0
 20
0.0
 30
0.0
  3
*D0
  1
*D1
  0
LINE
  5
F73
330
B2E
100
AcDbEntity
  8
文字
 62
     0
370
    -2
100
AcDbLine
 10
61.80691214302152
 20
169.9439140696992
 30
0.0
 11
61.80691214302152
 21
189.6282965772887
 31
0.0
  0
LINE
  5
F74
330
B2E
100
AcDbEntity
  8
文字
 62
     0
370
    -2
100
AcDbLine
 10
85.80691214302152
 20
169.9439140696992
 30
0.0
 11
85.80691214302152
 21
189.6282965772887
 31
0.0
  0
LINE
  5
F75
330
B2E
100
AcDbEntity
  8
文字
 62
     0
370
    -2
100
AcDbLine
 10
64.30691214302152
 20
188.3782965772887
 30
0.0
 11
83.30691214302152
 21
188.3782965772887
 31
0.0
  0
SOLID
  5
F76
330
B2E
100
AcDbEntity
  8
文字
 62
     0
100
AcDbTrace
 10
64.30691214302152
 20
188.7949632439553
 30
0.0
 11
64.30691214302152
 21
187.961629910622
 31
0.0
 12
61.80691214302152
 22
188.3782965772887
 32
0.0
 13
61.80691214302152
 23
188.3782965772887
 33
0.0
  0
SOLID
  5
F77
330
B2E
100
AcDbEntity
  8
文字
 62
     0
100
AcDbTrace
 10
83.30691214302152
 20
188.7949632439553
 30
0.0
 11
83.30691214302152
 21
187.961629910622
 31
0.0
 12
85.80691214302152
 22
188.3782965772887
 32
0.0
 13
85.80691214302152
 23
188.3782965772887
 33
0.0
  0
MTEXT
  5
F78
330
B2E
100
AcDbEntity
  8
文字
 62
     0
100
AcDbMText
 10
73.80691214302152
 20
190.2532965772887
 30
0.0
 40
2.5
 41
0.0
 46
0.0
 71
     5
 72
     1
  1
{\fArial|b0|i0|c0|p32;M}24
 73
     1
 44
1.0
  0
POINT
  5
F79
330
B2E
100
AcDbEntity
  8
Defpoints
 62
     0
100
AcDbPoint
 10
61.80691214302152
 20
169.3189140696992
 30
0.0
  0
POINT
  5
F7A
330
B2E
100
AcDbEntity
  8
Defpoints
 62
     0
100
AcDbPoint
 10
85.80691214302152
 20
169.3189140696992
 30
0.0
  0
POINT
  5
F7B
330
B2E
100
AcDbEntity
  8
Defpoints
 62
     0
100
AcDbPoint
 10
85.80691214302152
 20
188.3782965772887
 30
0.0
  0
ENDBLK
  5
B39
330
B2E
100
AcDbEntity
  8
0
100
AcDbBlockEnd
  0
BLOCK
  5
BA5
330
B9B
100
AcDbEntity
  8
0
100
AcDbBlockBegin
  2
*D1
 70
     1
 10
0.0
 20
0.0
 30
0.0
  3
*D1
  1
*D4
  0
LINE
  5
FB6
330
B9B
100
AcDbEntity
  8
文字
 62
     0
370
    -2
100
AcDbLine
 10
188.6361015181284
 20
85.38392108856591
 30
0.0
 11
188.6361015181284
 21
27.79601649644289
 31
0.0
  0
LINE
  5
FB7
330
B9B
100
AcDbEntity
  8
文字
 62
     0
370
    -2
100
AcDbLine
 10
224.6627583155611
 20
85.38392108856591
 30
0.0
 11
224.6627583155611
 21
27.79601649644289
 31
0.0
  0
LINE
  5
FB8
330
B9B
100
AcDbEntity
  8
文字
 62
     0
370
    -2
100
AcDbLine
 10
191.1361015181284
 20
29.04601649644289
 30
0.0
 11
222.1627583155611
 21
29.04601649644289
 31
0.0
  0
SOLID
  5
FB9
330
B9B
100
AcDbEntity
  8
文字
 62
     0
100
AcDbTrace
 10
191.1361015181284
 20
29.46268316310956
 30
0.0
 11
191.1361015181284
 21
28.62934982977622
 31
0.0
 12
188.6361015181284
 22
29.04601649644289
 32
0.0
 13
188.6361015181284
 23
29.04601649644289
 33
0.0
  0
SOLID
  5
FBA
330
B9B
100
AcDbEntity
  8
文字
 62
     0
100
AcDbTrace
 10
222.1627583155611
 20
28.62934982977622
 30
0.0
 11
222.1627583155611
 21
29.46268316310956
 31
0.0
 12
224.6627583155611
 22
29.04601649644289
 32
0.0
 13
224.6627583155611
 23
29.04601649644289
 33
0.0
  0
MTEXT
  5
FBB
330
B9B
100
AcDbEntity
  8
文字
 62
     0
100
AcDbMText
 10
206.5711065575733
 20
30.92101649644289
 30
0.0
 40
2.5
 41
0.0
 46
0.0
 71
     5
 72
     1
  1
36
 73
     1
 44
1.0
  0
POINT
  5
FBC
330
B9B
100
AcDbEntity
  8
Defpoints
 62
     0
100
AcDbPoint
 10
188.6361015181284
 20
86.00892108856591
 30
0.0
  0
POINT
  5
FBD
330
B9B
100
AcDbEntity
  8
Defpoints
 62
     0
100
AcDbPoint
 10
224.6627583155611
 20
86.00892108856591
 30
0.0
  0
POINT
  5
FBE
330
B9B
100
AcDbEntity
  8
Defpoints
 62
     0
100
AcDbPoint
 10
224.6627583155611
 20
29.04601649644289
 30
0.0
  0
ENDBLK
  5
BA6
330
B9B
100
AcDbEntity
  8
0
100
AcDbBlockEnd
  0
BLOCK
  5
D74
330
D6A
100
AcDbEntity
  8
0
100
AcDbBlockBegin
  2
*D2
 70
     1
 10
0.0
 20
0.0
 30
0.0
  3
*D2
  1
*D16
  0
LINE
  5
F6A
330
D6A
100
AcDbEntity
  8
文字
 62
     0
370
    -2
100
AcDbLine
 10
18.80691214302152
 20
31.69391406969919
 30
0.0
 11
18.80691214302152
 21
15.14055053237536
 31
0.0
  0
LINE
  5
F6B
330
D6A
100
AcDbEntity
  8
文字
 62
     0
370
    -2
100
AcDbLine
 10
128.8069121430215
 20
31.69391406969912
 30
0.0
 11
128.8069121430215
 21
15.14055053237536
 31
0.0
  0
LINE
  5
F6C
330
D6A
100
AcDbEntity
  8
文字
 62
     0
370
    -2
100
AcDbLine
 10
21.30691214302152
 20
16.39055053237536
 30
0.0
 11
126.3069121430215
 21
16.39055053237536
 31
0.0
  0
SOLID
  5
F6D
330
D6A
100
AcDbEntity
  8
文字
 62
     0
100
AcDbTrace
 10
21.30691214302152
 20
16.80721719904203
 30
0.0
 11
21.30691214302152
 21
15.97388386570869
 31
0.0
 12
18.80691214302152
 22
16.39055053237536
 32
0.0
 13
18.80691214302152
 23
16.39055053237536
 33
0.0
  0
SOLID
  5
F6E
330
D6A
100
AcDbEntity
  8
文字
 62
     0
100
AcDbTrace
 10
126.3069121430215
 20
16.80721719904203
 30
0.0
 11
126.3069121430215
 21
15.97388386570869
 31
0.0
 12
128.8069121430215
 22
16.39055053237536
 32
0.0
 13
128.8069121430215
 23
16.39055053237536
 33
0.0
  0
MTEXT
  5
F6F
330
D6A
100
AcDbEntity
  8
文字
 62
     0
100
AcDbMText
 10
73.80691214302152
 20
18.26555053237536
 30
0.0
 40
2.5
 41
0.0
 46
0.0
 71
     5
 72
     1
  1
%%c110
 73
     1
 44
1.0
  0
POINT
  5
F70
330
D6A
100
AcDbEntity
  8
Defpoints
 62
     0
100
AcDbPoint
 10
18.80691214302152
 20
32.31891406969919
 30
0.0
  0
POINT
  5
F71
330
D6A
100
AcDbEntity
  8
Defpoints
 62
     0
100
AcDbPoint
 10
128.8069121430215
 20
32.31891406969912
 30
0.0
  0
POINT
  5
F72
330
D6A
100
AcDbEntity
  8
Defpoints
 62
     0
100
AcDbPoint
 10
128.8069121430215
 20
16.39055053237536
 30
0.0
  0
ENDBLK
  5
D75
330
D6A
100
AcDbEntity
  8
0
100
AcDbBlockEnd
  0
BLOCK
  5
ED7
330
ECB
100
AcDbEntity
  8
0
100
AcDbBlockBegin
  2
*D3
 70
     1
 10
0.0
 20
0.0
 30
0.0
  3
*D3
  1
*D24
  0
LINE
  5
F87
330
ECB
100
AcDbEntity
  8
文字
 62
     0
370
    -2
100
AcDbLine
 10
18.18191214302152
 20
32.31891406969919
 30
0.0
 11
15.00371034222281
 21
32.3189140696992
 31
0.0
  0
LINE
  5
F88
330
ECB
100
AcDbEntity
  8
文字
 62
     0
370
    -2
100
AcDbLine
 10
18.18191214302152
 20
34.91891406969921
 30
0.0
 11
15.00371034222281
 21
34.91891406969922
 31
0.0
  0
LINE
  5
F89
330
ECB
100
AcDbEntity
  8
文字
 62
     0
370
    -2
100
AcDbLine
 10
16.25371034222281
 20
29.81891406969919
 30
0.0
 11
16.25371034222281
 21
27.31891406969919
 31
0.0
  0
LINE
  5
F8A
330
ECB
100
AcDbEntity
  8
文字
 62
     0
370
    -2
100
AcDbLine
 10
16.25371034222281
 20
37.41891406969921
 30
0.0
 11
16.25371034222281
 21
53.60018235229591
 31
0.0
  0
LINE
  5
F8B
330
ECB
100
AcDbEntity
  8
文字
 62
     0
370
    -2
100
AcDbLine
 10
16.25371034222281
 20
32.31891406969919
 30
0.0
 11
16.25371034222281
 21
34.91891406969921
 31
0.0
  0
SOLID
  5
F8C
330
ECB
100
AcDbEntity
  8
文字
 62
     0
100
AcDbTrace
 10
15.83704367555614
 20
29.81891406969919
 30
0.0
 11
16.67037700888947
 21
29.81891406969919
 31
0.0
 12
16.25371034222281
 22
32.31891406969919
 32
0.0
 13
16.25371034222281
 23
32.31891406969919
 33
0.0
  0
SOLID
  5
F8D
330
ECB
100
AcDbEntity
  8
文字
 62
     0
100
AcDbTrace
 10
15.83704367555614
 20
37.41891406969922
 30
0.0
 11
16.67037700888947
 21
37.41891406969921
 31
0.0
 12
16.25371034222281
 22
34.91891406969921
 32
0.0
 13
16.25371034222281
 23
34.91891406969921
 33
0.0
  0
MTEXT
  5
F8E
330
ECB
100
AcDbEntity
  8
文字
 62
     0
100
AcDbMText
 10
14.3787103422228
 20
50.47518235229592
 30
0.0
 40
2.5
 41
0.0
 46
0.0
 71
     5
 72
     1
  1
2.6
 11
6.123031769111886E-17
 21
1.0
 31
0.0
 73
     1
 44
1.0
  0
POINT
  5
F8F
330
ECB
100
AcDbEntity
  8
Defpoints
 62
     0
100
AcDbPoint
 10
18.80691214302152
 20
32.31891406969919
 30
0.0
  0
POINT
  5
F90
330
ECB
100
AcDbEntity
  8
Defpoints
 62
     0
100
AcDbPoint
 10
18.80691214302152
 20
34.91891406969921
 30
0.0
  0
POINT
  5
F91
330
ECB
100
AcDbEntity
  8
Defpoints
 62
     0
100
AcDbPoint
 10
16.25371034222281
 20
34.91891406969921
 30
0.0
  0
ENDBLK
  5
ED8
330
ECB
100
AcDbEntity
  8
0
100
AcDbBlockEnd
  0
BLOCK
  5
F07
330
EFD
100
AcDbEntity
  8
0
100
AcDbBlockBegin
  2
*D4
 70
     1
 10
0.0
 20
0.0
 30
0.0
  3
*D4
  1
*D25
  0
LINE
  5
FE0
330
EFD
100
AcDbEntity
  8
文字
 62
     0
370
    -2
100
AcDbLine
 10
84.4319121430215
 20
57.31891406969919
 30
0.0
 11
134.3676274381417
 21
57.31891406969918
 31
0.0
  0
LINE
  5
FE1
330
EFD
100
AcDbEntity
  8
文字
 62
     0
370
    -2
100
AcDbLine
 10
129.4319121430215
 20
32.31891406969912
 30
0.0
 11
134.3676274381417
 21
32.31891406969912
 31
0.0
  0
LINE
  5
FE2
330
EFD
100
AcDbEntity
  8
文字
 62
     0
370
    -2
100
AcDbLine
 10
133.1176274381417
 20
54.81891406969918
 30
0.0
 11
133.1176274381417
 21
34.81891406969912
 31
0.0
  0
SOLID
  5
FE3
330
EFD
100
AcDbEntity
  8
文字
 62
     0
100
AcDbTrace
 10
132.7009607714751
 20
54.81891406969918
 30
0.0
 11
133.5342941048084
 21
54.81891406969918
 31
0.0
 12
133.1176274381417
 22
57.31891406969918
 32
0.0
 13
133.1176274381417
 23
57.31891406969918
 33
0.0
  0
SOLID
  5
FE4
330
EFD
100
AcDbEntity
  8
文字
 62
     0
100
AcDbTrace
 10
132.7009607714751
 20
34.81891406969912
 30
0.0
 11
133.5342941048084
 21
34.81891406969912
 31
0.0
 12
133.1176274381417
 22
32.31891406969912
 32
0.0
 13
133.1176274381417
 23
32.31891406969912
 33
0.0
  0
MTEXT
  5
FE5
330
EFD
100
AcDbEntity
  8
文字
 62
     0
100
AcDbMText
 10
131.2426274381417
 20
44.81891406969917
 30
0.0
 40
2.5
 41
0.0
 46
0.0
 71
     5
 72
     1
  1
24
 11
6.123031769111886E-17
 21
1.0
 31
0.0
 73
     1
 44
1.0
  0
POINT
  5
FE6
330
EFD
100
AcDbEntity
  8
Defpoints
 62
     0
100
AcDbPoint
 10
83.8069121430215
 20
57.31891406969919
 30
0.0
  0
POINT
  5
FE7
330
EFD
100
AcDbEntity
  8
Defpoints
 62
     0
100
AcDbPoint
 10
128.8069121430215
 20
32.31891406969912
 30
0.0
  0
POINT
  5
FE8
330
EFD
100
AcDbEntity
  8
Defpoints
 62
     0
100
AcDbPoint
 10
133.1176274381417
 20
32.31891406969912
 30
0.0
  0
ENDBLK
  5
F08
330
EFD
100
AcDbEntity
  8
0
100
AcDbBlockEnd
  0
BLOCK
  5
F1F
330
F15
100
AcDbEntity
  8
0
100
AcDbBlockBegin
  2
*D5
 70
     1
 10
0.0
 20
0.0
 30
0.0
  3
*D5
  1
*D26
  0
LINE
  5
F4D
330
F15
100
AcDbEntity
  8
文字
 62
     0
370
    -2
100
AcDbLine
 10
95.23191214302153
 20
72.31891406969919
 30
0.0
 11
134.3676274381417
 21
72.31891406969918
 31
0.0
  0
LINE
  5
F4E
330
F15
100
AcDbEntity
  8
文字
 62
     0
370
    -2
100
AcDbLine
 10
90.03191214302154
 20
57.31891406969919
 30
0.0
 11
134.3676274381417
 21
57.31891406969918
 31
0.0
  0
LINE
  5
F4F
330
F15
100
AcDbEntity
  8
文字
 62
     0
370
    -2
100
AcDbLine
 10
133.1176274381417
 20
69.81891406969918
 30
0.0
 11
133.1176274381417
 21
59.81891406969918
 31
0.0
  0
SOLID
  5
F50
330
F15
100
AcDbEntity
  8
文字
 62
     0
100
AcDbTrace
 10
132.7009607714751
 20
69.81891406969918
 30
0.0
 11
133.5342941048084
 21
69.81891406969918
 31
0.0
 12
133.1176274381417
 22
72.31891406969918
 32
0.0
 13
133.1176274381417
 23
72.31891406969918
 33
0.0
  0
SOLID
  5
F51
330
F15
100
AcDbEntity
  8
文字
 62
     0
100
AcDbTrace
 10
132.7009607714751
 20
59.81891406969918
 30
0.0
 11
133.5342941048084
 21
59.81891406969918
 31
0.0
 12
133.1176274381417
 22
57.31891406969918
 32
0.0
 13
133.1176274381417
 23
57.31891406969918
 33
0.0
  0
MTEXT
  5
F52
330
F15
100
AcDbEntity
  8
文字
 62
     0
100
AcDbMText
 10
131.2426274381417
 20
64.81891406969919
 30
0.0
 40
2.5
 41
0.0
 46
0.0
 71
     5
 72
     1
  1
15
 11
6.123031769111886E-17
 21
1.0
 31
0.0
 73
     1
 44
1.0
  0
POINT
  5
F53
330
F15
100
AcDbEntity
  8
Defpoints
 62
     0
100
AcDbPoint
 10
94.60691214302153
 20
72.31891406969919
 30
0.0
  0
POINT
  5
F54
330
F15
100
AcDbEntity
  8
Defpoints
 62
     0
100
AcDbPoint
 10
89.40691214302154
 20
57.31891406969919
 30
0.0
  0
POINT
  5
F55
330
F15
100
AcDbEntity
  8
Defpoints
 62
     0
100
AcDbPoint
 10
133.1176274381417
 20
57.31891406969918
 30
0.0
  0
ENDBLK
  5
F20
330
F15
100
AcDbEntity
  8
0
100
AcDbBlockEnd
  0
BLOCK
  5
F37
330
F2D
100
AcDbEntity
  8
0
100
AcDbBlockBegin
  2
*D6
 70
     1
 10
0.0
 20
0.0
 30
0.0
  3
*D6
  1
*D27
  0
LINE
  5
FEA
330
F2D
100
AcDbEntity
  8
文字
 62
     0
370
    -2
100
AcDbLine
 10
95.85691214302153
 20
72.31891406969919
 30
0.0
 11
134.3676274381418
 21
72.31891406969918
 31
0.0
  0
LINE
  5
FEB
330
F2D
100
AcDbEntity
  8
文字
 62
     0
370
    -2
100
AcDbLine
 10
83.43191214302152
 20
172.3189140696992
 30
0.0
 11
134.3676274381418
 21
172.3189140696992
 31
0.0
  0
LINE
  5
FEC
330
F2D
100
AcDbEntity
  8
文字
 62
     0
370
    -2
100
AcDbLine
 10
133.1176274381418
 20
74.81891406969918
 30
0.0
 11
133.1176274381418
 21
169.8189140696992
 31
0.0
  0
SOLID
  5
FED
330
F2D
100
AcDbEntity
  8
文字
 62
     0
100
AcDbTrace
 10
132.7009607714751
 20
74.81891406969918
 30
0.0
 11
133.5342941048084
 21
74.81891406969918
 31
0.0
 12
133.1176274381418
 22
72.31891406969918
 32
0.0
 13
133.1176274381418
 23
72.31891406969918
 33
0.0
  0
SOLID
  5
FEE
330
F2D
100
AcDbEntity
  8
文字
 62
     0
100
AcDbTrace
 10
132.7009607714751
 20
169.8189140696992
 30
0.0
 11
133.5342941048084
 21
169.8189140696992
 31
0.0
 12
133.1176274381418
 22
172.3189140696992
 32
0.0
 13
133.1176274381418
 23
172.3189140696992
 33
0.0
  0
MTEXT
  5
FEF
330
F2D
100
AcDbEntity
  8
文字
 62
     0
100
AcDbMText
 10
131.2426274381417
 20
122.3189140696992
 30
0.0
 40
2.5
 41
0.0
 46
0.0
 71
     5
 72
     1
  1
150
 11
6.123031769111886E-17
 21
1.0
 31
0.0
 73
     1
 44
1.0
  0
POINT
  5
FF0
330
F2D
100
AcDbEntity
  8
Defpoints
 62
     0
100
AcDbPoint
 10
95.23191214302153
 20
72.31891406969919
 30
0.0
  0
POINT
  5
FF1
330
F2D
100
AcDbEntity
  8
Defpoints
 62
     0
100
AcDbPoint
 10
82.80691214302152
 20
172.3189140696992
 30
0.0
  0
POINT
  5
FF2
330
F2D
100
AcDbEntity
  8
Defpoints
 62
     0
100
AcDbPoint
 10
133.1176274381418
 20
172.3189140696992
 30
0.0
  0
ENDBLK
  5
F38
330
F2D
100
AcDbEntity
  8
0
100
AcDbBlockEnd
  0
BLOCK
  5
FCA
330
FC0
100
AcDbEntity
  8
0
100
AcDbBlockBegin
  2
*D7
 70
     1
 10
0.0
 20
0.0
 30
0.0
  3
*D7
  1
*D28
  0
LINE
  5
FD7
330
FC0
100
AcDbEntity
  8
文字
 62
     0
370
    -2
100
AcDbLine
 10
171.6494299168448
 20
95.78392108856602
 30
0.0
 11
171.6494299168448
 21
17.54689167793808
 31
0.0
  0
LINE
  5
FD8
330
FC0
100
AcDbEntity
  8
文字
 62
     0
370
    -2
100
AcDbLine
 10
241.6494299168448
 20
95.78392108856602
 30
0.0
 11
241.6494299168448
 21
17.54689167793808
 31
0.0
  0
LINE
  5
FD9
330
FC0
100
AcDbEntity
  8
文字
 62
     0
370
    -2
100
AcDbLine
 10
174.1494299168448
 20
18.79689167793808
 30
0.0
 11
239.1494299168448
 21
18.79689167793808
 31
0.0
  0
SOLID
  5
FDA
330
FC0
100
AcDbEntity
  8
文字
 62
     0
100
AcDbTrace
 10
174.1494299168448
 20
19.21355834460475
 30
0.0
 11
174.1494299168448
 21
18.38022501127141
 31
0.0
 12
171.6494299168448
 22
18.79689167793808
 32
0.0
 13
171.6494299168448
 23
18.79689167793808
 33
0.0
  0
SOLID
  5
FDB
330
FC0
100
AcDbEntity
  8
文字
 62
     0
100
AcDbTrace
 10
239.1494299168448
 20
18.38022501127141
 30
0.0
 11
239.1494299168448
 21
19.21355834460475
 31
0.0
 12
241.6494299168448
 22
18.79689167793808
 32
0.0
 13
241.6494299168448
 23
18.79689167793808
 33
0.0
  0
MTEXT
  5
FDC
330
FC0
100
AcDbEntity
  8
文字
 62
     0
100
AcDbMText
 10
206.6494299168448
 20
20.67189167793808
 30
0.0
 40
2.5
 41
0.0
 46
0.0
 71
     5
 72
     1
  1
%%c70
 73
     1
 44
1.0
  0
POINT
  5
FDD
330
FC0
100
AcDbEntity
  8
Defpoints
 62
     0
100
AcDbPoint
 10
171.6494299168448
 20
96.40892108856602
 30
0.0
  0
POINT
  5
FDE
330
FC0
100
AcDbEntity
  8
Defpoints
 62
     0
100
AcDbPoint
 10
241.6494299168448
 20
96.40892108856602
 30
0.0
  0
POINT
  5
FDF
330
FC0
100
AcDbEntity
  8
Defpoints
 62
     0
100
AcDbPoint
 10
241.6494299168448
 20
18.79689167793808
 30
0.0
  0
ENDBLK
  5
FCB
330
FC0
100
AcDbEntity
  8
0
100
AcDbBlockEnd
  0
BLOCK
  5
10AA
330
10A9
100
AcDbEntity
  8
0
100
AcDbBlockBegin
  2
*D8
 70
     1
 10
0.0
 20
0.0
 30
0.0
  3
*D8
  1
*D3
  0
LINE
  5
10AB
330
10A9
100
AcDbEntity
  8
文字
 62
     0
370
    -2
100
AcDbLine
 10
8.37316310950493
 20
16.55336353732383
 30
0.0
 11
8.37316310950493
 21
0.0
 31
0.0
  0
LINE
  5
10AC
330
10A9
100
AcDbEntity
  8
文字
 62
     0
370
    -2
100
AcDbLine
 10
118.3731631095049
 20
16.55336353732376
 30
0.0
 11
118.3731631095049
 21
0.0
 31
0.0
  0
LINE
  5
10AD
330
10A9
100
AcDbEntity
  8
文字
 62
     0
370
    -2
100
AcDbLine
 10
10.87316310950493
 20
1.25
 30
0.0
 11
115.8731631095049
 21
1.25
 31
0.0
  0
SOLID
  5
10AE
330
10A9
100
AcDbEntity
  8
文字
 62
     0
100
AcDbTrace
 10
10.87316310950493
 20
1.666666666666667
 30
0.0
 11
10.87316310950493
 21
0.8333333333333333
 31
0.0
 12
8.37316310950493
 22
1.25
 32
0.0
 13
8.37316310950493
 23
1.25
 33
0.0
  0
SOLID
  5
10AF
330
10A9
100
AcDbEntity
  8
文字
 62
     0
100
AcDbTrace
 10
115.8731631095049
 20
0.8333333333333333
 30
0.0
 11
115.8731631095049
 21
1.666666666666667
 31
0.0
 12
118.3731631095049
 22
1.25
 32
0.0
 13
118.3731631095049
 23
1.25
 33
0.0
  0
MTEXT
  5
10B0
330
10A9
100
AcDbEntity
  8
文字
 62
     0
100
AcDbMText
 10
63.37316310950492
 20
3.125
 30
0.0
 40
2.5
 41
0.0
 46
0.0
 71
     5
 72
     1
  1
%%c110
 73
     1
 44
1.0
  0
POINT
  5
10B1
330
10A9
100
AcDbEntity
  8
Defpoints
 62
     0
100
AcDbPoint
 10
8.37316310950493
 20
17.17836353732383
 30
0.0
  0
POINT
  5
10B2
330
10A9
100
AcDbEntity
  8
Defpoints
 62
     0
100
AcDbPoint
 10
118.3731631095049
 20
17.17836353732376
 30
0.0
  0
POINT
  5
10B3
330
10A9
100
AcDbEntity
  8
Defpoints
 62
     0
100
AcDbPoint
 10
118.3731631095049
 20
1.25
 30
0.0
  0
ENDBLK
  5
10B4
330
10A9
100
AcDbEntity
  8
0
100
AcDbBlockEnd
  0
BLOCK
  5
10BC
330
10BB
100
AcDbEntity
  8
0
100
AcDbBlockBegin
  2
*D9
 70
     1
 10
0.0
 20
0.0
 30
0.0
  3
*D9
  1
*D4
  0
LINE
  5
10BD
330
10BB
100
AcDbEntity
  8
文字
 62
     0
370
    -2
100
AcDbLine
 10
8.677381080260794
 20
16.86050580085481
 30
0.0
 11
1.874999999999996
 21
16.86050580085481
 31
0.0
  0
LINE
  5
10BE
330
10BB
100
AcDbEntity
  8
文字
 62
     0
370
    -2
100
AcDbLine
 10
8.929413356237472
 20
18.86347160231849
 30
0.0
 11
1.874999999999996
 21
18.86347160231849
 31
0.0
  0
LINE
  5
10BF
330
10BB
100
AcDbEntity
  8
文字
 62
     0
370
    -2
100
AcDbLine
 10
3.124999999999996
 20
18.86347160231849
 30
0.0
 11
3.124999999999996
 21
36.8156119933547
 31
0.0
  0
LINE
  5
10C0
330
10BB
100
AcDbEntity
  8
文字
 62
     0
370
    -2
100
AcDbLine
 10
3.124999999999996
 20
16.86050580085481
 30
0.0
 11
3.124999999999996
 21
18.86347160231849
 31
0.0
  0
LINE
  5
10C1
330
10BB
100
AcDbEntity
  8
文字
 62
     0
370
    -2
100
AcDbLine
 10
3.124999999999996
 20
14.36050580085481
 30
0.0
 11
3.124999999999996
 21
11.86050580085481
 31
0.0
  0
LINE
  5
10C2
330
10BB
100
AcDbEntity
  8
文字
 62
     0
370
    -2
100
AcDbLine
 10
3.124999999999996
 20
21.36347160231849
 30
0.0
 11
3.124999999999996
 21
23.86347160231849
 31
0.0
  0
SOLID
  5
10C3
330
10BB
100
AcDbEntity
  8
文字
 62
     0
100
AcDbTrace
 10
3.541666666666663
 20
14.36050580085481
 30
0.0
 11
2.70833333333333
 21
14.36050580085481
 31
0.0
 12
3.124999999999996
 22
16.86050580085481
 32
0.0
 13
3.124999999999996
 23
16.86050580085481
 33
0.0
  0
SOLID
  5
10C4
330
10BB
100
AcDbEntity
  8
文字
 62
     0
100
AcDbTrace
 10
2.70833333333333
 20
21.36347160231849
 30
0.0
 11
3.541666666666663
 21
21.36347160231849
 31
0.0
 12
3.124999999999996
 22
18.86347160231849
 32
0.0
 13
3.124999999999996
 23
18.86347160231849
 33
0.0
  0
MTEXT
  5
10C5
330
10BB
100
AcDbEntity
  8
文字
 62
     0
100
AcDbMText
 10
1.249999999999996
 20
35.35727866002136
 30
0.0
 40
2.5
 41
0.0
 46
0.0
 71
     5
 72
     1
  1
2
 11
0.0
 21
1.0
 31
0.0
 73
     1
 44
1.0
  0
POINT
  5
10C6
330
10BB
100
AcDbEntity
  8
Defpoints
 62
     0
100
AcDbPoint
 10
9.302381080260794
 20
16.86050580085481
 30
0.0
  0
POINT
  5
10C7
330
10BB
100
AcDbEntity
  8
Defpoints
 62
     0
100
AcDbPoint
 10
9.554413356237472
 20
18.86347160231849
 30
0.0
  0
POINT
  5
10C8
330
10BB
100
AcDbEntity
  8
Defpoints
 62
     0
100
AcDbPoint
 10
3.124999999999996
 20
18.86347160231849
 30
0.0
  0
ENDBLK
  5
10C9
330
10BB
100
AcDbEntity
  8
0
100
AcDbBlockEnd
  0
BLOCK
  5
10CE
330
10CD
100
AcDbEntity
  8
0
100
AcDbBlockBegin
  2
*D10
 70
     1
 10
0.0
 20
0.0
 30
0.0
  3
*D10
  1
*D5
  0
LINE
  5
10CF
330
10CD
100
AcDbEntity
  8
文字
 62
     0
370
    -2
100
AcDbLine
 10
74.07622140519429
 20
40.90662797507842
 30
0.0
 11
124.0119367003145
 21
40.90662797507842
 31
0.0
  0
LINE
  5
10D0
330
10CD
100
AcDbEntity
  8
文字
 62
     0
370
    -2
100
AcDbLine
 10
117.0707129034715
 20
16.90815502622266
 30
0.0
 11
124.0119367003145
 21
16.90815502622266
 31
0.0
  0
LINE
  5
10D1
330
10CD
100
AcDbEntity
  8
文字
 62
     0
370
    -2
100
AcDbLine
 10
122.7619367003145
 20
38.40662797507842
 30
0.0
 11
122.7619367003145
 21
19.40815502622266
 31
0.0
  0
SOLID
  5
10D2
330
10CD
100
AcDbEntity
  8
文字
 62
     0
100
AcDbTrace
 10
123.1786033669812
 20
38.40662797507842
 30
0.0
 11
122.3452700336478
 21
38.40662797507842
 31
0.0
 12
122.7619367003145
 22
40.90662797507842
 32
0.0
 13
122.7619367003145
 23
40.90662797507842
 33
0.0
  0
SOLID
  5
10D3
330
10CD
100
AcDbEntity
  8
文字
 62
     0
100
AcDbTrace
 10
122.3452700336478
 20
19.40815502622266
 30
0.0
 11
123.1786033669812
 21
19.40815502622266
 31
0.0
 12
122.7619367003145
 22
16.90815502622266
 32
0.0
 13
122.7619367003145
 23
16.90815502622266
 33
0.0
  0
MTEXT
  5
10D4
330
10CD
100
AcDbEntity
  8
文字
 62
     0
100
AcDbMText
 10
120.8869367003145
 20
28.90739150065054
 30
0.0
 40
2.5
 41
0.0
 46
0.0
 71
     5
 72
     1
  1
24
 11
0.0
 21
1.0
 31
0.0
 73
     1
 44
1.0
  0
POINT
  5
10D5
330
10CD
100
AcDbEntity
  8
Defpoints
 62
     0
100
AcDbPoint
 10
73.45122140519429
 20
40.90662797507842
 30
0.0
  0
POINT
  5
10D6
330
10CD
100
AcDbEntity
  8
Defpoints
 62
     0
100
AcDbPoint
 10
116.4457129034715
 20
16.90815502622266
 30
0.0
  0
POINT
  5
10D7
330
10CD
100
AcDbEntity
  8
Defpoints
 62
     0
100
AcDbPoint
 10
122.7619367003145
 20
16.90815502622266
 30
0.0
  0
ENDBLK
  5
10D8
330
10CD
100
AcDbEntity
  8
0
100
AcDbBlockEnd
  0
BLOCK
  5
10F4
330
10F3
100
AcDbEntity
  8
0
100
AcDbBlockBegin
  2
*D11
 70
     1
 10
0.0
 20
0.0
 30
0.0
  3
*D11
  1
*D12
  0
LINE
  5
10F6
330
10F3
100
AcDbEntity
  8
文字
 62
     0
370
    -2
100
AcDbLine
 10
18.86355863617312
 20
32.88690583674493
 30
0.0
 11
18.86355863617312
 21
16.3335422994211
 31
0.0
  0
LINE
  5
10F7
330
10F3
100
AcDbEntity
  8
文字
 62
     0
370
    -2
100
AcDbLine
 10
128.8635586361731
 20
32.88690583674486
 30
0.0
 11
128.8635586361731
 21
16.3335422994211
 31
0.0
  0
LINE
  5
10F8
330
10F3
100
AcDbEntity
  8
文字
 62
     0
370
    -2
100
AcDbLine
 10
21.36355863617312
 20
17.5835422994211
 30
0.0
 11
126.3635586361731
 21
17.5835422994211
 31
0.0
  0
SOLID
  5
10F9
330
10F3
100
AcDbEntity
  8
文字
 62
     0
100
AcDbTrace
 10
21.36355863617312
 20
18.00020896608777
 30
0.0
 11
21.36355863617312
 21
17.16687563275443
 31
0.0
 12
18.86355863617312
 22
17.5835422994211
 32
0.0
 13
18.86355863617312
 23
17.5835422994211
 33
0.0
  0
SOLID
  5
10FA
330
10F3
100
AcDbEntity
  8
文字
 62
     0
100
AcDbTrace
 10
126.3635586361731
 20
17.16687563275443
 30
0.0
 11
126.3635586361731
 21
18.00020896608777
 31
0.0
 12
128.8635586361731
 22
17.5835422994211
 32
0.0
 13
128.8635586361731
 23
17.5835422994211
 33
0.0
  0
MTEXT
  5
10FB
330
10F3
100
AcDbEntity
  8
文字
 62
     0
100
AcDbMText
 10
73.86355863617311
 20
19.4585422994211
 30
0.0
 40
2.5
 41
0.0
 46
0.0
 71
     5
 72
     1
  1
%%c110
 73
     1
 44
1.0
  0
POINT
  5
10FC
330
10F3
100
AcDbEntity
  8
Defpoints
 62
     0
100
AcDbPoint
 10
18.86355863617312
 20
33.51190583674493
 30
0.0
  0
POINT
  5
10FD
330
10F3
100
AcDbEntity
  8
Defpoints
 62
     0
100
AcDbPoint
 10
128.8635586361731
 20
33.51190583674486
 30
0.0
  0
POINT
  5
10FE
330
10F3
100
AcDbEntity
  8
Defpoints
 62
     0
100
AcDbPoint
 10
128.8635586361731
 20
17.5835422994211
 30
0.0
  0
ENDBLK
  5
10F5
330
10F3
100
AcDbEntity
  8
0
100
AcDbBlockEnd
  0
BLOCK
  5
1100
330
10FF
100
AcDbEntity
  8
0
100
AcDbBlockBegin
  2
*D12
 70
     1
 10
0.0
 20
0.0
 30
0.0
  3
*D12
  1
*D13
  0
LINE
  5
1102
330
10FF
100
AcDbEntity
  8
文字
 62
     0
370
    -2
100
AcDbLine
 10
19.16777660692899
 20
33.19404810027591
 30
0.0
 11
12.36539552666819
 21
33.19404810027591
 31
0.0
  0
LINE
  5
1103
330
10FF
100
AcDbEntity
  8
文字
 62
     0
370
    -2
100
AcDbLine
 10
19.41980888290567
 20
35.19701390173958
 30
0.0
 11
12.36539552666819
 21
35.19701390173958
 31
0.0
  0
LINE
  5
1104
330
10FF
100
AcDbEntity
  8
文字
 62
     0
370
    -2
100
AcDbLine
 10
13.61539552666819
 20
35.19701390173958
 30
0.0
 11
13.61539552666819
 21
53.1491542927758
 31
0.0
  0
LINE
  5
1105
330
10FF
100
AcDbEntity
  8
文字
 62
     0
370
    -2
100
AcDbLine
 10
13.61539552666819
 20
33.19404810027591
 30
0.0
 11
13.61539552666819
 21
35.19701390173958
 31
0.0
  0
LINE
  5
1106
330
10FF
100
AcDbEntity
  8
文字
 62
     0
370
    -2
100
AcDbLine
 10
13.61539552666819
 20
30.69404810027591
 30
0.0
 11
13.61539552666819
 21
28.19404810027591
 31
0.0
  0
LINE
  5
1107
330
10FF
100
AcDbEntity
  8
文字
 62
     0
370
    -2
100
AcDbLine
 10
13.61539552666819
 20
37.69701390173958
 30
0.0
 11
13.61539552666819
 21
40.19701390173958
 31
0.0
  0
SOLID
  5
1108
330
10FF
100
AcDbEntity
  8
文字
 62
     0
100
AcDbTrace
 10
14.03206219333486
 20
30.69404810027591
 30
0.0
 11
13.19872886000153
 21
30.69404810027591
 31
0.0
 12
13.61539552666819
 22
33.19404810027591
 32
0.0
 13
13.61539552666819
 23
33.19404810027591
 33
0.0
  0
SOLID
  5
1109
330
10FF
100
AcDbEntity
  8
文字
 62
     0
100
AcDbTrace
 10
13.19872886000153
 20
37.69701390173958
 30
0.0
 11
14.03206219333486
 21
37.69701390173958
 31
0.0
 12
13.61539552666819
 22
35.19701390173958
 32
0.0
 13
13.61539552666819
 23
35.19701390173958
 33
0.0
  0
MTEXT
  5
110A
330
10FF
100
AcDbEntity
  8
文字
 62
     0
100
AcDbMText
 10
11.74039552666819
 20
51.69082095944246
 30
0.0
 40
2.5
 41
0.0
 46
0.0
 71
     5
 72
     1
  1
2
 11
0.0
 21
1.0
 31
0.0
 73
     1
 44
1.0
  0
POINT
  5
110B
330
10FF
100
AcDbEntity
  8
Defpoints
 62
     0
100
AcDbPoint
 10
19.79277660692899
 20
33.19404810027591
 30
0.0
  0
POINT
  5
110C
330
10FF
100
AcDbEntity
  8
Defpoints
 62
     0
100
AcDbPoint
 10
20.04480888290567
 20
35.19701390173958
 30
0.0
  0
POINT
  5
110D
330
10FF
100
AcDbEntity
  8
Defpoints
 62
     0
100
AcDbPoint
 10
13.61539552666819
 20
35.19701390173958
 30
0.0
  0
ENDBLK
  5
1101
330
10FF
100
AcDbEntity
  8
0
100
AcDbBlockEnd
  0
BLOCK
  5
110F
330
110E
100
AcDbEntity
  8
0
100
AcDbBlockBegin
  2
*D13
 70
     1
 10
0.0
 20
0.0
 30
0.0
  3
*D13
  1
*D14
  0
LINE
  5
1111
330
110E
100
AcDbEntity
  8
文字
 62
     0
370
    -2
100
AcDbLine
 10
84.56661693186248
 20
57.24017027449952
 30
0.0
 11
134.5023322269827
 21
57.24017027449952
 31
0.0
  0
LINE
  5
1112
330
110E
100
AcDbEntity
  8
文字
 62
     0
370
    -2
100
AcDbLine
 10
127.5611084301397
 20
33.24169732564376
 30
0.0
 11
134.5023322269827
 21
33.24169732564376
 31
0.0
  0
LINE
  5
1113
330
110E
100
AcDbEntity
  8
文字
 62
     0
370
    -2
100
AcDbLine
 10
133.2523322269827
 20
54.74017027449952
 30
0.0
 11
133.2523322269827
 21
35.74169732564376
 31
0.0
  0
SOLID
  5
1114
330
110E
100
AcDbEntity
  8
文字
 62
     0
100
AcDbTrace
 10
133.6689988936493
 20
54.74017027449952
 30
0.0
 11
132.835665560316
 21
54.74017027449952
 31
0.0
 12
133.2523322269827
 22
57.24017027449952
 32
0.0
 13
133.2523322269827
 23
57.24017027449952
 33
0.0
  0
SOLID
  5
1115
330
110E
100
AcDbEntity
  8
文字
 62
     0
100
AcDbTrace
 10
132.835665560316
 20
35.74169732564376
 30
0.0
 11
133.6689988936493
 21
35.74169732564376
 31
0.0
 12
133.2523322269827
 22
33.24169732564376
 32
0.0
 13
133.2523322269827
 23
33.24169732564376
 33
0.0
  0
MTEXT
  5
1116
330
110E
100
AcDbEntity
  8
文字
 62
     0
100
AcDbMText
 10
131.3773322269827
 20
45.24093380007164
 30
0.0
 40
2.5
 41
0.0
 46
0.0
 71
     5
 72
     1
  1
24
 11
0.0
 21
1.0
 31
0.0
 73
     1
 44
1.0
  0
POINT
  5
1117
330
110E
100
AcDbEntity
  8
Defpoints
 62
     0
100
AcDbPoint
 10
83.94161693186248
 20
57.24017027449952
 30
0.0
  0
POINT
  5
1118
330
110E
100
AcDbEntity
  8
Defpoints
 62
     0
100
AcDbPoint
 10
126.9361084301397
 20
33.24169732564376
 30
0.0
  0
POINT
  5
1119
330
110E
100
AcDbEntity
  8
Defpoints
 62
     0
100
AcDbPoint
 10
133.2523322269827
 20
33.24169732564376
 30
0.0
  0
ENDBLK
  5
1110
330
110E
100
AcDbEntity
  8
0
100
AcDbBlockEnd
  0
ENDSEC
  0
SECTION
  2
ENTITIES
  0
LINE
  5
A3A
330
21
100
AcDbEntity
  8
中心線
100
AcDbLine
 10
73.80691214302152
 20
27.31891406969919
 30
0.0
 11
73.80691214302152
 21
180.4109113929777
 31
0.0
  0
LWPOLYLINE
  5
AA4
102
{ACAD_REACTORS
330
F2B
102
}
330
21
100
AcDbEntity
  8
実線
100
AcDbPolyline
 90
        4
 70
     0
 43
0.0
 10
94.60691214302153
 20
59.31891406969918
 10
94.60691214302153
 20
72.31891406969919
 10
53.00691214302152
 20
72.31891406969919
 10
53.00691214302152
 20
59.31891406969919
  0
ARC
  5
AA8
330
21
100
AcDbEntity
  8
実線
100
AcDbCircle
 10
58.20691214302153
 20
65.07891406969917
 30
0.0
 40
7.759999999999985
100
AcDbArc
 50
227.9249779491563
 51
312.0750220508438
  0
ARC
  5
AA9
330
21
100
AcDbEntity
  8
実線
100
AcDbCircle
 10
73.80691214302153
 20
85.35891406969925
 30
0.0
 40
28.04000000000006
100
AcDbArc
 50
248.2289458906826
 51
291.7710541093174
  0
ARC
  5
AAA
330
21
100
AcDbEntity
  8
実線
100
AcDbCircle
 10
89.40691214302154
 20
65.07891406969918
 30
0.0
 40
7.759999999999995
100
AcDbArc
 50
227.9249779491563
 51
312.0750220508437
  0
LINE
  5
AAB
330
21
100
AcDbEntity
  8
実線
100
AcDbLine
 10
63.40691214302156
 20
59.31891406969918
 30
0.0
 11
63.40691214302156
 21
72.31891406969919
 31
0.0
  0
LINE
  5
AAC
330
21
100
AcDbEntity
  8
実線
100
AcDbLine
 10
84.20691214302154
 20
59.31891406969919
 30
0.0
 11
84.20691214302154
 21
72.31891406969919
 31
0.0
  0
LWPOLYLINE
  5
AAD
102
{ACAD_REACTORS
330
F2B
102
}
330
21
100
AcDbEntity
  8
実線
100
AcDbPolyline
 90
        2
 70
     0
 43
0.0
 10
58.20691214302153
 20
57.31891406969919
 10
89.40691214302154
 20
57.31891406969919
  0
LWPOLYLINE
  5
AAE
330
21
100
AcDbEntity
  8
実線
100
AcDbPolyline
 90
        4
 70
     1
 43
0.0
 10
73.80691214302152
 20
72.31891406969919
 10
61.80691214302152
 20
72.31891406969919
 10
61.80691214302152
 20
72.31891406969919
 10
73.80691214302152
 20
72.31891406969919
  0
LWPOLYLINE
  5
AAF
330
21
100
AcDbEntity
  8
実線
100
AcDbPolyline
 90
        6
 70
     0
 43
0.0
 10
85.80691214302152
 20
131.5565183767332
 10
85.80691214302152
 20
169.3189140696992
 10
82.80691214302152
 20
172.3189140696992
 10
64.80691214302152
 20
172.3189140696992
 10
61.80691214302152
 20
169.3189140696992
 10
61.80691214302152
 20
117.7001119161822
  0
LINE
  5
AED
102
{ACAD_REACTORS
330
B44
102
}
330
21
100
AcDbEntity
  8
実線
370
    20
100
AcDbLine
 10
61.80691214302152
 20
169.3189140696992
 30
0.0
 11
85.80691214302152
 21
169.3189140696992
 31
0.0
  0
LINE
  5
AEE
330
21
100
AcDbEntity
  8
実線
370
    20
100
AcDbLine
 10
64.80691214302152
 20
172.3189140696992
 30
0.0
 11
64.8069121430215
 21
119.432162723751
 31
0.0
  0
LINE
  5
AEF
102
{ACAD_REACTORS
330
F43
102
}
330
21
100
AcDbEntity
  8
実線
370
    20
100
AcDbLine
 10
82.80691214302152
 20
172.3189140696992
 30
0.0
 11
82.8069121430215
 21
129.8244675691643
 31
0.0
  0
DIMENSION
  5
B2D
102
{ACAD_REACTORS
330
B44
102
}
102
{ACAD_XDICTIONARY
360
B3A
102
}
330
21
100
AcDbEntity
  8
文字
100
AcDbDimension
280
     0
  2
*D0
 10
85.80691214302152
 20
188.3782965772887
 30
0.0
 11
73.80691214302152
 21
190.2532965772887
 31
0.0
 70
    32
  1
{\fArial|b0|i0|c0|p32;M}<>
 71
     5
 42
24.0
 73
     0
 74
     0
 75
     0
  3
ISO-25
100
AcDbAlignedDimension
 13
61.80691214302152
 23
169.3189140696992
 33
0.0
 14
85.80691214302152
 24
169.3189140696992
 34
0.0
100
AcDbRotatedDimension
  0
LWPOLYLINE
  5
B4F
102
{ACAD_REACTORS
330
BB1
102
}
330
21
100
AcDbEntity
  8
実線
100
AcDbPolyline
 90
        6
 70
     1
 43
0.0
 10
224.6627583155611
 20
106.8089210885659
 10
206.6494299168448
 20
117.2089210885659
 10
188.6361015181284
 20
106.8089210885659
 10
188.6361015181284
 20
86.00892108856591
 10
206.6494299168447
 20
75.6089210885659
 10
224.6627583155611
 20
86.00892108856591
  0
CIRCLE
  5
B50
330
21
100
AcDbEntity
  8
実線
100
AcDbCircle
 10
206.6494299168448
 20
96.40892108856602
 30
0.0
 40
12.0
  0
CIRCLE
  5
B51
330
21
100
AcDbEntity
  8
実線
370
    30
100
AcDbCircle
 10
206.6494299168448
 20
96.40892108856602
 30
0.0
 40
9.0
  0
DIMENSION
  5
B9A
102
{ACAD_REACTORS
330
BB1
102
}
102
{ACAD_XDICTIONARY
360
BA7
102
}
330
21
100
AcDbEntity
  8
文字
100
AcDbDimension
280
     0
  2
*D1
 10
224.6627583155611
 20
29.04601649644289
 30
0.0
 11
206.5711065575733
 21
29.04601649644289
 31
0.0
 70
   160
  1
36
 71
     5
 42
36.02665679743271
 73
     0
 74
     0
 75
     0
  3
ISO-25
100
AcDbAlignedDimension
 13
188.6361015181284
 23
86.00892108856591
 33
0.0
 14
224.6627583155611
 24
86.00892108856591
 34
0.0
100
AcDbRotatedDimension
  0
LINE
  5
BBB
330
21
100
AcDbEntity
  8
実線
370
    30
100
AcDbLine
 10
52.81813288639798
 20
110.2010367159259
 30
0.0
 11
95.11950481572794
 21
134.6237451864151
 31
0.0
  0
LINE
  5
BC1
330
21
100
AcDbEntity
  8
実線
370
    30
100
AcDbLine
 10
51.81813288639798
 20
111.9330875234948
 30
0.0
 11
94.11950481572794
 21
136.3557959939839
 31
0.0
  0
LINE
  5
BC2
330
21
100
AcDbEntity
  8
実線
370
    20
100
AcDbLine
 10
82.8069121430215
 20
127.5150664924058
 30
0.0
 11
82.8069121430215
 21
72.31891406969919
 31
0.0
  0
LINE
  5
BC3
330
21
100
AcDbEntity
  8
実線
370
    20
100
AcDbLine
 10
64.8069121430215
 20
117.1227616469925
 30
0.0
 11
64.8069121430215
 21
72.31891406969919
 31
0.0
  0
LWPOLYLINE
  5
BC4
330
21
100
AcDbEntity
  8
実線
100
AcDbPolyline
 90
        4
 70
     0
 43
0.0
 10
61.80691214302152
 20
115.3907108394237
 10
61.80691214302152
 20
72.31891406969919
 10
85.80691214302152
 20
72.31891406969919
 10
85.80691214302152
 20
129.2471172999747
  0
LINE
  5
C0F
330
21
100
AcDbEntity
  8
実線
100
AcDbLine
 10
63.80691214302151
 20
57.31891406969919
 30
0.0
 11
83.8069121430215
 21
57.31891406969919
 31
0.0
  0
LINE
  5
C3E
102
{ACAD_REACTORS
330
FD6
102
}
330
21
100
AcDbEntity
  8
中心線
100
AcDbLine
 10
206.6494299168448
 20
96.40892108856602
 30
0.0
 11
144.7701256790576
 21
96.40892108856602
 31
0.0
  0
LINE
  5
C3F
102
{ACAD_REACTORS
330
FD6
102
}
330
21
100
AcDbEntity
  8
中心線
100
AcDbLine
 10
206.6494299168448
 20
96.40892108856602
 30
0.0
 11
268.0949544900826
 21
96.40892108856602
 31
0.0
  0
LINE
  5
C40
330
21
100
AcDbEntity
  8
中心線
100
AcDbLine
 10
206.6494299168448
 20
96.40892108856602
 30
0.0
 11
206.6494299168448
 21
157.0215736546226
 31
0.0
  0
LINE
  5
C41
330
21
100
AcDbEntity
  8
中心線
100
AcDbLine
 10
206.6494299168448
 20
96.40892108856602
 30
0.0
 11
206.6494299168447
 21
35.41709373972579
 31
0.0
  0
LINE
  5
D36
330
21
100
AcDbEntity
  8
実線
100
AcDbLine
 10
84.3069121430216
 20
57.31891406969913
 30
0.0
 11
63.30691214302149
 21
57.31891406969919
 31
0.0
  0
LINE
  5
D4C
330
21
100
AcDbEntity
  8
実線
370
    30
100
AcDbLine
 10
63.30706041112222
 20
57.31896770406388
 30
0.0
 11
63.30706041112222
 21
57.31896770406388
 31
0.0
  0
DIMENSION
  5
F14
102
{ACAD_REACTORS
330
F2B
102
}
102
{ACAD_XDICTIONARY
360
F21
102
}
330
21
100
AcDbEntity
  8
文字
100
AcDbDimension
280
     0
  2
*D5
 10
133.1176274381417
 20
57.31891406969918
 30
0.0
 11
131.2426274381417
 21
64.81891406969919
 31
0.0
 70
    32
 71
     5
 42
14.99999999999999
 73
     0
 74
     0
 75
     0
  3
ISO-25
100
AcDbAlignedDimension
 13
94.60691214302153
 23
72.31891406969919
 33
0.0
 14
89.40691214302154
 24
57.31891406969919
 34
0.0
 50
90.0
100
AcDbRotatedDimension
  0
DIMENSION
  5
F2C
102
{ACAD_REACTORS
330
F43
102
}
102
{ACAD_XDICTIONARY
360
F39
102
}
330
21
100
AcDbEntity
  8
文字
100
AcDbDimension
280
     0
  2
*D6
 10
133.1176274381418
 20
172.3189140696992
 30
0.0
 11
131.2426274381417
 21
122.3189140696992
 31
0.0
 70
    32
  1
150
 71
     5
 42
100.0
 73
     0
 74
     0
 75
     0
  3
ISO-25
100
AcDbAlignedDimension
 13
95.23191214302153
 23
72.31891406969919
 33
0.0
 14
82.80691214302152
 24
172.3189140696992
 34
0.0
 50
90.0
100
AcDbRotatedDimension
  0
CIRCLE
  5
F9D
102
{ACAD_REACTORS
330
FD6
102
}
330
21
100
AcDbEntity
  8
実線
100
AcDbCircle
 10
206.6494299168448
 20
96.40892108856602
 30
0.0
 40
35.0
  0
CIRCLE
  5
F9E
330
21
100
AcDbEntity
  8
実線
100
AcDbCircle
 10
206.6494299168448
 20
96.40892108856602
 30
0.0
 40
55.0
  0
DIMENSION
  5
FBF
102
{ACAD_REACTORS
330
FD6
102
}
102
{ACAD_XDICTIONARY
360
FCC
102
}
330
21
100
AcDbEntity
  8
文字
100
AcDbDimension
280
     0
  2
*D7
 10
241.6494299168448
 20
18.79689167793808
 30
0.0
 11
206.6494299168448
 21
20.67189167793808
 31
0.0
 70
    32
  1
%%c<>
 71
     5
 42
70.0
 73
     0
 74
     0
 75
     0
  3
ISO-25
100
AcDbAlignedDimension
 13
171.6494299168448
 23
96.40892108856602
 33
0.0
 14
241.6494299168448
 24
96.40892108856602
 34
0.0
100
AcDbRotatedDimension
  0
MTEXT
  5
1075
330
21
100
AcDbEntity
  8
文字・寸法線
 62
     0
100
AcDbMText
 10
45.06094667999854
 20
220.5857418286863
 30
0.0
 40
6.0
 41
0.0
 46
6.0
 71
     9
 72
     1
  1
{\fＭＳ ゴシック|b0|i0|c0|p0;S-G M24X150}
 73
     1
 44
1.0
1001
ACAD
1000
ACAD_MTEXT_DEFINED_HEIGHT_BEGIN
1070
    46
1040
6.0
1000
ACAD_MTEXT_DEFINED_HEIGHT_END
  0
LINE
  5
10E0
330
21
100
AcDbEntity
  8
実線
100
AcDbLine
 10
89.69142901935174
 20
35.12535035564161
 30
0.0
 11
63.44142901934921
 21
35.12535035564166
 31
0.0
  0
LINE
  5
10E1
330
21
100
AcDbEntity
  8
実線
100
AcDbLine
 10
110.9222249668076
 20
35.1253503556416
 30
0.0
 11
128.9414290193492
 21
35.12535035564159
 31
0.0
  0
LINE
  5
10E2
330
21
100
AcDbEntity
  8
実線
100
AcDbLine
 10
36.96063307189087
 20
35.12535035564166
 30
0.0
 11
18.94142901934927
 21
35.12535035564167
 31
0.0
  0
ARC
  5
10E3
330
21
100
AcDbEntity
  8
実線
100
AcDbCircle
 10
74.25744998668875
 20
20.81191537078327
 30
0.0
 40
38.0
100
AcDbArc
 50
106.5365649756556
 51
155.4603227367469
  0
ARC
  5
10E4
330
21
100
AcDbEntity
  8
実線
100
AcDbCircle
 10
73.20360843811723
 20
20.04294835363868
 30
0.0
 40
38.85776825211736
100
AcDbArc
 50
25.75758019451117
 51
73.18940608401107
  0
DIMENSION
  5
10E5
102
{ACAD_XDICTIONARY
360
10E6
102
}
330
21
100
AcDbEntity
  8
文字
100
AcDbDimension
280
     0
  2
*D11
 10
128.8635586361731
 20
17.5835422994211
 30
0.0
 11
73.86355863617311
 21
19.4585422994211
 31
0.0
 70
    32
  1
%%c110
 71
     5
 42
110.0
 73
     0
 74
     0
 75
     0
  3
ISO-25
100
AcDbAlignedDimension
 13
18.86355863617312
 23
33.51190583674493
 33
0.0
 14
128.8635586361731
 24
33.51190583674486
 34
0.0
100
AcDbRotatedDimension
  0
ARC
  5
10E7
330
21
100
AcDbEntity
  8
実線
100
AcDbCircle
 10
110.929519793639
 20
38.17512156869948
 30
0.0
 40
3.0
100
AcDbArc
 50
204.5396772632533
 51
270.0
  0
ARC
  5
10E8
330
21
100
AcDbEntity
  8
実線
100
AcDbCircle
 10
36.96063307189084
 20
38.04075543254046
 30
0.0
 40
3.0
100
AcDbArc
 50
270.0
 51
335.4603227367466
  0
LINE
  5
10E9
330
21
100
AcDbEntity
  8
実線
100
AcDbLine
 10
63.44142901934921
 20
35.12535035564166
 30
0.0
 11
36.96063307189087
 21
35.12535035564166
 31
0.0
  0
LINE
  5
10EA
330
21
100
AcDbEntity
  8
実線
100
AcDbLine
 10
89.69142901935174
 20
35.12535035564161
 30
0.0
 11
110.9222249668076
 21
35.12535035564161
 31
0.0
  0
DIMENSION
  5
10EB
102
{ACAD_XDICTIONARY
360
10EC
102
}
330
21
100
AcDbEntity
  8
文字
100
AcDbDimension
280
     0
  2
*D12
 10
13.61539552666819
 20
35.19701390173958
 30
0.0
 11
13.61539552666819
 21
51.69082095944246
 31
0.0
 70
   160
 71
     5
 42
2.002965801463674
 73
     0
 74
     0
 75
     0
  3
ISO-25
100
AcDbAlignedDimension
 13
19.79277660692899
 23
33.19404810027591
 33
0.0
 14
20.04480888290567
 24
35.19701390173958
 34
0.0
 50
90.0
100
AcDbRotatedDimension
  0
DIMENSION
  5
10ED
102
{ACAD_XDICTIONARY
360
10EE
102
}
330
21
100
AcDbEntity
  8
文字
100
AcDbDimension
280
     0
  2
*D13
 10
133.2523322269827
 20
33.24169732564376
 30
0.0
 11
131.3773322269827
 21
45.24093380007164
 31
0.0
 70
    32
 71
     5
 42
23.99847294885576
 73
     0
 74
     0
 75
     0
  3
ISO-25
100
AcDbAlignedDimension
 13
83.94161693186248
 23
57.24017027449952
 33
0.0
 14
126.9361084301397
 24
33.24169732564376
 34
0.0
 50
90.0
100
AcDbRotatedDimension
  0
LINE
  5
10F0
330
21
100
AcDbEntity
  8
実線
100
AcDbLine
 10
18.95386414591488
 20
33.24353641346825
 30
0.0
 11
128.9997296601397
 21
33.24353641346825
 31
0.0
  0
LINE
  5
10F1
330
21
100
AcDbEntity
  8
実線
100
AcDbLine
 10
128.9999175726529
 20
33.23353817917977
 30
0.0
 11
128.9416169318625
 21
35.1153521213531
 31
0.0
  0
LINE
  5
10F2
330
21
100
AcDbEntity
  8
実線
100
AcDbLine
 10
18.95386414591488
 20
33.24353641346825
 30
0.0
 11
18.95386414591488
 21
34.99029618353532
 31
0.0
  0
ENDSEC
  0
SECTION
  2
OBJECTS
  0
DICTIONARY
  5
C
330
0
100
AcDbDictionary
281
     1
  3
ACAD_COLOR
350
1C
  3
ACAD_DETAILVIEWSTYLE
350
104C
  3
ACAD_GROUP
350
D
  3
ACAD_IMAGE_VARS
350
103E
  3
ACAD_LAYOUT
350
1A
  3
ACAD_MATERIAL
350
1B
  3
ACAD_MLEADERSTYLE
350
1049
  3
ACAD_MLINESTYLE
350
17
  3
ACAD_PLOTSETTINGS
350
19
  3
ACAD_PLOTSTYLENAME
350
E
  3
ACAD_SCALELIST
350
1015
  3
ACAD_SECTIONVIEWSTYLE
350
104D
  3
ACAD_TABLESTYLE
350
103A
  3
ACAD_VISUALSTYLE
350
FFC
  3
AcadDim
350
6E9
  3
ACDB_RECOMPOSE_DATA
350
1125
  3
AcDbVariableDictionary
350
1043
  3
APPDATA
350
103C
  0
SUN
  5
103D
330
FFB
100
AcDbSun
 90
        1
290
     0
 63
     7
421
 16777215
 40
1.0
291
     1
 91
  2455826
 92
 54000000
292
     0
 70
     2
 71
   256
280
     1
  0
DICTIONARY
  5
B3A
330
B2D
100
AcDbDictionary
280
     1
281
     1
  3
ACAD_DIMASSOC
360
B44
  0
DICTIONARY
  5
BA7
330
B9A
100
AcDbDictionary
280
     1
281
     1
  3
ACAD_DIMASSOC
360
BB1
  0
DICTIONARY
  5
F21
330
F14
100
AcDbDictionary
280
     1
281
     1
  3
ACAD_DIMASSOC
360
F2B
  0
DICTIONARY
  5
F39
330
F2C
100
AcDbDictionary
280
     1
281
     1
  3
ACAD_DIMASSOC
360
F43
  0
DICTIONARY
  5
FCC
330
FBF
100
AcDbDictionary
280
     1
281
     1
  3
ACAD_DIMASSOC
360
FD6
  0
DICTIONARY
  5
10E6
330
10E5
100
AcDbDictionary
280
     1
281
     1
  0
DICTIONARY
  5
10EC
330
10EB
100
AcDbDictionary
280
     1
281
     1
  0
DICTIONARY
  5
10EE
330
10ED
100
AcDbDictionary
280
     1
281
     1
  0
DICTIONARY
  5
1C
102
{ACAD_REACTORS
330
C
102
}
330
C
100
AcDbDictionary
281
     1
  0
DICTIONARY
  5
104C
102
{ACAD_REACTORS
330
C
102
}
330
C
100
AcDbDictionary
281
     1
  0
DICTIONARY
  5
D
102
{ACAD_REACTORS
330
C
102
}
330
C
100
AcDbDictionary
281
     1
  0
RASTERVARIABLES
  5
103E
102
{ACAD_REACTORS
330
C
102
}
330
C
100
AcDbRasterVariables
 90
        0
 70
     1
 71
     1
 72
     1
  0
DICTIONARY
  5
1A
102
{ACAD_REACTORS
330
C
102
}
330
C
100
AcDbDictionary
281
     1
  3
Model
350
24
  3
Sheet1
350
1040
  0
DICTIONARY
  5
1B
102
{ACAD_REACTORS
330
C
102
}
330
C
100
AcDbDictionary
281
     1
  3
ByBlock
350
1038
  3
ByLayer
350
1037
  3
Global
350
1039
  0
DICTIONARY
  5
1049
102
{ACAD_REACTORS
330
C
102
}
330
C
100
AcDbDictionary
281
     1
  0
DICTIONARY
  5
17
102
{ACAD_REACTORS
330
C
102
}
330
C
100
AcDbDictionary
281
     1
  3
Standard
350
18
  0
DICTIONARY
  5
19
102
{ACAD_REACTORS
330
C
102
}
330
C
100
AcDbDictionary
281
     1
  0
ACDBDICTIONARYWDFLT
  5
E
102
{ACAD_REACTORS
330
C
102
}
330
C
100
AcDbDictionary
281
     1
  3
Normal
350
F
100
AcDbDictionaryWithDefault
340
F
  0
DICTIONARY
  5
1015
102
{ACAD_REACTORS
330
C
102
}
330
C
100
AcDbDictionary
281
     1
  3
A0
350
1016
  3
A1
350
1017
  3
A2
350
1018
  3
A3
350
1019
  3
A4
350
101A
  3
A5
350
101B
  3
A6
350
101C
  3
A7
350
101D
  3
A8
350
101E
  3
A9
350
101F
  3
B0
350
1020
  3
B1
350
1021
  3
B2
350
1022
  3
B3
350
1023
  3
B4
350
1024
  3
B5
350
1025
  3
B6
350
1026
  3
B7
350
1027
  3
B8
350
1028
  3
B9
350
1029
  3
C0
350
102A
  3
C1
350
102B
  3
C2
350
102C
  3
C3
350
102D
  3
C4
350
102E
  3
C5
350
102F
  3
C6
350
1030
  3
C7
350
1031
  3
C8
350
1032
  3
C9
350
1033
  3
D0
350
1034
  3
D1
350
1035
  3
D2
350
1036
  0
DICTIONARY
  5
104D
102
{ACAD_REACTORS
330
C
102
}
330
C
100
AcDbDictionary
281
     1
  0
DICTIONARY
  5
103A
102
{ACAD_REACTORS
330
C
102
}
330
C
100
AcDbDictionary
281
     1
  3
Standard
350
103B
  0
DICTIONARY
  5
FFC
102
{ACAD_REACTORS
330
C
102
}
330
C
100
AcDbDictionary
281
     1
  3
2dWireframe
350
1001
  3
Basic
350
1004
  3
Brighten
350
1008
  3
ColorChange
350
100C
  3
Conceptual
350
1006
  3
Dim
350
1007
  3
EdgeColorOff
350
100F
  3
Facepattern
350
100B
  3
Flat
350
FFD
  3
FlatWithEdges
350
FFE
  3
Gouraud
350
FFF
  3
GouraudWithEdges
350
1000
  3
Hidden
350
1003
  3
JitterOff
350
100D
  3
Linepattern
350
100A
  3
OverhangOff
350
100E
  3
Realistic
350
1005
  3
Shaded
350
1014
  3
Shaded with edges
350
1013
  3
Shades of Gray
350
1010
  3
Sketchy
350
1011
  3
Thicken
350
1009
  3
Wireframe
350
1002
  3
X-Ray
350
1012
  0
XRECORD
  5
6E9
102
{ACAD_REACTORS
330
C
102
}
330
C
100
AcDbXrecord
280
     1
 90
   990106
  3

 60
     0
 61
     0
 62
     1
 63
     3
 64
     1
 65
     0
 66
     0
 67
     3
 68
     1
 69
     0
 70
     0
 71
     0
 72
     0
 40
0.0
170
     2
340
0
  0
XRECORD
  5
1125
102
{ACAD_REACTORS
330
C
102
}
330
C
100
AcDbXrecord
280
     1
 90
        1
330
103B
  0
DICTIONARY
  5
1043
102
{ACAD_REACTORS
330
C
102
}
330
C
100
AcDbDictionary
281
     1
  3
CANNOSCALE
350
1044
  3
CTABLESTYLE
350
1048
  3
MSLTSCALE
350
104A
  3
XCLIPFRAME
350
104B
  0
DICTIONARY
  5
103C
102
{ACAD_REACTORS
330
C
102
}
330
C
100
AcDbDictionary
281
     1
  0
DIMASSOC
  5
B44
102
{ACAD_REACTORS
330
B3A
102
}
330
B3A
100
AcDbDimAssoc
330
B2D
 90
        3
 70
     0
 71
     0
  1
AcDbOsnapPointRef
 72
    13
331
AED
 73
     2
 91
        0
 40
0.0
 10
0.0
 20
0.0
 30
2.000000000000000E+50
 75
     0
  1
AcDbOsnapPointRef
 72
     1
331
AED
 73
     2
 91
        0
 40
1.0
 10
0.0
 20
0.0
 30
2.000000000000000E+50
 75
     0
  0
DIMASSOC
  5
BB1
102
{ACAD_REACTORS
330
BA7
102
}
330
BA7
100
AcDbDimAssoc
330
B9A
 90
        3
 70
     0
 71
     0
  1
AcDbOsnapPointRef
 72
     1
331
B4F
 73
     2
 91
        3
 40
1.0
 10
0.0
 20
0.0
 30
2.000000000000000E+50
 75
     0
  1
AcDbOsnapPointRef
 72
     1
331
B4F
 73
     2
 91
        5
 40
1.0
 10
0.0
 20
0.0
 30
2.000000000000000E+50
 75
     0
  0
DIMASSOC
  5
F2B
102
{ACAD_REACTORS
330
F21
102
}
330
F21
100
AcDbDimAssoc
330
F14
 90
        3
 70
     0
 71
     0
  1
AcDbOsnapPointRef
 72
     1
331
AA4
 73
     2
 91
        1
 40
1.0
 10
0.0
 20
0.0
 30
2.000000000000000E+50
 75
     0
  1
AcDbOsnapPointRef
 72
     1
331
AAD
 73
     2
 91
        1
 40
1.0
 10
0.0
 20
0.0
 30
2.000000000000000E+50
 75
     0
  0
DIMASSOC
  5
F43
102
{ACAD_REACTORS
330
F39
102
}
330
F39
100
AcDbDimAssoc
330
F2C
 90
        2
 70
     0
 71
     0
  1
AcDbOsnapPointRef
 72
    13
331
AEF
 73
     2
 91
        0
 40
0.0
 10
0.0
 20
0.0
 30
2.000000000000000E+50
 75
     0
  0
DIMASSOC
  5
FD6
102
{ACAD_REACTORS
330
FCC
102
}
330
FCC
100
AcDbDimAssoc
330
FBF
 90
        3
 70
     0
 71
     0
  1
AcDbOsnapPointRef
 72
     6
331
C3E
 73
     2
 91
        0
 40
0.5656172193776368
 10
0.0
 20
0.0
 30
0.0
332
F9D
 74
     2
 92
        0
 75
     0
  1
AcDbOsnapPointRef
 72
     6
331
C3F
 73
     2
 91
        0
 40
0.5696102400148442
 10
0.0
 20
0.0
 30
0.0
332
F9D
 74
     2
 92
        0
 75
     0
  0
LAYOUT
  5
24
102
{ACAD_REACTORS
330
1A
102
}
330
1A
100
AcDbPlotSettings
  1

  2
\\SF05\Brother HL-1440 series
  4
A4
  6

 40
6.72041654586792
 41
5.027085304260254
 42
6.889755249023438
 43
5.027069091796875
 44
209.9733276367188
 45
296.9259948730469
 46
-6.82
 47
-5.06
 48
0.0
 49
0.0
140
297.0000000000001
141
210.0
142
1.0
143
1.0
 70
 11956
 72
     1
 73
     1
 74
     4
  7

 75
    16
 76
     1
 77
     2
 78
   300
147
1.0
148
0.0
149
0.0
100
AcDbLayout
  1
Model
 70
     1
 71
     0
 10
0.0
 20
0.0
 11
12.0
 21
9.0
 12
0.0
 22
0.0
 32
0.0
 14
2.772946679998533
 24
16.3335422994211
 34
0.0
 15
268.0949544900826
 25
226.5857418286863
 35
0.0
146
0.0
 13
0.0
 23
0.0
 33
0.0
 16
1.0
 26
0.0
 36
0.0
 17
0.0
 27
1.0
 37
0.0
 76
     0
330
21
331
FFB
  0
LAYOUT
  5
1040
102
{ACAD_REACTORS
330
1A
102
}
330
1A
100
AcDbPlotSettings
  1

  2
none_device
  4

  6

 40
0.0
 41
0.0
 42
0.0
 43
0.0
 44
0.0
 45
0.0
 46
0.0
 47
0.0
 48
0.0
 49
0.0
140
0.0
141
0.0
142
1.0
143
1.0
 70
   688
 72
     1
 73
     0
 74
     5
  7

 75
    16
 76
     0
 77
     2
 78
   300
147
1.0
148
0.0
149
0.0
100
AcDbLayout
  1
Sheet1
 70
     1
 71
     1
 10
0.0
 20
0.0
 11
0.0
 21
0.0
 12
0.0
 22
0.0
 32
0.0
 14
0.0
 24
0.0
 34
0.0
 15
0.0
 25
0.0
 35
0.0
146
0.0
 13
0.0
 23
0.0
 33
0.0
 16
1.0
 26
0.0
 36
0.0
 17
0.0
 27
1.0
 37
0.0
 76
     0
330
103F
  0
MATERIAL
  5
1038
102
{ACAD_REACTORS
330
1B
102
}
330
1B
100
AcDbMaterial
  1
ByBlock
 72
     1
 94
      127
  0
MATERIAL
  5
1037
102
{ACAD_REACTORS
330
1B
102
}
330
1B
100
AcDbMaterial
  1
ByLayer
 72
     1
 94
      127
  0
MATERIAL
  5
1039
102
{ACAD_REACTORS
330
1B
102
}
330
1B
100
AcDbMaterial
  1
Global
 72
     1
 94
      127
  0
MLINESTYLE
  5
18
102
{ACAD_REACTORS
330
17
102
}
330
17
100
AcDbMlineStyle
  2
STANDARD
 70
     0
  3

 62
   256
 51
90.0
 52
90.0
 71
     2
 49
0.5
 62
   256
  6
BYLAYER
 49
-0.5
 62
   256
  6
BYLAYER
  0
ACDBPLACEHOLDER
  5
F
102
{ACAD_REACTORS
330
E
102
}
330
E
  0
SCALE
  5
1016
102
{ACAD_REACTORS
330
1015
102
}
330
1015
100
AcDbScale
 70
     0
300
1:1
140
1.0
141
1.0
290
     1
  0
SCALE
  5
1017
102
{ACAD_REACTORS
330
1015
102
}
330
1015
100
AcDbScale
 70
     0
300
1:2
140
1.0
141
2.0
290
     0
  0
SCALE
  5
1018
102
{ACAD_REACTORS
330
1015
102
}
330
1015
100
AcDbScale
 70
     0
300
1:4
140
1.0
141
4.0
290
     0
  0
SCALE
  5
1019
102
{ACAD_REACTORS
330
1015
102
}
330
1015
100
AcDbScale
 70
     0
300
1:5
140
1.0
141
5.0
290
     0
  0
SCALE
  5
101A
102
{ACAD_REACTORS
330
1015
102
}
330
1015
100
AcDbScale
 70
     0
300
1:8
140
1.0
141
8.0
290
     0
  0
SCALE
  5
101B
102
{ACAD_REACTORS
330
1015
102
}
330
1015
100
AcDbScale
 70
     0
300
1:10
140
1.0
141
10.0
290
     0
  0
SCALE
  5
101C
102
{ACAD_REACTORS
330
1015
102
}
330
1015
100
AcDbScale
 70
     0
300
1:16
140
1.0
141
16.0
290
     0
  0
SCALE
  5
101D
102
{ACAD_REACTORS
330
1015
102
}
330
1015
100
AcDbScale
 70
     0
300
1:20
140
1.0
141
20.0
290
     0
  0
SCALE
  5
101E
102
{ACAD_REACTORS
330
1015
102
}
330
1015
100
AcDbScale
 70
     0
300
1:30
140
1.0
141
30.0
290
     0
  0
SCALE
  5
101F
102
{ACAD_REACTORS
330
1015
102
}
330
1015
100
AcDbScale
 70
     0
300
1:40
140
1.0
141
40.0
290
     0
  0
SCALE
  5
1020
102
{ACAD_REACTORS
330
1015
102
}
330
1015
100
AcDbScale
 70
     0
300
1:50
140
1.0
141
50.0
290
     0
  0
SCALE
  5
1021
102
{ACAD_REACTORS
330
1015
102
}
330
1015
100
AcDbScale
 70
     0
300
1:100
140
1.0
141
100.0
290
     0
  0
SCALE
  5
1022
102
{ACAD_REACTORS
330
1015
102
}
330
1015
100
AcDbScale
 70
     0
300
2:1
140
2.0
141
1.0
290
     0
  0
SCALE
  5
1023
102
{ACAD_REACTORS
330
1015
102
}
330
1015
100
AcDbScale
 70
     0
300
4:1
140
4.0
141
1.0
290
     0
  0
SCALE
  5
1024
102
{ACAD_REACTORS
330
1015
102
}
330
1015
100
AcDbScale
 70
     0
300
8:1
140
8.0
141
1.0
290
     0
  0
SCALE
  5
1025
102
{ACAD_REACTORS
330
1015
102
}
330
1015
100
AcDbScale
 70
     0
300
10:1
140
10.0
141
1.0
290
     0
  0
SCALE
  5
1026
102
{ACAD_REACTORS
330
1015
102
}
330
1015
100
AcDbScale
 70
     0
300
100:1
140
100.0
141
1.0
290
     0
  0
SCALE
  5
1027
102
{ACAD_REACTORS
330
1015
102
}
330
1015
100
AcDbScale
 70
     0
300
1/128" = 1'-0"
140
0.0078125
141
12.0
290
     0
  0
SCALE
  5
1028
102
{ACAD_REACTORS
330
1015
102
}
330
1015
100
AcDbScale
 70
     0
300
1/64" = 1'-0"
140
0.015625
141
12.0
290
     0
  0
SCALE
  5
1029
102
{ACAD_REACTORS
330
1015
102
}
330
1015
100
AcDbScale
 70
     0
300
1/32" = 1'-0"
140
0.03125
141
12.0
290
     0
  0
SCALE
  5
102A
102
{ACAD_REACTORS
330
1015
102
}
330
1015
100
AcDbScale
 70
     0
300
1/16" = 1'-0"
140
0.0625
141
12.0
290
     0
  0
SCALE
  5
102B
102
{ACAD_REACTORS
330
1015
102
}
330
1015
100
AcDbScale
 70
     0
300
3/32" = 1'-0"
140
0.09375
141
12.0
290
     0
  0
SCALE
  5
102C
102
{ACAD_REACTORS
330
1015
102
}
330
1015
100
AcDbScale
 70
     0
300
1/8" = 1'-0"
140
0.125
141
12.0
290
     0
  0
SCALE
  5
102D
102
{ACAD_REACTORS
330
1015
102
}
330
1015
100
AcDbScale
 70
     0
300
3/16" = 1'-0"
140
0.1875
141
12.0
290
     0
  0
SCALE
  5
102E
102
{ACAD_REACTORS
330
1015
102
}
330
1015
100
AcDbScale
 70
     0
300
1/4" = 1'-0"
140
0.25
141
12.0
290
     0
  0
SCALE
  5
102F
102
{ACAD_REACTORS
330
1015
102
}
330
1015
100
AcDbScale
 70
     0
300
3/8" = 1'-0"
140
0.375
141
12.0
290
     0
  0
SCALE
  5
1030
102
{ACAD_REACTORS
330
1015
102
}
330
1015
100
AcDbScale
 70
     0
300
1/2" = 1'-0"
140
0.5
141
12.0
290
     0
  0
SCALE
  5
1031
102
{ACAD_REACTORS
330
1015
102
}
330
1015
100
AcDbScale
 70
     0
300
3/4" = 1'-0"
140
0.75
141
12.0
290
     0
  0
SCALE
  5
1032
102
{ACAD_REACTORS
330
1015
102
}
330
1015
100
AcDbScale
 70
     0
300
1" = 1'-0"
140
1.0
141
12.0
290
     0
  0
SCALE
  5
1033
102
{ACAD_REACTORS
330
1015
102
}
330
1015
100
AcDbScale
 70
     0
300
1-1/2" = 1'-0"
140
1.5
141
12.0
290
     0
  0
SCALE
  5
1034
102
{ACAD_REACTORS
330
1015
102
}
330
1015
100
AcDbScale
 70
     0
300
3" = 1'-0"
140
3.0
141
12.0
290
     0
  0
SCALE
  5
1035
102
{ACAD_REACTORS
330
1015
102
}
330
1015
100
AcDbScale
 70
     0
300
6" = 1'-0"
140
6.0
141
12.0
290
     0
  0
SCALE
  5
1036
102
{ACAD_REACTORS
330
1015
102
}
330
1015
100
AcDbScale
 70
     0
300
1'-0" = 1'-0"
140
12.0
141
12.0
290
     0
  0
TABLESTYLE
  5
103B
102
{ACAD_REACTORS
330
103A
102
}
102
{ACAD_XDICTIONARY
360
1123
102
}
330
103A
100
AcDbTableStyle
  3
Standard
 70
     0
 71
     0
 40
0.06
 41
0.06
280
     0
281
     0
  7
Standard
140
4.5
170
     2
 62
     0
 63
   257
283
     0
 90
        4
 91
        0
  1

274
    -2
284
     1
 64
     0
275
    -2
285
     1
 65
     0
276
    -2
286
     1
 66
     0
277
    -2
287
     1
 67
     0
278
    -2
288
     1
 68
     0
279
    -2
289
     1
 69
     0
  7
Standard
140
6.0
170
     5
 62
     0
 63
   257
283
     0
 90
        4
 91
        0
  1

274
    -2
284
     1
 64
     0
275
    -2
285
     1
 65
     0
276
    -2
286
     1
 66
     0
277
    -2
287
     1
 67
     0
278
    -2
288
     1
 68
     0
279
    -2
289
     1
 69
     0
  7
Standard
140
4.5
170
     5
 62
     0
 63
   257
283
     0
 90
        4
 91
        0
  1

274
    -2
284
     1
 64
     0
275
    -2
285
     1
 65
     0
276
    -2
286
     1
 66
     0
277
    -2
287
     1
 67
     0
278
    -2
288
     1
 68
     0
279
    -2
289
     1
 69
     0
  0
VISUALSTYLE
  5
1001
102
{ACAD_REACTORS
330
FFC
102
}
330
FFC
100
AcDbVisualStyle
  2
2dWireframe
 70
     4
177
     3
291
     0
 70
    58
 90
        0
176
     1
 90
        2
176
     1
 90
        0
176
     1
 90
        0
176
     1
 40
0.6
176
     1
 40
30.0
176
     1
 62
     7
420
 16777215
176
     1
 90
        1
176
     1
 90
        4
176
     1
 62
     7
176
     1
 62
   257
176
     1
 90
        1
176
     1
 90
        1
176
     1
 40
1.0
176
     1
 90
        0
176
     1
 62
   257
176
     1
 40
1.0
176
     1
 90
        1
176
     1
 90
        6
176
     1
 90
        2
176
     1
 62
     7
176
     1
 90
        5
176
     1
 90
        0
176
     1
 90
        0
176
     1
290
     0
176
     1
 90
        1
176
     1
 40
0.0
176
     1
 90
        0
176
     1
290
     1
176
     1
290
     1
176
     1
290
     0
176
     1
290
     0
176
     1
290
     0
176
     1
290
     0
176
     1
290
     0
176
     1
290
     0
176
     1
290
     0
176
     1
 90
       50
176
     1
 40
0.0
176
     1
 40
1.0
176
     1
 90
        0
176
     1
 62
    18
420
        0
176
     1
 90
       50
176
     1
 90
        3
176
     1
 62
     5
420
      255
176
     1
290
     0
176
     1
 90
       50
176
     1
 90
       50
176
     1
 90
       50
176
     1
290
     0
176
     1
 90
       50
176
     1
 62
   256
176
     0
 40
1.0
176
     0
 90
        2
176
     1
  1
strokes_ogs.tif
176
     1
290
     0
176
     1
 40
1.0
176
     1
 40
1.0
176
     1
  0
VISUALSTYLE
  5
1004
102
{ACAD_REACTORS
330
FFC
102
}
330
FFC
100
AcDbVisualStyle
  2
Basic
 70
     7
177
     3
291
     1
 70
    58
 90
        1
176
     1
 90
        0
176
     1
 90
        1
176
     1
 90
        0
176
     1
 40
0.6
176
     1
 40
30.0
176
     1
 62
     7
420
 16777215
176
     1
 90
        0
176
     1
 90
        4
176
     1
 62
     7
176
     1
 62
   257
176
     1
 90
        1
176
     1
 90
        1
176
     1
 40
1.0
176
     1
 90
        8
176
     1
 62
     7
176
     1
 40
1.0
176
     1
 90
        1
176
     1
 90
        6
176
     1
 90
        2
176
     1
 62
     7
176
     1
 90
        5
176
     1
 90
        0
176
     1
 90
        0
176
     1
290
     0
176
     1
 90
        1
176
     1
 40
0.0
176
     1
 90
        0
176
     1
290
     0
176
     1
290
     1
176
     1
290
     1
176
     1
290
     0
176
     1
290
     0
176
     1
290
     0
176
     1
290
     0
176
     1
290
     0
176
     1
290
     0
176
     1
 90
       50
176
     1
 40
0.0
176
     1
 40
1.0
176
     1
 90
        0
176
     1
 62
    18
420
        0
176
     1
 90
       50
176
     1
 90
        3
176
     1
 62
     5
420
      255
176
     1
290
     0
176
     1
 90
       50
176
     1
 90
       50
176
     1
 90
       50
176
     1
290
     0
176
     1
 90
       50
176
     1
 62
   256
176
     0
 40
1.0
176
     0
 90
        2
176
     1
  1
strokes_ogs.tif
176
     1
290
     0
176
     1
 40
1.0
176
     1
 40
1.0
176
     1
  0
VISUALSTYLE
  5
1008
102
{ACAD_REACTORS
330
FFC
102
}
330
FFC
100
AcDbVisualStyle
  2
Brighten
 70
    12
177
     3
291
     1
 70
    58
 90
        2
176
     1
 90
        2
176
     1
 90
        0
176
     1
 90
        0
176
     1
 40
0.6
176
     1
 40
30.0
176
     1
 62
     7
420
 16777215
176
     1
 90
        1
176
     1
 90
        4
176
     1
 62
     7
176
     1
 62
   257
176
     1
 90
        1
176
     1
 90
        1
176
     1
 40
1.0
176
     1
 90
        8
176
     1
 62
     7
176
     1
 40
1.0
176
     1
 90
        1
176
     1
 90
        6
176
     1
 90
        2
176
     1
 62
     7
176
     1
 90
        5
176
     1
 90
        0
176
     1
 90
        0
176
     1
290
     0
176
     1
 90
        1
176
     1
 40
50.0
176
     1
 90
        0
176
     1
290
     0
176
     1
290
     1
176
     1
290
     1
176
     1
290
     0
176
     1
290
     0
176
     1
290
     0
176
     1
290
     0
176
     1
290
     0
176
     1
290
     0
176
     1
 90
       50
176
     1
 40
0.0
176
     1
 40
1.0
176
     1
 90
        0
176
     1
 62
    18
420
        0
176
     1
 90
       50
176
     1
 90
        3
176
     1
 62
     5
420
      255
176
     1
290
     0
176
     1
 90
       50
176
     1
 90
       50
176
     1
 90
       50
176
     1
290
     0
176
     1
 90
       50
176
     1
 62
   256
176
     0
 40
1.0
176
     0
 90
        2
176
     1
  1
strokes_ogs.tif
176
     1
290
     0
176
     1
 40
1.0
176
     1
 40
1.0
176
     1
  0
VISUALSTYLE
  5
100C
102
{ACAD_REACTORS
330
FFC
102
}
330
FFC
100
AcDbVisualStyle
  2
ColorChange
 70
    16
177
     3
291
     1
 70
    58
 90
        2
176
     1
 90
        2
176
     1
 90
        3
176
     1
 90
        0
176
     1
 40
0.6
176
     1
 40
30.0
176
     1
 62
     8
420
  8421504
176
     1
 90
        1
176
     1
 90
        4
176
     1
 62
     7
176
     1
 62
   257
176
     1
 90
        1
176
     1
 90
        1
176
     1
 40
1.0
176
     1
 90
        8
176
     1
 62
     8
420
  8421504
176
     1
 40
1.0
176
     1
 90
        1
176
     1
 90
        6
176
     1
 90
        2
176
     1
 62
     7
176
     1
 90
        5
176
     1
 90
        0
176
     1
 90
        0
176
     1
290
     0
176
     1
 90
        1
176
     1
 40
0.0
176
     1
 90
        0
176
     1
290
     0
176
     1
290
     1
176
     1
290
     1
176
     1
290
     0
176
     1
290
     0
176
     1
290
     0
176
     1
290
     0
176
     1
290
     0
176
     1
290
     0
176
     1
 90
       50
176
     1
 40
0.0
176
     1
 40
1.0
176
     1
 90
        0
176
     1
 62
    18
420
        0
176
     1
 90
       50
176
     1
 90
        3
176
     1
 62
     5
420
      255
176
     1
290
     0
176
     1
 90
       50
176
     1
 90
       50
176
     1
 90
       50
176
     1
290
     0
176
     1
 90
       50
176
     1
 62
   256
176
     0
 40
1.0
176
     0
 90
        2
176
     1
  1
strokes_ogs.tif
176
     1
290
     0
176
     1
 40
1.0
176
     1
 40
1.0
176
     1
  0
VISUALSTYLE
  5
1006
102
{ACAD_REACTORS
330
FFC
102
}
330
FFC
100
AcDbVisualStyle
  2
Conceptual
 70
     9
177
     3
291
     0
 70
    58
 90
        3
176
     1
 90
        2
176
     1
 90
        0
176
     1
 90
        0
176
     1
 40
0.6
176
     1
 40
30.0
176
     1
 62
     7
420
 16777215
176
     1
 90
        2
176
     1
 90
        2
176
     1
 62
     7
176
     1
 62
   257
176
     1
 90
        1
176
     1
 90
        1
176
     1
 40
179.0
176
     1
 90
        8
176
     1
 62
     7
176
     1
 40
1.0
176
     1
 90
        1
176
     1
 90
        6
176
     1
 90
        2
176
     1
 62
     7
176
     1
 90
        3
176
     1
 90
        0
176
     1
 90
        0
176
     1
290
     0
176
     1
 90
        1
176
     1
 40
0.0
176
     1
 90
        0
176
     1
290
     0
176
     1
290
     1
176
     1
290
     1
176
     1
290
     0
176
     1
290
     0
176
     1
290
     0
176
     1
290
     0
176
     1
290
     0
176
     1
290
     0
176
     1
 90
       50
176
     1
 40
0.0
176
     1
 40
1.0
176
     1
 90
        0
176
     1
 62
    18
420
        0
176
     1
 90
       50
176
     1
 90
        3
176
     1
 62
     5
420
      255
176
     1
290
     0
176
     1
 90
       50
176
     1
 90
       50
176
     1
 90
       50
176
     1
290
     0
176
     1
 90
       50
176
     1
 62
   256
176
     0
 40
1.0
176
     0
 90
        2
176
     1
  1
strokes_ogs.tif
176
     1
290
     0
176
     1
 40
1.0
176
     1
 40
1.0
176
     1
  0
VISUALSTYLE
  5
1007
102
{ACAD_REACTORS
330
FFC
102
}
330
FFC
100
AcDbVisualStyle
  2
Dim
 70
    11
177
     3
291
     1
 70
    58
 90
        2
176
     1
 90
        2
176
     1
 90
        0
176
     1
 90
        0
176
     1
 40
0.6
176
     1
 40
30.0
176
     1
 62
     7
420
 16777215
176
     1
 90
        1
176
     1
 90
        4
176
     1
 62
     7
176
     1
 62
   257
176
     1
 90
        1
176
     1
 90
        1
176
     1
 40
1.0
176
     1
 90
        8
176
     1
 62
     7
176
     1
 40
1.0
176
     1
 90
        1
176
     1
 90
        6
176
     1
 90
        2
176
     1
 62
     7
176
     1
 90
        5
176
     1
 90
        0
176
     1
 90
        0
176
     1
290
     0
176
     1
 90
        1
176
     1
 40
-50.0
176
     1
 90
        0
176
     1
290
     0
176
     1
290
     1
176
     1
290
     1
176
     1
290
     0
176
     1
290
     0
176
     1
290
     0
176
     1
290
     0
176
     1
290
     0
176
     1
290
     0
176
     1
 90
       50
176
     1
 40
0.0
176
     1
 40
1.0
176
     1
 90
        0
176
     1
 62
    18
420
        0
176
     1
 90
       50
176
     1
 90
        3
176
     1
 62
     5
420
      255
176
     1
290
     0
176
     1
 90
       50
176
     1
 90
       50
176
     1
 90
       50
176
     1
290
     0
176
     1
 90
       50
176
     1
 62
   256
176
     0
 40
1.0
176
     0
 90
        2
176
     1
  1
strokes_ogs.tif
176
     1
290
     0
176
     1
 40
1.0
176
     1
 40
1.0
176
     1
  0
VISUALSTYLE
  5
100F
102
{ACAD_REACTORS
330
FFC
102
}
330
FFC
100
AcDbVisualStyle
  2
EdgeColorOff
 70
    22
177
     3
291
     1
 70
    58
 90
        2
176
     0
 90
        2
176
     0
 90
        0
176
     0
 90
        0
176
     0
 40
0.6
176
     0
 40
30.0
176
     0
 62
     7
420
 16777215
176
     0
 90
        1
176
     0
 90
        4
176
     0
 62
     7
176
     0
 62
   257
176
     0
 90
        1
176
     0
 90
        1
176
     0
 40
1.0
176
     0
 90
        8
176
     2
 62
     7
176
     0
 40
1.0
176
     0
 90
        1
176
     0
 90
        6
176
     0
 90
        2
176
     0
 62
     7
176
     0
 90
        5
176
     0
 90
        0
176
     0
 90
        0
176
     0
290
     0
176
     0
 90
        1
176
     0
 40
0.0
176
     0
 90
        0
176
     0
290
     0
176
     0
290
     1
176
     0
290
     1
176
     0
290
     0
176
     0
290
     0
176
     0
290
     0
176
     0
290
     0
176
     0
290
     0
176
     0
290
     0
176
     0
 90
       50
176
     0
 40
0.0
176
     0
 40
1.0
176
     0
 90
        0
176
     0
 62
    18
420
        0
176
     0
 90
       50
176
     0
 90
        3
176
     0
 62
     5
420
      255
176
     0
290
     0
176
     0
 90
       50
176
     0
 90
       50
176
     0
 90
       50
176
     0
290
     0
176
     0
 90
       50
176
     0
 62
   256
176
     0
 40
1.0
176
     0
 90
        2
176
     0
  1
strokes_ogs.tif
176
     0
290
     0
176
     0
 40
1.0
176
     0
 40
1.0
176
     0
  0
VISUALSTYLE
  5
100B
102
{ACAD_REACTORS
330
FFC
102
}
330
FFC
100
AcDbVisualStyle
  2
Facepattern
 70
    15
177
     3
291
     1
 70
    58
 90
        2
176
     1
 90
        2
176
     1
 90
        0
176
     1
 90
        0
176
     1
 40
0.6
176
     1
 40
30.0
176
     1
 62
     7
420
 16777215
176
     1
 90
        1
176
     1
 90
        4
176
     1
 62
     7
176
     1
 62
   257
176
     1
 90
        1
176
     1
 90
        1
176
     1
 40
1.0
176
     1
 90
        8
176
     1
 62
     7
176
     1
 40
1.0
176
     1
 90
        1
176
     1
 90
        6
176
     1
 90
        2
176
     1
 62
     7
176
     1
 90
        5
176
     1
 90
        0
176
     1
 90
        0
176
     1
290
     0
176
     1
 90
        1
176
     1
 40
0.0
176
     1
 90
        0
176
     1
290
     0
176
     1
290
     1
176
     1
290
     1
176
     1
290
     0
176
     1
290
     0
176
     1
290
     0
176
     1
290
     0
176
     1
290
     0
176
     1
290
     0
176
     1
 90
       50
176
     1
 40
0.0
176
     1
 40
1.0
176
     1
 90
        0
176
     1
 62
    18
420
        0
176
     1
 90
       50
176
     1
 90
        3
176
     1
 62
     5
420
      255
176
     1
290
     0
176
     1
 90
       50
176
     1
 90
       50
176
     1
 90
       50
176
     1
290
     0
176
     1
 90
       50
176
     1
 62
   256
176
     0
 40
1.0
176
     0
 90
        2
176
     1
  1
strokes_ogs.tif
176
     1
290
     0
176
     1
 40
1.0
176
     1
 40
1.0
176
     1
  0
VISUALSTYLE
  5
FFD
102
{ACAD_REACTORS
330
FFC
102
}
330
FFC
100
AcDbVisualStyle
  2
Flat
 70
     0
177
     3
291
     1
 70
    58
 90
        2
176
     1
 90
        1
176
     1
 90
        1
176
     1
 90
        2
176
     1
 40
0.6
176
     1
 40
30.0
176
     1
 62
     7
420
 16777215
176
     1
 90
        0
176
     1
 90
        0
176
     1
 62
     7
176
     1
 62
   257
176
     1
 90
        1
176
     1
 90
        1
176
     1
 40
1.0
176
     1
 90
        8
176
     1
 62
     7
176
     1
 40
1.0
176
     1
 90
        1
176
     1
 90
        6
176
     1
 90
        2
176
     1
 62
     7
176
     1
 90
        5
176
     1
 90
        0
176
     1
 90
        0
176
     1
290
     0
176
     1
 90
       13
176
     1
 40
0.0
176
     1
 90
        0
176
     1
290
     0
176
     1
290
     1
176
     1
290
     1
176
     1
290
     0
176
     1
290
     0
176
     1
290
     0
176
     1
290
     0
176
     1
290
     0
176
     1
290
     0
176
     1
 90
       50
176
     1
 40
0.0
176
     1
 40
1.0
176
     1
 90
        0
176
     1
 62
    18
420
        0
176
     1
 90
       50
176
     1
 90
        3
176
     1
 62
     5
420
      255
176
     1
290
     0
176
     1
 90
       50
176
     1
 90
       50
176
     1
 90
       50
176
     1
290
     0
176
     1
 90
       50
176
     1
 62
   256
176
     0
 40
1.0
176
     0
 90
        2
176
     1
  1
strokes_ogs.tif
176
     1
290
     0
176
     1
 40
1.0
176
     1
 40
1.0
176
     1
  0
VISUALSTYLE
  5
FFE
102
{ACAD_REACTORS
330
FFC
102
}
330
FFC
100
AcDbVisualStyle
  2
FlatWithEdges
 70
     1
177
     3
291
     1
 70
    58
 90
        2
176
     1
 90
        1
176
     1
 90
        1
176
     1
 90
        2
176
     1
 40
0.6
176
     1
 40
30.0
176
     1
 62
     7
420
 16777215
176
     1
 90
        1
176
     1
 90
        0
176
     1
 62
     7
176
     1
 62
   257
176
     1
 90
        1
176
     1
 90
        1
176
     1
 40
1.0
176
     1
 90
        0
176
     1
 62
   257
176
     1
 40
1.0
176
     1
 90
        1
176
     1
 90
        6
176
     1
 90
        2
176
     1
 62
     7
176
     1
 90
        5
176
     1
 90
        0
176
     1
 90
        0
176
     1
290
     0
176
     1
 90
       13
176
     1
 40
0.0
176
     1
 90
        0
176
     1
290
     0
176
     1
290
     1
176
     1
290
     1
176
     1
290
     0
176
     1
290
     0
176
     1
290
     0
176
     1
290
     0
176
     1
290
     0
176
     1
290
     0
176
     1
 90
       50
176
     1
 40
0.0
176
     1
 40
1.0
176
     1
 90
        0
176
     1
 62
    18
420
        0
176
     1
 90
       50
176
     1
 90
        3
176
     1
 62
     5
420
      255
176
     1
290
     0
176
     1
 90
       50
176
     1
 90
       50
176
     1
 90
       50
176
     1
290
     0
176
     1
 90
       50
176
     1
 62
   256
176
     0
 40
1.0
176
     0
 90
        2
176
     1
  1
strokes_ogs.tif
176
     1
290
     0
176
     1
 40
1.0
176
     1
 40
1.0
176
     1
  0
VISUALSTYLE
  5
FFF
102
{ACAD_REACTORS
330
FFC
102
}
330
FFC
100
AcDbVisualStyle
  2
Gouraud
 70
     2
177
     3
291
     1
 70
    58
 90
        2
176
     1
 90
        2
176
     1
 90
        1
176
     1
 90
        2
176
     1
 40
0.6
176
     1
 40
30.0
176
     1
 62
     7
420
 16777215
176
     1
 90
        0
176
     1
 90
        0
176
     1
 62
     7
176
     1
 62
   257
176
     1
 90
        1
176
     1
 90
        1
176
     1
 40
1.0
176
     1
 90
        0
176
     1
 62
     7
176
     1
 40
1.0
176
     1
 90
        1
176
     1
 90
        6
176
     1
 90
        2
176
     1
 62
     7
176
     1
 90
        5
176
     1
 90
        0
176
     1
 90
        0
176
     1
290
     0
176
     1
 90
       13
176
     1
 40
0.0
176
     1
 90
        0
176
     1
290
     0
176
     1
290
     1
176
     1
290
     1
176
     1
290
     0
176
     1
290
     0
176
     1
290
     0
176
     1
290
     0
176
     1
290
     0
176
     1
290
     0
176
     1
 90
       50
176
     1
 40
0.0
176
     1
 40
1.0
176
     1
 90
        0
176
     1
 62
    18
420
        0
176
     1
 90
       50
176
     1
 90
        3
176
     1
 62
     5
420
      255
176
     1
290
     0
176
     1
 90
       50
176
     1
 90
       50
176
     1
 90
       50
176
     1
290
     0
176
     1
 90
       50
176
     1
 62
   256
176
     0
 40
1.0
176
     0
 90
        2
176
     1
  1
strokes_ogs.tif
176
     1
290
     0
176
     1
 40
1.0
176
     1
 40
1.0
176
     1
  0
VISUALSTYLE
  5
1000
102
{ACAD_REACTORS
330
FFC
102
}
330
FFC
100
AcDbVisualStyle
  2
GouraudWithEdges
 70
     3
177
     3
291
     1
 70
    58
 90
        2
176
     1
 90
        2
176
     1
 90
        1
176
     1
 90
        2
176
     1
 40
0.6
176
     1
 40
30.0
176
     1
 62
     7
420
 16777215
176
     1
 90
        1
176
     1
 90
        0
176
     1
 62
     7
176
     1
 62
   257
176
     1
 90
        1
176
     1
 90
        1
176
     1
 40
1.0
176
     1
 90
        0
176
     1
 62
   257
176
     1
 40
1.0
176
     1
 90
        1
176
     1
 90
        6
176
     1
 90
        2
176
     1
 62
     7
176
     1
 90
        5
176
     1
 90
        0
176
     1
 90
        0
176
     1
290
     0
176
     1
 90
       13
176
     1
 40
0.0
176
     1
 90
        0
176
     1
290
     0
176
     1
290
     1
176
     1
290
     1
176
     1
290
     0
176
     1
290
     0
176
     1
290
     0
176
     1
290
     0
176
     1
290
     0
176
     1
290
     0
176
     1
 90
       50
176
     1
 40
0.0
176
     1
 40
1.0
176
     1
 90
        0
176
     1
 62
    18
420
        0
176
     1
 90
       50
176
     1
 90
        3
176
     1
 62
     5
420
      255
176
     1
290
     0
176
     1
 90
       50
176
     1
 90
       50
176
     1
 90
       50
176
     1
290
     0
176
     1
 90
       50
176
     1
 62
   256
176
     0
 40
1.0
176
     0
 90
        2
176
     1
  1
strokes_ogs.tif
176
     1
290
     0
176
     1
 40
1.0
176
     1
 40
1.0
176
     1
  0
VISUALSTYLE
  5
1003
102
{ACAD_REACTORS
330
FFC
102
}
330
FFC
100
AcDbVisualStyle
  2
Hidden
 70
     6
177
     3
291
     0
 70
    58
 90
        1
176
     1
 90
        2
176
     1
 90
        2
176
     1
 90
        0
176
     1
 40
0.6
176
     1
 40
30.0
176
     1
 62
     7
420
 16777215
176
     1
 90
        2
176
     1
 90
        2
176
     1
 62
     7
176
     1
 62
   257
176
     1
 90
        2
176
     1
 90
        1
176
     1
 40
40.0
176
     1
 90
        0
176
     1
 62
   257
176
     1
 40
1.0
176
     1
 90
        1
176
     1
 90
        6
176
     1
 90
        2
176
     1
 62
     7
176
     1
 90
        3
176
     1
 90
        0
176
     1
 90
        0
176
     1
290
     0
176
     1
 90
        1
176
     1
 40
0.0
176
     1
 90
        0
176
     1
290
     0
176
     1
290
     1
176
     1
290
     1
176
     1
290
     0
176
     1
290
     0
176
     1
290
     0
176
     1
290
     0
176
     1
290
     0
176
     1
290
     0
176
     1
 90
       50
176
     1
 40
0.0
176
     1
 40
1.0
176
     1
 90
        0
176
     1
 62
    18
420
        0
176
     1
 90
       50
176
     1
 90
        3
176
     1
 62
     5
420
      255
176
     1
290
     0
176
     1
 90
       50
176
     1
 90
       50
176
     1
 90
       50
176
     1
290
     0
176
     1
 90
       50
176
     1
 62
   256
176
     0
 40
1.0
176
     0
 90
        2
176
     1
  1
strokes_ogs.tif
176
     1
290
     0
176
     1
 40
1.0
176
     1
 40
1.0
176
     1
  0
VISUALSTYLE
  5
100D
102
{ACAD_REACTORS
330
FFC
102
}
330
FFC
100
AcDbVisualStyle
  2
JitterOff
 70
    20
177
     3
291
     1
 70
    58
 90
        2
176
     0
 90
        2
176
     0
 90
        0
176
     0
 90
        0
176
     0
 40
0.6
176
     0
 40
30.0
176
     0
 62
     7
420
 16777215
176
     0
 90
        1
176
     0
 90
        4
176
     0
 62
     7
176
     0
 62
   257
176
     0
 90
        1
176
     0
 90
        1
176
     0
 40
1.0
176
     0
 90
       10
176
     2
 62
     7
176
     0
 40
1.0
176
     0
 90
        1
176
     0
 90
        6
176
     0
 90
        2
176
     0
 62
     7
176
     0
 90
        5
176
     0
 90
        0
176
     0
 90
        0
176
     0
290
     0
176
     0
 90
        1
176
     0
 40
0.0
176
     0
 90
        0
176
     0
290
     0
176
     0
290
     1
176
     0
290
     1
176
     0
290
     0
176
     0
290
     0
176
     0
290
     0
176
     0
290
     0
176
     0
290
     0
176
     0
290
     0
176
     0
 90
       50
176
     0
 40
0.0
176
     0
 40
1.0
176
     0
 90
        0
176
     0
 62
    18
420
        0
176
     0
 90
       50
176
     0
 90
        3
176
     0
 62
     5
420
      255
176
     0
290
     0
176
     0
 90
       50
176
     0
 90
       50
176
     0
 90
       50
176
     0
290
     0
176
     0
 90
       50
176
     0
 62
   256
176
     0
 40
1.0
176
     0
 90
        2
176
     0
  1
strokes_ogs.tif
176
     0
290
     0
176
     0
 40
1.0
176
     0
 40
1.0
176
     0
  0
VISUALSTYLE
  5
100A
102
{ACAD_REACTORS
330
FFC
102
}
330
FFC
100
AcDbVisualStyle
  2
Linepattern
 70
    14
177
     3
291
     1
 70
    58
 90
        2
176
     1
 90
        2
176
     1
 90
        0
176
     1
 90
        0
176
     1
 40
0.6
176
     1
 40
30.0
176
     1
 62
     7
420
 16777215
176
     1
 90
        1
176
     1
 90
        4
176
     1
 62
     7
176
     1
 62
   257
176
     1
 90
        7
176
     1
 90
        7
176
     1
 40
1.0
176
     1
 90
        8
176
     1
 62
     7
176
     1
 40
1.0
176
     1
 90
        1
176
     1
 90
        6
176
     1
 90
        2
176
     1
 62
     7
176
     1
 90
        5
176
     1
 90
        0
176
     1
 90
        0
176
     1
290
     0
176
     1
 90
        1
176
     1
 40
0.0
176
     1
 90
        0
176
     1
290
     0
176
     1
290
     1
176
     1
290
     1
176
     1
290
     0
176
     1
290
     0
176
     1
290
     0
176
     1
290
     0
176
     1
290
     0
176
     1
290
     0
176
     1
 90
       50
176
     1
 40
0.0
176
     1
 40
1.0
176
     1
 90
        0
176
     1
 62
    18
420
        0
176
     1
 90
       50
176
     1
 90
        3
176
     1
 62
     5
420
      255
176
     1
290
     0
176
     1
 90
       50
176
     1
 90
       50
176
     1
 90
       50
176
     1
290
     0
176
     1
 90
       50
176
     1
 62
   256
176
     0
 40
1.0
176
     0
 90
        2
176
     1
  1
strokes_ogs.tif
176
     1
290
     0
176
     1
 40
1.0
176
     1
 40
1.0
176
     1
  0
VISUALSTYLE
  5
100E
102
{ACAD_REACTORS
330
FFC
102
}
330
FFC
100
AcDbVisualStyle
  2
OverhangOff
 70
    21
177
     3
291
     1
 70
    58
 90
        2
176
     0
 90
        2
176
     0
 90
        0
176
     0
 90
        0
176
     0
 40
0.6
176
     0
 40
30.0
176
     0
 62
     7
420
 16777215
176
     0
 90
        1
176
     0
 90
        4
176
     0
 62
     7
176
     0
 62
   257
176
     0
 90
        1
176
     0
 90
        1
176
     0
 40
1.0
176
     0
 90
        9
176
     2
 62
     7
176
     0
 40
1.0
176
     0
 90
        1
176
     0
 90
        6
176
     0
 90
        2
176
     0
 62
     7
176
     0
 90
        5
176
     0
 90
        0
176
     0
 90
        0
176
     0
290
     0
176
     0
 90
        1
176
     0
 40
0.0
176
     0
 90
        0
176
     0
290
     0
176
     0
290
     1
176
     0
290
     1
176
     0
290
     0
176
     0
290
     0
176
     0
290
     0
176
     0
290
     0
176
     0
290
     0
176
     0
290
     0
176
     0
 90
       50
176
     0
 40
0.0
176
     0
 40
1.0
176
     0
 90
        0
176
     0
 62
    18
420
        0
176
     0
 90
       50
176
     0
 90
        3
176
     0
 62
     5
420
      255
176
     0
290
     0
176
     0
 90
       50
176
     0
 90
       50
176
     0
 90
       50
176
     0
290
     0
176
     0
 90
       50
176
     0
 62
   256
176
     0
 40
1.0
176
     0
 90
        2
176
     0
  1
strokes_ogs.tif
176
     0
290
     0
176
     0
 40
1.0
176
     0
 40
1.0
176
     0
  0
VISUALSTYLE
  5
1005
102
{ACAD_REACTORS
330
FFC
102
}
330
FFC
100
AcDbVisualStyle
  2
Realistic
 70
     8
177
     3
291
     0
 70
    58
 90
        2
176
     1
 90
        3
176
     1
 90
        0
176
     1
 90
        2
176
     1
 40
0.6
176
     1
 40
30.0
176
     1
 62
     7
420
 16777215
176
     1
 90
        0
176
     1
 90
        0
176
     1
 62
     7
176
     1
 62
   257
176
     1
 90
        1
176
     1
 90
        1
176
     1
 40
1.0
176
     1
 90
        8
176
     1
 62
   257
176
     1
 40
1.0
176
     1
 90
        1
176
     1
 90
        6
176
     1
 90
        2
176
     1
 62
     7
176
     1
 90
        3
176
     1
 90
        0
176
     1
 90
        0
176
     1
290
     0
176
     1
 90
       13
176
     1
 40
0.0
176
     1
 90
        0
176
     1
290
     0
176
     1
290
     1
176
     1
290
     1
176
     1
290
     0
176
     1
290
     0
176
     1
290
     0
176
     1
290
     0
176
     1
290
     0
176
     1
290
     0
176
     1
 90
       50
176
     1
 40
0.0
176
     1
 40
1.0
176
     1
 90
        0
176
     1
 62
    18
420
        0
176
     1
 90
       50
176
     1
 90
        3
176
     1
 62
     5
420
      255
176
     1
290
     0
176
     1
 90
       50
176
     1
 90
       50
176
     1
 90
       50
176
     1
290
     0
176
     1
 90
       50
176
     1
 62
   256
176
     0
 40
1.0
176
     0
 90
        2
176
     1
  1
strokes_ogs.tif
176
     1
290
     0
176
     1
 40
1.0
176
     1
 40
1.0
176
     1
  0
VISUALSTYLE
  5
1014
102
{ACAD_REACTORS
330
FFC
102
}
330
FFC
100
AcDbVisualStyle
  2
Shaded
 70
    27
177
     3
291
     0
 70
    58
 90
        2
176
     1
 90
        2
176
     1
 90
        1
176
     1
 90
        2
176
     1
 40
0.6
176
     1
 40
30.0
176
     1
 62
     7
420
 16777215
176
     1
 90
        0
176
     1
 90
        4
176
     1
 62
     7
176
     1
 62
   257
176
     1
 90
        1
176
     1
 90
        1
176
     1
 40
1.0
176
     1
 90
        8
176
     1
 62
   257
176
     1
 40
1.0
176
     1
 90
        1
176
     1
 90
        6
176
     1
 90
        2
176
     1
 62
     8
420
  7895160
176
     1
 90
        3
176
     1
 90
        0
176
     1
 90
        0
176
     1
290
     0
176
     1
 90
        5
176
     1
 40
0.0
176
     1
 90
        0
176
     1
290
     0
176
     1
290
     1
176
     1
290
     1
176
     1
290
     0
176
     1
290
     0
176
     1
290
     0
176
     1
290
     0
176
     1
290
     0
176
     1
290
     0
176
     1
 90
       50
176
     1
 40
0.0
176
     1
 40
1.0
176
     1
 90
        0
176
     1
 62
    18
420
        0
176
     1
 90
       50
176
     1
 90
        3
176
     1
 62
     5
420
      255
176
     1
290
     0
176
     1
 90
       50
176
     1
 90
       50
176
     1
 90
       50
176
     1
290
     0
176
     1
 90
       50
176
     1
 62
   256
176
     0
 40
1.0
176
     0
 90
        2
176
     1
  1
strokes_ogs.tif
176
     1
290
     0
176
     1
 40
1.0
176
     1
 40
1.0
176
     1
  0
VISUALSTYLE
  5
1013
102
{ACAD_REACTORS
330
FFC
102
}
330
FFC
100
AcDbVisualStyle
  2
Shaded with edges
 70
    26
177
     3
291
     0
 70
    58
 90
        2
176
     1
 90
        2
176
     1
 90
        1
176
     1
 90
        2
176
     1
 40
0.6
176
     1
 40
30.0
176
     1
 62
     7
420
 16777215
176
     1
 90
        1
176
     1
 90
       10
176
     1
 62
     7
176
     1
 62
   257
176
     1
 90
        2
176
     1
 90
        1
176
     1
 40
1.0
176
     1
 90
        8
176
     1
 62
   257
176
     1
 40
1.0
176
     1
 90
        1
176
     1
 90
        6
176
     1
 90
        2
176
     1
 62
     7
176
     1
 90
        3
176
     1
 90
        0
176
     1
 90
        0
176
     1
290
     0
176
     1
 90
        5
176
     1
 40
0.0
176
     1
 90
        0
176
     1
290
     0
176
     1
290
     1
176
     1
290
     1
176
     1
290
     0
176
     1
290
     0
176
     1
290
     0
176
     1
290
     0
176
     1
290
     0
176
     1
290
     0
176
     1
 90
       50
176
     1
 40
0.0
176
     1
 40
1.0
176
     1
 90
        0
176
     1
 62
    18
420
        0
176
     1
 90
       50
176
     1
 90
        3
176
     1
 62
     5
420
      255
176
     1
290
     0
176
     1
 90
       50
176
     1
 90
       50
176
     1
 90
       50
176
     1
290
     0
176
     1
 90
       50
176
     1
 62
   256
176
     0
 40
1.0
176
     0
 90
        2
176
     1
  1
strokes_ogs.tif
176
     1
290
     0
176
     1
 40
1.0
176
     1
 40
1.0
176
     1
  0
VISUALSTYLE
  5
1010
102
{ACAD_REACTORS
330
FFC
102
}
330
FFC
100
AcDbVisualStyle
  2
Shades of Gray
 70
    23
177
     3
291
     0
 70
    58
 90
        2
176
     1
 90
        2
176
     1
 90
        3
176
     1
 90
        0
176
     1
 40
0.6
176
     1
 40
30.0
176
     1
 62
     7
420
 16777215
176
     1
 90
        2
176
     1
 90
        2
176
     1
 62
     7
176
     1
 62
     7
176
     1
 90
        1
176
     1
 90
        1
176
     1
 40
40.0
176
     1
 90
        8
176
     1
 62
     7
176
     1
 40
1.0
176
     1
 90
        1
176
     1
 90
        6
176
     1
 90
        2
176
     1
 62
     7
176
     1
 90
        3
176
     1
 90
        0
176
     1
 90
        0
176
     1
290
     0
176
     1
 90
        1
176
     1
 40
0.0
176
     1
 90
        0
176
     1
290
     0
176
     1
290
     1
176
     1
290
     1
176
     1
290
     0
176
     1
290
     0
176
     1
290
     0
176
     1
290
     0
176
     1
290
     0
176
     1
290
     0
176
     1
 90
       50
176
     1
 40
0.0
176
     1
 40
1.0
176
     1
 90
        0
176
     1
 62
    18
420
        0
176
     1
 90
       50
176
     1
 90
        3
176
     1
 62
     5
420
      255
176
     1
290
     0
176
     1
 90
       50
176
     1
 90
       50
176
     1
 90
       50
176
     1
290
     0
176
     1
 90
       50
176
     1
 62
   256
176
     0
 40
1.0
176
     0
 90
        2
176
     1
  1
strokes_ogs.tif
176
     1
290
     0
176
     1
 40
1.0
176
     1
 40
1.0
176
     1
  0
VISUALSTYLE
  5
1011
102
{ACAD_REACTORS
330
FFC
102
}
330
FFC
100
AcDbVisualStyle
  2
Sketchy
 70
    24
177
     3
291
     0
 70
    58
 90
        1
176
     1
 90
        2
176
     1
 90
        2
176
     1
 90
        0
176
     1
 40
0.6
176
     1
 40
30.0
176
     1
 62
     7
420
 16777215
176
     1
 90
        2
176
     1
 90
        2
176
     1
 62
     7
176
     1
 62
     7
176
     1
 90
        1
176
     1
 90
        1
176
     1
 40
40.0
176
     1
 90
       11
176
     1
 62
     7
176
     1
 40
1.0
176
     1
 90
        1
176
     1
 90
        6
176
     1
 90
        2
176
     1
 62
     7
176
     1
 90
        6
176
     1
 90
        0
176
     1
 90
        0
176
     1
290
     0
176
     1
 90
        1
176
     1
 40
0.0
176
     1
 90
        0
176
     1
290
     0
176
     1
290
     1
176
     1
290
     1
176
     1
290
     0
176
     1
290
     0
176
     1
290
     0
176
     1
290
     0
176
     1
290
     0
176
     1
290
     0
176
     1
 90
       50
176
     1
 40
0.0
176
     1
 40
1.0
176
     1
 90
        0
176
     1
 62
    18
420
        0
176
     1
 90
       50
176
     1
 90
        3
176
     1
 62
     5
420
      255
176
     1
290
     0
176
     1
 90
       50
176
     1
 90
       50
176
     1
 90
       50
176
     1
290
     0
176
     1
 90
       50
176
     1
 62
   256
176
     0
 40
1.0
176
     0
 90
        2
176
     1
  1
strokes_ogs.tif
176
     1
290
     0
176
     1
 40
1.0
176
     1
 40
1.0
176
     1
  0
VISUALSTYLE
  5
1009
102
{ACAD_REACTORS
330
FFC
102
}
330
FFC
100
AcDbVisualStyle
  2
Thicken
 70
    13
177
     3
291
     1
 70
    58
 90
        2
176
     1
 90
        2
176
     1
 90
        0
176
     1
 90
        0
176
     1
 40
0.6
176
     1
 40
30.0
176
     1
 62
     7
420
 16777215
176
     1
 90
        1
176
     1
 90
        4
176
     1
 62
     7
176
     1
 62
   257
176
     1
 90
        1
176
     1
 90
        1
176
     1
 40
1.0
176
     1
 90
       12
176
     1
 62
     7
176
     1
 40
1.0
176
     1
 90
        1
176
     1
 90
        6
176
     1
 90
        2
176
     1
 62
     7
176
     1
 90
        5
176
     1
 90
        0
176
     1
 90
        0
176
     1
290
     0
176
     1
 90
        1
176
     1
 40
0.0
176
     1
 90
        0
176
     1
290
     0
176
     1
290
     1
176
     1
290
     1
176
     1
290
     0
176
     1
290
     0
176
     1
290
     0
176
     1
290
     0
176
     1
290
     0
176
     1
290
     0
176
     1
 90
       50
176
     1
 40
0.0
176
     1
 40
1.0
176
     1
 90
        0
176
     1
 62
    18
420
        0
176
     1
 90
       50
176
     1
 90
        3
176
     1
 62
     5
420
      255
176
     1
290
     0
176
     1
 90
       50
176
     1
 90
       50
176
     1
 90
       50
176
     1
290
     0
176
     1
 90
       50
176
     1
 62
   256
176
     0
 40
1.0
176
     0
 90
        2
176
     1
  1
strokes_ogs.tif
176
     1
290
     0
176
     1
 40
1.0
176
     1
 40
1.0
176
     1
  0
VISUALSTYLE
  5
1002
102
{ACAD_REACTORS
330
FFC
102
}
330
FFC
100
AcDbVisualStyle
  2
Wireframe
 70
     5
177
     3
291
     0
 70
    58
 90
        0
176
     1
 90
        2
176
     1
 90
        0
176
     1
 90
        0
176
     1
 40
0.6
176
     1
 40
30.0
176
     1
 62
     7
420
 16777215
176
     1
 90
        1
176
     1
 90
        4
176
     1
 62
     7
176
     1
 62
   257
176
     1
 90
        1
176
     1
 90
        1
176
     1
 40
1.0
176
     1
 90
        0
176
     1
 62
   257
176
     1
 40
1.0
176
     1
 90
        1
176
     1
 90
        6
176
     1
 90
        2
176
     1
 62
     7
176
     1
 90
        3
176
     1
 90
        0
176
     1
 90
        0
176
     1
290
     0
176
     1
 90
        1
176
     1
 40
0.0
176
     1
 90
        0
176
     1
290
     0
176
     1
290
     1
176
     1
290
     1
176
     1
290
     0
176
     1
290
     0
176
     1
290
     0
176
     1
290
     0
176
     1
290
     0
176
     1
290
     0
176
     1
 90
       50
176
     1
 40
0.0
176
     1
 40
1.0
176
     1
 90
        0
176
     1
 62
    18
420
        0
176
     1
 90
       50
176
     1
 90
        3
176
     1
 62
     5
420
      255
176
     1
290
     0
176
     1
 90
       50
176
     1
 90
       50
176
     1
 90
       50
176
     1
290
     0
176
     1
 90
       50
176
     1
 62
   256
176
     0
 40
1.0
176
     0
 90
        2
176
     1
  1
strokes_ogs.tif
176
     1
290
     0
176
     1
 40
1.0
176
     1
 40
1.0
176
     1
  0
VISUALSTYLE
  5
1012
102
{ACAD_REACTORS
330
FFC
102
}
330
FFC
100
AcDbVisualStyle
  2
X-Ray
 70
    25
177
     3
291
     0
 70
    58
 90
        2
176
     1
 90
        2
176
     1
 90
        1
176
     1
 90
        1
176
     1
 40
0.5
176
     1
 40
30.0
176
     1
 62
     7
420
 16777215
176
     1
 90
        1
176
     1
 90
        0
176
     1
 62
     7
176
     1
 62
   257
176
     1
 90
        1
176
     1
 90
        1
176
     1
 40
1.0
176
     1
 90
        8
176
     1
 62
     7
176
     1
 40
1.0
176
     1
 90
        1
176
     1
 90
        6
176
     1
 90
        2
176
     1
 62
     7
176
     1
 90
        3
176
     1
 90
        0
176
     1
 90
        0
176
     1
290
     0
176
     1
 90
       13
176
     1
 40
0.0
176
     1
 90
        0
176
     1
290
     0
176
     1
290
     1
176
     1
290
     1
176
     1
290
     0
176
     1
290
     0
176
     1
290
     0
176
     1
290
     0
176
     1
290
     0
176
     1
290
     0
176
     1
 90
       50
176
     1
 40
0.0
176
     1
 40
1.0
176
     1
 90
        0
176
     1
 62
    18
420
        0
176
     1
 90
       50
176
     1
 90
        3
176
     1
 62
     5
420
      255
176
     1
290
     0
176
     1
 90
       50
176
     1
 90
       50
176
     1
 90
       50
176
     1
290
     0
176
     1
 90
       50
176
     1
 62
   256
176
     0
 40
1.0
176
     0
 90
        2
176
     1
  1
strokes_ogs.tif
176
     1
290
     0
176
     1
 40
1.0
176
     1
 40
1.0
176
     1
  0
DICTIONARYVAR
  5
1044
102
{ACAD_REACTORS
330
1043
102
}
330
1043
100
DictionaryVariables
280
     0
  1
1:1
  0
DICTIONARYVAR
  5
1048
102
{ACAD_REACTORS
330
1043
102
}
330
1043
100
DictionaryVariables
280
     0
  1
Standard
  0
DICTIONARYVAR
  5
104A
102
{ACAD_REACTORS
330
1043
102
}
330
1043
100
DictionaryVariables
280
     0
  1
0
  0
DICTIONARYVAR
  5
104B
102
{ACAD_REACTORS
330
1043
102
}
330
1043
100
DictionaryVariables
280
     0
  1
0
  0
DICTIONARY
  5
1123
330
103B
100
AcDbDictionary
280
     1
281
     1
  3
ACAD_ROUNDTRIP_2008_TABLESTYLE_CELLSTYLEMAP
360
1124
  0
CELLSTYLEMAP
  5
1124
102
{ACAD_REACTORS
330
1123
102
}
330
1123
100
AcDbCellStyleMap
 90
        3
300
CELLSTYLE
  1
TABLEFORMAT_BEGIN
 90
        5
170
     1
 91
        0
 92
        0
 62
   257
 93
        1
300
CONTENTFORMAT
  1
CONTENTFORMAT_BEGIN
 90
        0
 91
        0
 92
        4
 93
        0
300

 40
0.0
140
1.0
 94
        5
 62
     0
340
11
144
6.0
309
CONTENTFORMAT_END
171
     1
301
MARGIN
  1
CELLMARGIN_BEGIN
 40
1.5
 40
1.5
 40
1.5
 40
1.5
 40
1.5
 40
1.5
309
CELLMARGIN_END
 94
        6
 95
        1
302
GRIDFORMAT
  1
GRIDFORMAT_BEGIN
 90
        0
 91
        1
 62
     0
 92
       -2
340
14
 93
        0
 40
0.045
309
GRIDFORMAT_END
 95
        2
302
GRIDFORMAT
  1
GRIDFORMAT_BEGIN
 90
        0
 91
        1
 62
     0
 92
       -2
340
14
 93
        0
 40
0.045
309
GRIDFORMAT_END
 95
        4
302
GRIDFORMAT
  1
GRIDFORMAT_BEGIN
 90
        0
 91
        1
 62
     0
 92
       -2
340
14
 93
        0
 40
0.045
309
GRIDFORMAT_END
 95
        8
302
GRIDFORMAT
  1
GRIDFORMAT_BEGIN
 90
        0
 91
        1
 62
     0
 92
       -2
340
14
 93
        0
 40
0.045
309
GRIDFORMAT_END
 95
       16
302
GRIDFORMAT
  1
GRIDFORMAT_BEGIN
 90
        0
 91
        1
 62
     0
 92
       -2
340
14
 93
        0
 40
0.045
309
GRIDFORMAT_END
 95
       32
302
GRIDFORMAT
  1
GRIDFORMAT_BEGIN
 90
        0
 91
        1
 62
     0
 92
       -2
340
14
 93
        0
 40
0.045
309
GRIDFORMAT_END
309
TABLEFORMAT_END
  1
CELLSTYLE_BEGIN
 90
        1
 91
        1
300
_TITLE
309
CELLSTYLE_END
300
CELLSTYLE
  1
TABLEFORMAT_BEGIN
 90
        5
170
     1
 91
        0
 92
        0
 62
   257
 93
        1
300
CONTENTFORMAT
  1
CONTENTFORMAT_BEGIN
 90
        0
 91
        0
 92
        4
 93
        0
300

 40
0.0
140
1.0
 94
        5
 62
     0
340
11
144
4.5
309
CONTENTFORMAT_END
171
     1
301
MARGIN
  1
CELLMARGIN_BEGIN
 40
1.5
 40
1.5
 40
1.5
 40
1.5
 40
1.5
 40
1.5
309
CELLMARGIN_END
 94
        6
 95
        1
302
GRIDFORMAT
  1
GRIDFORMAT_BEGIN
 90
        0
 91
        1
 62
     0
 92
       -2
340
14
 93
        0
 40
0.045
309
GRIDFORMAT_END
 95
        2
302
GRIDFORMAT
  1
GRIDFORMAT_BEGIN
 90
        0
 91
        1
 62
     0
 92
       -2
340
14
 93
        0
 40
0.045
309
GRIDFORMAT_END
 95
        4
302
GRIDFORMAT
  1
GRIDFORMAT_BEGIN
 90
        0
 91
        1
 62
     0
 92
       -2
340
14
 93
        0
 40
0.045
309
GRIDFORMAT_END
 95
        8
302
GRIDFORMAT
  1
GRIDFORMAT_BEGIN
 90
        0
 91
        1
 62
     0
 92
       -2
340
14
 93
        0
 40
0.045
309
GRIDFORMAT_END
 95
       16
302
GRIDFORMAT
  1
GRIDFORMAT_BEGIN
 90
        0
 91
        1
 62
     0
 92
       -2
340
14
 93
        0
 40
0.045
309
GRIDFORMAT_END
 95
       32
302
GRIDFORMAT
  1
GRIDFORMAT_BEGIN
 90
        0
 91
        1
 62
     0
 92
       -2
340
14
 93
        0
 40
0.045
309
GRIDFORMAT_END
309
TABLEFORMAT_END
  1
CELLSTYLE_BEGIN
 90
        2
 91
        1
300
_HEADER
309
CELLSTYLE_END
300
CELLSTYLE
  1
TABLEFORMAT_BEGIN
 90
        5
170
     1
 91
        0
 92
        0
 62
   257
 93
        1
300
CONTENTFORMAT
  1
CONTENTFORMAT_BEGIN
 90
        0
 91
        0
 92
        4
 93
        0
300

 40
0.0
140
1.0
 94
        2
 62
     0
340
11
144
4.5
309
CONTENTFORMAT_END
171
     1
301
MARGIN
  1
CELLMARGIN_BEGIN
 40
1.5
 40
1.5
 40
1.5
 40
1.5
 40
1.5
 40
1.5
309
CELLMARGIN_END
 94
        6
 95
        1
302
GRIDFORMAT
  1
GRIDFORMAT_BEGIN
 90
        0
 91
        1
 62
     0
 92
       -2
340
14
 93
        0
 40
0.045
309
GRIDFORMAT_END
 95
        2
302
GRIDFORMAT
  1
GRIDFORMAT_BEGIN
 90
        0
 91
        1
 62
     0
 92
       -2
340
14
 93
        0
 40
0.045
309
GRIDFORMAT_END
 95
        4
302
GRIDFORMAT
  1
GRIDFORMAT_BEGIN
 90
        0
 91
        1
 62
     0
 92
       -2
340
14
 93
        0
 40
0.045
309
GRIDFORMAT_END
 95
        8
302
GRIDFORMAT
  1
GRIDFORMAT_BEGIN
 90
        0
 91
        1
 62
     0
 92
       -2
340
14
 93
        0
 40
0.045
309
GRIDFORMAT_END
 95
       16
302
GRIDFORMAT
  1
GRIDFORMAT_BEGIN
 90
        0
 91
        1
 62
     0
 92
       -2
340
14
 93
        0
 40
0.045
309
GRIDFORMAT_END
 95
       32
302
GRIDFORMAT
  1
GRIDFORMAT_BEGIN
 90
        0
 91
        1
 62
     0
 92
       -2
340
14
 93
        0
 40
0.045
309
GRIDFORMAT_END
309
TABLEFORMAT_END
  1
CELLSTYLE_BEGIN
 90
        3
 91
        2
300
_DATA
309
CELLSTYLE_END
  0
ENDSEC
  0
EOF
