  0
SECTION
  2
HEADER
  9
$ACADVER
  1
AC1027
  9
$ACADMAINTVER
 70
     8
  9
$DWGCODEPAGE
  3
ANSI_932
  9
$REQUIREDVERSIONS
160
                 0
  9
$LASTSAVEDBY
  1
Yasu
  9
$INSBASE
 10
0.0
 20
0.0
 30
0.0
  9
$EXTMIN
 10
278.440920144187
 20
325.0347470279203
 30
0.0
  9
$EXTMAX
 10
527.2693282426815
 20
530.507599021392
 30
0.0
  9
$LIMMIN
 10
0.0
 20
0.0
  9
$LIMMAX
 10
12.0
 20
9.0
  9
$ORTHOMODE
 70
     0
  9
$REGENMODE
 70
     1
  9
$FILLMODE
 70
     1
  9
$QTEXTMODE
 70
     0
  9
$MIRRTEXT
 70
     0
  9
$LTSCALE
 40
1.0
  9
$ATTMODE
 70
     1
  9
$TEXTSIZE
 40
0.2
  9
$TRACEWID
 40
0.05
  9
$TEXTSTYLE
  7
Standard
  9
$CLAYER
  8
0
  9
$CELTYPE
  6
ByLayer
  9
$CECOLOR
 62
   256
  9
$CELTSCALE
 40
1.0
  9
$DISPSILH
 70
     0
  9
$DIMSCALE
 40
1.0
  9
$DIMASZ
 40
0.18
  9
$DIMEXO
 40
0.0625
  9
$DIMDLI
 40
0.38
  9
$DIMRND
 40
0.0
  9
$DIMDLE
 40
0.0
  9
$DIMEXE
 40
0.18
  9
$DIMTP
 40
0.0
  9
$DIMTM
 40
0.0
  9
$DIMTXT
 40
0.18
  9
$DIMCEN
 40
0.09
  9
$DIMTSZ
 40
0.0
  9
$DIMTOL
 70
     0
  9
$DIMLIM
 70
     0
  9
$DIMTIH
 70
     1
  9
$DIMTOH
 70
     1
  9
$DIMSE1
 70
     0
  9
$DIMSE2
 70
     0
  9
$DIMTAD
 70
     0
  9
$DIMZIN
 70
     0
  9
$DIMBLK
  1

  9
$DIMASO
 70
     1
  9
$DIMSHO
 70
     1
  9
$DIMPOST
  1

  9
$DIMAPOST
  1

  9
$DIMALT
 70
     0
  9
$DIMALTD
 70
     2
  9
$DIMALTF
 40
25.4
  9
$DIMLFAC
 40
1.0
  9
$DIMTOFL
 70
     0
  9
$DIMTVP
 40
0.0
  9
$DIMTIX
 70
     0
  9
$DIMSOXD
 70
     0
  9
$DIMSAH
 70
     0
  9
$DIMBLK1
  1

  9
$DIMBLK2
  1

  9
$DIMSTYLE
  2
Standard
  9
$DIMCLRD
 70
     0
  9
$DIMCLRE
 70
     0
  9
$DIMCLRT
 70
     0
  9
$DIMTFAC
 40
1.0
  9
$DIMGAP
 40
0.09
  9
$DIMJUST
 70
     0
  9
$DIMSD1
 70
     0
  9
$DIMSD2
 70
     0
  9
$DIMTOLJ
 70
     1
  9
$DIMTZIN
 70
     0
  9
$DIMALTZ
 70
     0
  9
$DIMALTTZ
 70
     0
  9
$DIMUPT
 70
     0
  9
$DIMDEC
 70
     4
  9
$DIMTDEC
 70
     4
  9
$DIMALTU
 70
     2
  9
$DIMALTTD
 70
     2
  9
$DIMTXSTY
  7
Standard
  9
$DIMAUNIT
 70
     0
  9
$DIMADEC
 70
     0
  9
$DIMALTRND
 40
0.0
  9
$DIMAZIN
 70
     0
  9
$DIMDSEP
 70
    46
  9
$DIMATFIT
 70
     3
  9
$DIMFRAC
 70
     0
  9
$DIMLDRBLK
  1

  9
$DIMLUNIT
 70
     2
  9
$DIMLWD
 70
    -2
  9
$DIMLWE
 70
    -2
  9
$DIMTMOVE
 70
     0
  9
$DIMFXL
 40
1.0
  9
$DIMFXLON
 70
     0
  9
$DIMJOGANG
 40
0.7853981633974483
  9
$DIMTFILL
 70
     0
  9
$DIMTFILLCLR
 70
     0
  9
$DIMARCSYM
 70
     0
  9
$DIMLTYPE
  6

  9
$DIMLTEX1
  6

  9
$DIMLTEX2
  6

  9
$DIMTXTDIRECTION
 70
     0
  9
$LUNITS
 70
     2
  9
$LUPREC
 70
     4
  9
$SKETCHINC
 40
0.1
  9
$FILLETRAD
 40
0.0
  9
$AUNITS
 70
     0
  9
$AUPREC
 70
     0
  9
$MENU
  1
.
  9
$ELEVATION
 40
0.0
  9
$PELEVATION
 40
0.0
  9
$THICKNESS
 40
0.0
  9
$LIMCHECK
 70
     0
  9
$CHAMFERA
 40
0.0
  9
$CHAMFERB
 40
0.0
  9
$CHAMFERC
 40
0.0
  9
$CHAMFERD
 40
0.0
  9
$SKPOLY
 70
     0
  9
$TDCREATE
 40
2452643.438384271
  9
$TDUCREATE
 40
2452643.063384271
  9
$TDUPDATE
 40
2456739.910120578
  9
$TDUUPDATE
 40
2456739.535120578
  9
$TDINDWG
 40
0.0013109028
  9
$TDUSRTIMER
 40
2456739.534542176
  9
$USRTIMER
 70
     1
  9
$ANGBASE
 50
0.0
  9
$ANGDIR
 70
     0
  9
$PDMODE
 70
     0
  9
$PDSIZE
 40
0.0
  9
$PLINEWID
 40
0.0
  9
$SPLFRAME
 70
     0
  9
$SPLINETYPE
 70
     6
  9
$SPLINESEGS
 70
     8
  9
$HANDSEED
  5
3DE
  9
$SURFTAB1
 70
     6
  9
$SURFTAB2
 70
     6
  9
$SURFTYPE
 70
     6
  9
$SURFU
 70
     6
  9
$SURFV
 70
     6
  9
$UCSBASE
  2

  9
$UCSNAME
  2

  9
$UCSORG
 10
0.0
 20
0.0
 30
0.0
  9
$UCSXDIR
 10
1.0
 20
0.0
 30
0.0
  9
$UCSYDIR
 10
0.0
 20
1.0
 30
0.0
  9
$UCSORTHOREF
  2

  9
$UCSORTHOVIEW
 70
     0
  9
$UCSORGTOP
 10
0.0
 20
0.0
 30
0.0
  9
$UCSORGBOTTOM
 10
0.0
 20
0.0
 30
0.0
  9
$UCSORGLEFT
 10
0.0
 20
0.0
 30
0.0
  9
$UCSORGRIGHT
 10
0.0
 20
0.0
 30
0.0
  9
$UCSORGFRONT
 10
0.0
 20
0.0
 30
0.0
  9
$UCSORGBACK
 10
0.0
 20
0.0
 30
0.0
  9
$PUCSBASE
  2

  9
$PUCSNAME
  2

  9
$PUCSORG
 10
0.0
 20
0.0
 30
0.0
  9
$PUCSXDIR
 10
1.0
 20
0.0
 30
0.0
  9
$PUCSYDIR
 10
0.0
 20
1.0
 30
0.0
  9
$PUCSORTHOREF
  2

  9
$PUCSORTHOVIEW
 70
     0
  9
$PUCSORGTOP
 10
0.0
 20
0.0
 30
0.0
  9
$PUCSORGBOTTOM
 10
0.0
 20
0.0
 30
0.0
  9
$PUCSORGLEFT
 10
0.0
 20
0.0
 30
0.0
  9
$PUCSORGRIGHT
 10
0.0
 20
0.0
 30
0.0
  9
$PUCSORGFRONT
 10
0.0
 20
0.0
 30
0.0
  9
$PUCSORGBACK
 10
0.0
 20
0.0
 30
0.0
  9
$USERI1
 70
     0
  9
$USERI2
 70
     0
  9
$USERI3
 70
     0
  9
$USERI4
 70
     0
  9
$USERI5
 70
     0
  9
$USERR1
 40
0.0
  9
$USERR2
 40
0.0
  9
$USERR3
 40
0.0
  9
$USERR4
 40
0.0
  9
$USERR5
 40
0.0
  9
$WORLDVIEW
 70
     1
  9
$SHADEDGE
 70
     3
  9
$SHADEDIF
 70
    70
  9
$TILEMODE
 70
     1
  9
$MAXACTVP
 70
    64
  9
$PINSBASE
 10
0.0
 20
0.0
 30
0.0
  9
$PLIMCHECK
 70
     0
  9
$PEXTMIN
 10
0.0
 20
0.0
 30
0.0
  9
$PEXTMAX
 10
0.0
 20
0.0
 30
0.0
  9
$PLIMMIN
 10
0.0
 20
0.0
  9
$PLIMMAX
 10
0.0
 20
0.0
  9
$UNITMODE
 70
     0
  9
$VISRETAIN
 70
     1
  9
$PLINEGEN
 70
     0
  9
$PSLTSCALE
 70
     1
  9
$TREEDEPTH
 70
  3020
  9
$CMLSTYLE
  2
Standard
  9
$CMLJUST
 70
     0
  9
$CMLSCALE
 40
1.0
  9
$PROXYGRAPHICS
 70
     1
  9
$MEASUREMENT
 70
     0
  9
$CELWEIGHT
370
    -1
  9
$ENDCAPS
280
     0
  9
$JOINSTYLE
280
     0
  9
$LWDISPLAY
290
     0
  9
$INSUNITS
 70
     1
  9
$HYPERLINKBASE
  1

  9
$STYLESHEET
  1

  9
$XEDIT
290
     1
  9
$CEPSNTYPE
380
     0
  9
$PSTYLEMODE
290
     1
  9
$FINGERPRINTGUID
  2
{FDEAD576-A652-11D2-9A35-0060089B3A3F}
  9
$VERSIONGUID
  2
{FBC2AE19-5C5C-49EC-81BC-71B1A3362A02}
  9
$EXTNAMES
290
     1
  9
$PSVPSCALE
 40
0.0
  9
$OLESTARTUP
290
     0
  9
$SORTENTS
280
   127
  9
$INDEXCTL
280
     0
  9
$HIDETEXT
280
     1
  9
$XCLIPFRAME
280
     0
  9
$HALOGAP
280
     0
  9
$OBSCOLOR
 70
   257
  9
$OBSLTYPE
280
     0
  9
$INTERSECTIONDISPLAY
280
     0
  9
$INTERSECTIONCOLOR
 70
   257
  9
$DIMASSOC
280
     2
  9
$PROJECTNAME
  1

  9
$CAMERADISPLAY
290
     0
  9
$LENSLENGTH
 40
50.0
  9
$CAMERAHEIGHT
 40
0.0
  9
$STEPSPERSEC
 40
2.0
  9
$STEPSIZE
 40
6.0
  9
$3DDWFPREC
 40
2.0
  9
$PSOLWIDTH
 40
0.25
  9
$PSOLHEIGHT
 40
4.0
  9
$LOFTANG1
 40
1.570796326794897
  9
$LOFTANG2
 40
1.570796326794897
  9
$LOFTMAG1
 40
0.0
  9
$LOFTMAG2
 40
0.0
  9
$LOFTPARAM
 70
     7
  9
$LOFTNORMALS
280
     1
  9
$LATITUDE
 40
37.795
  9
$LONGITUDE
 40
-122.394
  9
$NORTHDIRECTION
 40
0.0
  9
$TIMEZONE
 70
 -8000
  9
$LIGHTGLYPHDISPLAY
280
     1
  9
$TILEMODELIGHTSYNCH
280
     1
  9
$CMATERIAL
347
96
  9
$SOLIDHIST
280
     1
  9
$SHOWHIST
280
     1
  9
$DWFFRAME
280
     2
  9
$DGNFRAME
280
     0
  9
$REALWORLDSCALE
290
     1
  9
$INTERFERECOLOR
 62
     1
  9
$CSHADOW
280
     0
  9
$SHADOWPLANELOCATION
 40
0.0
  0
ENDSEC
  0
SECTION
  2
CLASSES
  0
CLASS
  1
ACDBDICTIONARYWDFLT
  2
AcDbDictionaryWithDefault
  3
ObjectDBX Classes
 90
        0
 91
        5
280
     0
281
     0
  0
CLASS
  1
ACDBPLACEHOLDER
  2
AcDbPlaceHolder
  3
ObjectDBX Classes
 90
        0
 91
        1
280
     0
281
     0
  0
CLASS
  1
LAYOUT
  2
AcDbLayout
  3
ObjectDBX Classes
 90
        0
 91
        1
280
     0
281
     0
  0
CLASS
  1
DICTIONARYVAR
  2
AcDbDictionaryVar
  3
ObjectDBX Classes
 90
        0
 91
        4
280
     0
281
     0
  0
CLASS
  1
TABLESTYLE
  2
AcDbTableStyle
  3
ObjectDBX Classes
 90
     4095
 91
        5
280
     0
281
     0
  0
CLASS
  1
MATERIAL
  2
AcDbMaterial
  3
ObjectDBX Classes
 90
     1153
 91
        5
280
     0
281
     0
  0
CLASS
  1
VISUALSTYLE
  2
AcDbVisualStyle
  3
ObjectDBX Classes
 90
     4095
 91
        5
280
     0
281
     0
  0
CLASS
  1
SCALE
  2
AcDbScale
  3
ObjectDBX Classes
 90
     1153
 91
        5
280
     0
281
     0
  0
CLASS
  1
CELLSTYLEMAP
  2
AcDbCellStyleMap
  3
ObjectDBX Classes
 90
     1152
 91
        4
280
     0
281
     0
  0
CLASS
  1
RASTERVARIABLES
  2
AcDbRasterVariables
  3
ISM
 90
        0
 91
        5
280
     0
281
     0
  0
CLASS
  1
SUN
  2
AcDbSun
  3
SCENEOE
 90
     1153
 91
        5
280
     0
281
     0
  0
CLASS
  1
DIMASSOC
  2
AcDbDimAssoc
  3
"AcDbDimAssoc|Product Desc:     AcDim ARX App For Dimension|Company:          Autodesk, Inc.|WEB Address:      www.autodesk.com"
 90
        0
 91
        4
280
     0
281
     0
  0
ENDSEC
  0
SECTION
  2
TABLES
  0
TABLE
  2
VPORT
  5
8
330
0
100
AcDbSymbolTable
 70
     1
  0
VPORT
  5
94
330
8
100
AcDbSymbolTableRecord
100
AcDbViewportTableRecord
  2
*Active
 70
     0
 10
0.0
 20
0.0
 11
1.0
 21
1.0
 12
430.5247177594142
 22
447.3098759825181
 13
0.0
 23
0.0
 14
0.5
 24
0.5
 15
0.5
 25
0.5
 16
0.0
 26
0.0
 36
1.0
 17
-27.66959356597999
 27
-19.53870295786197
 37
0.0
 40
209.5823090333411
 41
1.762376237623762
 42
50.0
 43
0.0
 44
0.0
 50
0.0
 51
0.0
 71
    16
 72
  1000
 73
     1
 74
     3
 75
     0
 76
     0
 77
     0
 78
     0
281
     0
 65
     1
110
0.0
120
0.0
130
0.0
111
1.0
121
0.0
131
0.0
112
0.0
122
1.0
132
0.0
 79
     0
146
0.0
348
9F
 60
     2
 61
     5
292
     1
282
     1
141
0.0
142
0.0
 63
   250
421
  3355443
361
ED
  0
ENDTAB
  0
TABLE
  2
LTYPE
  5
5
330
0
100
AcDbSymbolTable
 70
     2
  0
LTYPE
  5
14
330
5
100
AcDbSymbolTableRecord
100
AcDbLinetypeTableRecord
  2
ByBlock
 70
     0
  3

 72
    65
 73
     0
 40
0.0
  0
LTYPE
  5
15
330
5
100
AcDbSymbolTableRecord
100
AcDbLinetypeTableRecord
  2
ByLayer
 70
     0
  3

 72
    65
 73
     0
 40
0.0
  0
LTYPE
  5
16
330
5
100
AcDbSymbolTableRecord
100
AcDbLinetypeTableRecord
  2
Continuous
 70
     0
  3
Solid line
 72
    65
 73
     0
 40
0.0
  0
LTYPE
  5
12A
330
5
100
AcDbSymbolTableRecord
100
AcDbLinetypeTableRecord
  2
CENTER
 70
     0
  3
Center ____ _ ____ _ ____ _ ____ _ ____ _ ____
 72
    65
 73
     4
 40
50.8
 49
31.75
 74
     0
 49
-6.35
 74
     0
 49
6.35
 74
     0
 49
-6.35
 74
     0
  0
ENDTAB
  0
TABLE
  2
LAYER
  5
2
330
0
100
AcDbSymbolTable
 70
     7
  0
LAYER
  5
10
330
2
100
AcDbSymbolTableRecord
100
AcDbLayerTableRecord
  2
0
 70
     0
 62
     7
  6
Continuous
370
    -3
390
F
347
98
348
0
  0
LAYER
  5
125
330
2
100
AcDbSymbolTableRecord
100
AcDbLayerTableRecord
  2
Defpoints
 70
     0
 62
     7
  6
Continuous
290
     0
370
    -3
390
F
347
98
348
0
  0
LAYER
  5
126
330
2
100
AcDbSymbolTableRecord
100
AcDbLayerTableRecord
  2
枠
 70
     0
 62
     1
  6
Continuous
370
    30
390
F
347
98
348
0
  0
LAYER
  5
128
330
2
100
AcDbSymbolTableRecord
100
AcDbLayerTableRecord
  2
文字
 70
     0
 62
     7
  6
Continuous
370
    25
390
F
347
98
348
0
  0
LAYER
  5
129
330
2
100
AcDbSymbolTableRecord
100
AcDbLayerTableRecord
  2
中心線
 70
     0
 62
     7
  6
CENTER
370
    30
390
F
347
98
348
0
  0
LAYER
  5
12B
330
2
100
AcDbSymbolTableRecord
100
AcDbLayerTableRecord
  2
実線
 70
     0
 62
     7
  6
Continuous
370
    50
390
F
347
98
348
0
  0
LAYER
  5
31E
330
2
100
AcDbSymbolTableRecord
100
AcDbLayerTableRecord
  2
文字・寸法線
 70
     0
 62
     7
  6
Continuous
370
    13
390
F
347
98
348
0
  0
ENDTAB
  0
TABLE
  2
STYLE
  5
3
330
0
100
AcDbSymbolTable
 70
     1
  0
STYLE
  5
11
330
3
100
AcDbSymbolTableRecord
100
AcDbTextStyleTableRecord
  2
Standard
 70
     0
 40
0.0
 41
1.0
 50
0.0
 71
     0
 42
0.2
  3
arial.ttf
  4

1001
ACAD
1000
Arial
1071
        0
  0
ENDTAB
  0
TABLE
  2
VIEW
  5
6
330
0
100
AcDbSymbolTable
 70
     0
  0
ENDTAB
  0
TABLE
  2
UCS
  5
7
330
0
100
AcDbSymbolTable
 70
     0
  0
ENDTAB
  0
TABLE
  2
APPID
  5
9
330
0
100
AcDbSymbolTable
 70
     1
  0
APPID
  5
12
330
9
100
AcDbSymbolTableRecord
100
AcDbRegAppTableRecord
  2
ACAD
 70
     0
  0
ENDTAB
  0
TABLE
  2
DIMSTYLE
  5
A
330
0
100
AcDbSymbolTable
 70
     2
100
AcDbDimStyleTable
  0
DIMSTYLE
105
27
330
A
100
AcDbSymbolTableRecord
100
AcDbDimStyleTableRecord
  2
Standard
 70
     0
178
     0
340
11
  0
DIMSTYLE
105
12C
102
{ACAD_REACTORS
330
257
330
25E
330
26C
330
272
330
296
330
389
330
397
330
3BF
330
3C1
102
}
330
A
100
AcDbSymbolTableRecord
100
AcDbDimStyleTableRecord
  2
ISO-25
 70
     0
 41
2.5
 42
0.625
 43
3.75
 44
1.25
 73
     0
 74
     0
 77
     1
 78
     8
140
2.5
141
2.5
143
0.03937007874016
147
0.625
171
     3
172
     1
178
     0
271
     2
272
     2
274
     3
283
     0
284
     8
340
11
  0
ENDTAB
  0
TABLE
  2
BLOCK_RECORD
  5
1
330
0
100
AcDbSymbolTable
 70
    26
  0
BLOCK_RECORD
  5
1F
330
1
100
AcDbSymbolTableRecord
100
AcDbBlockTableRecord
  2
*Model_Space
340
22
 70
     0
280
     1
281
     0
  0
BLOCK_RECORD
  5
58
330
1
100
AcDbSymbolTableRecord
100
AcDbBlockTableRecord
  2
*Paper_Space
340
59
 70
     0
280
     1
281
     0
  0
BLOCK_RECORD
  5
5D
330
1
100
AcDbSymbolTableRecord
100
AcDbBlockTableRecord
  2
*Paper_Space0
340
5E
 70
     0
280
     1
281
     0
  0
BLOCK_RECORD
  5
171
330
1
100
AcDbSymbolTableRecord
100
AcDbBlockTableRecord
  2
*D1
340
0
 70
     0
280
     1
281
     0
  0
BLOCK_RECORD
  5
184
330
1
100
AcDbSymbolTableRecord
100
AcDbBlockTableRecord
  2
*D2
340
0
 70
     0
280
     1
281
     0
  0
BLOCK_RECORD
  5
19E
330
1
100
AcDbSymbolTableRecord
100
AcDbBlockTableRecord
  2
*D3
340
0
 70
     0
280
     1
281
     0
  0
BLOCK_RECORD
  5
1B0
330
1
100
AcDbSymbolTableRecord
100
AcDbBlockTableRecord
  2
*D4
340
0
 70
     0
280
     1
281
     0
  0
BLOCK_RECORD
  5
1D8
330
1
100
AcDbSymbolTableRecord
100
AcDbBlockTableRecord
  2
*D5
340
0
 70
     0
280
     1
281
     0
  0
BLOCK_RECORD
  5
1E7
330
1
100
AcDbSymbolTableRecord
100
AcDbBlockTableRecord
  2
*D6
340
0
 70
     0
280
     1
281
     0
  0
BLOCK_RECORD
  5
1F8
330
1
100
AcDbSymbolTableRecord
100
AcDbBlockTableRecord
  2
*D7
340
0
 70
     0
280
     1
281
     0
  0
BLOCK_RECORD
  5
207
330
1
100
AcDbSymbolTableRecord
100
AcDbBlockTableRecord
  2
*D8
340
0
 70
     0
280
     1
281
     0
  0
BLOCK_RECORD
  5
216
330
1
100
AcDbSymbolTableRecord
100
AcDbBlockTableRecord
  2
*D9
340
0
 70
     0
280
     1
281
     0
  0
BLOCK_RECORD
  5
225
330
1
100
AcDbSymbolTableRecord
100
AcDbBlockTableRecord
  2
*D10
340
0
 70
     0
280
     1
281
     0
  0
BLOCK_RECORD
  5
2A2
330
1
100
AcDbSymbolTableRecord
100
AcDbBlockTableRecord
  2
*D11
340
0
 70
     0
280
     1
281
     0
  0
BLOCK_RECORD
  5
2AE
330
1
100
AcDbSymbolTableRecord
100
AcDbBlockTableRecord
  2
*D12
340
0
 70
     0
280
     1
281
     0
  0
BLOCK_RECORD
  5
2BA
330
1
100
AcDbSymbolTableRecord
100
AcDbBlockTableRecord
  2
*D13
340
0
 70
     0
280
     1
281
     0
  0
BLOCK_RECORD
  5
2C6
330
1
100
AcDbSymbolTableRecord
100
AcDbBlockTableRecord
  2
*D14
340
0
 70
     0
280
     1
281
     0
  0
BLOCK_RECORD
  5
2D2
330
1
100
AcDbSymbolTableRecord
100
AcDbBlockTableRecord
  2
*D15
340
0
 70
     0
280
     1
281
     0
  0
BLOCK_RECORD
  5
2DE
330
1
100
AcDbSymbolTableRecord
100
AcDbBlockTableRecord
  2
*D16
340
0
 70
     0
280
     1
281
     0
  0
BLOCK_RECORD
  5
2EA
330
1
100
AcDbSymbolTableRecord
100
AcDbBlockTableRecord
  2
*D17
340
0
 70
     0
280
     1
281
     0
  0
BLOCK_RECORD
  5
2F6
330
1
100
AcDbSymbolTableRecord
100
AcDbBlockTableRecord
  2
*D18
340
0
 70
     0
280
     1
281
     0
  0
BLOCK_RECORD
  5
302
330
1
100
AcDbSymbolTableRecord
100
AcDbBlockTableRecord
  2
*D19
340
0
 70
     0
280
     1
281
     0
  0
BLOCK_RECORD
  5
30E
330
1
100
AcDbSymbolTableRecord
100
AcDbBlockTableRecord
  2
*D20
340
0
 70
     0
280
     1
281
     0
  0
BLOCK_RECORD
  5
38B
330
1
100
AcDbSymbolTableRecord
100
AcDbBlockTableRecord
  2
*D22
340
0
 70
     0
280
     1
281
     0
  0
BLOCK_RECORD
  5
399
330
1
100
AcDbSymbolTableRecord
100
AcDbBlockTableRecord
  2
*D23
340
0
 70
     0
280
     1
281
     0
  0
BLOCK_RECORD
  5
3C3
330
1
100
AcDbSymbolTableRecord
100
AcDbBlockTableRecord
  2
*D24
340
0
 70
     0
280
     1
281
     0
  0
BLOCK_RECORD
  5
3CF
330
1
100
AcDbSymbolTableRecord
100
AcDbBlockTableRecord
  2
*D25
340
0
 70
     0
280
     1
281
     0
  0
ENDTAB
  0
ENDSEC
  0
SECTION
  2
BLOCKS
  0
BLOCK
  5
20
330
1F
100
AcDbEntity
  8
0
100
AcDbBlockBegin
  2
*Model_Space
 70
     0
 10
0.0
 20
0.0
 30
0.0
  3
*Model_Space
  1
*Model_Space
  0
ENDBLK
  5
21
330
1F
100
AcDbEntity
  8
0
100
AcDbBlockEnd
  0
BLOCK
  5
5A
330
58
100
AcDbEntity
 67
     1
  8
0
100
AcDbBlockBegin
  2
*Paper_Space
 70
     0
 10
0.0
 20
0.0
 30
0.0
  3
*Paper_Space
  1
*Paper_Space
  0
ENDBLK
  5
5B
330
58
100
AcDbEntity
 67
     1
  8
0
100
AcDbBlockEnd
  0
BLOCK
  5
5F
330
5D
100
AcDbEntity
  8
0
100
AcDbBlockBegin
  2
*Paper_Space0
 70
     0
 10
0.0
 20
0.0
 30
0.0
  3
*Paper_Space0
  1
*Paper_Space0
  0
ENDBLK
  5
60
330
5D
100
AcDbEntity
  8
0
100
AcDbBlockEnd
  0
BLOCK
  5
172
330
171
100
AcDbEntity
  8
0
100
AcDbBlockBegin
  2
*D1
 70
     1
 10
0.0
 20
0.0
 30
0.0
  3
*D1
  1
*D2
  0
LINE
  5
173
330
171
100
AcDbEntity
  8
文字
 62
     0
370
    -2
100
AcDbLine
 10
19.99999999915261
 20
162.0228791048175
 30
0.0
 11
19.99999999915261
 21
178.1381305871583
 31
0.0
  0
LINE
  5
174
330
171
100
AcDbEntity
  8
文字
 62
     0
370
    -2
100
AcDbLine
 10
39.99999999915261
 20
162.0228791048175
 30
0.0
 11
39.99999999915261
 21
178.1381305871583
 31
0.0
  0
LINE
  5
175
330
171
100
AcDbEntity
  8
文字
 62
     0
370
    -2
100
AcDbLine
 10
22.49999999915261
 20
176.8881305871583
 30
0.0
 11
37.49999999915261
 21
176.8881305871583
 31
0.0
  0
SOLID
  5
176
330
171
100
AcDbEntity
  8
文字
 62
     0
100
AcDbTrace
 10
22.49999999915261
 20
177.304797253825
 30
0.0
 11
22.49999999915261
 21
176.4714639204917
 31
0.0
 12
19.99999999915261
 22
176.8881305871583
 32
0.0
 13
19.99999999915261
 23
176.8881305871583
 33
0.0
  0
SOLID
  5
177
330
171
100
AcDbEntity
  8
文字
 62
     0
100
AcDbTrace
 10
37.49999999915261
 20
176.4714639204917
 30
0.0
 11
37.49999999915261
 21
177.304797253825
 31
0.0
 12
39.99999999915261
 22
176.8881305871583
 32
0.0
 13
39.99999999915261
 23
176.8881305871583
 33
0.0
  0
MTEXT
  5
178
330
171
100
AcDbEntity
  8
文字
 62
     0
100
AcDbMText
 10
29.99999999915261
 20
178.7887103961624
 30
0.0
 40
2.5
 41
0.0
 46
0.0
 71
     5
 72
     1
  1
{\fArial|b0|i0|c0|p32;M}20
 73
     1
 44
1.0
  0
POINT
  5
179
330
171
100
AcDbEntity
  8
Defpoints
 62
     0
100
AcDbPoint
 10
19.99999999915261
 20
161.3978791048175
 30
0.0
  0
POINT
  5
17A
330
171
100
AcDbEntity
  8
Defpoints
 62
     0
100
AcDbPoint
 10
39.99999999915261
 20
161.3978791048175
 30
0.0
  0
POINT
  5
17B
330
171
100
AcDbEntity
  8
Defpoints
 62
     0
100
AcDbPoint
 10
39.99999999915261
 20
176.8881305871583
 30
0.0
  0
ENDBLK
  5
17C
330
171
100
AcDbEntity
  8
0
100
AcDbBlockEnd
  0
BLOCK
  5
185
330
184
100
AcDbEntity
  8
0
100
AcDbBlockBegin
  2
*D2
 70
     1
 10
0.0
 20
0.0
 30
0.0
  3
*D2
  1
*D3
  0
LINE
  5
186
330
184
100
AcDbEntity
  8
文字
 62
     0
370
    -2
100
AcDbLine
 10
47.92499999915265
 20
63.39787910481746
 30
0.0
 11
81.4731320269293
 21
63.39787910481746
 31
0.0
  0
LINE
  5
187
330
184
100
AcDbEntity
  8
文字
 62
     0
370
    -2
100
AcDbLine
 10
47.92499999915265
 20
50.39787910481746
 30
0.0
 11
81.4731320269293
 21
50.39787910481746
 31
0.0
  0
LINE
  5
188
330
184
100
AcDbEntity
  8
文字
 62
     0
370
    -2
100
AcDbLine
 10
80.2231320269293
 20
60.89787910481746
 30
0.0
 11
80.2231320269293
 21
52.89787910481746
 31
0.0
  0
SOLID
  5
189
330
184
100
AcDbEntity
  8
文字
 62
     0
100
AcDbTrace
 10
80.63979869359598
 20
60.89787910481746
 30
0.0
 11
79.80646536026264
 21
60.89787910481746
 31
0.0
 12
80.2231320269293
 22
63.39787910481746
 32
0.0
 13
80.2231320269293
 23
63.39787910481746
 33
0.0
  0
SOLID
  5
18A
330
184
100
AcDbEntity
  8
文字
 62
     0
100
AcDbTrace
 10
79.80646536026264
 20
52.89787910481746
 30
0.0
 11
80.63979869359598
 21
52.89787910481746
 31
0.0
 12
80.2231320269293
 22
50.39787910481746
 32
0.0
 13
80.2231320269293
 23
50.39787910481746
 33
0.0
  0
MTEXT
  5
18B
330
184
100
AcDbEntity
  8
文字
 62
     0
100
AcDbMText
 10
78.32255221792522
 20
56.89787910481746
 30
0.0
 40
2.5
 41
0.0
 46
0.0
 71
     5
 72
     1
  1
13
 11
0.0
 21
1.0
 31
0.0
 73
     1
 44
1.0
  0
POINT
  5
18C
330
184
100
AcDbEntity
  8
Defpoints
 62
     0
100
AcDbPoint
 10
47.29999999915265
 20
63.39787910481746
 30
0.0
  0
POINT
  5
18D
330
184
100
AcDbEntity
  8
Defpoints
 62
     0
100
AcDbPoint
 10
47.29999999915265
 20
50.39787910481746
 30
0.0
  0
POINT
  5
18E
330
184
100
AcDbEntity
  8
Defpoints
 62
     0
100
AcDbPoint
 10
80.2231320269293
 20
50.39787910481746
 30
0.0
  0
ENDBLK
  5
18F
330
184
100
AcDbEntity
  8
0
100
AcDbBlockEnd
  0
BLOCK
  5
19F
330
19E
100
AcDbEntity
  8
0
100
AcDbBlockBegin
  2
*D3
 70
     1
 10
0.0
 20
0.0
 30
0.0
  3
*D3
  1
*D4
  0
LINE
  5
1A0
330
19E
100
AcDbEntity
  8
文字
 62
     0
370
    -2
100
AcDbLine
 10
38.62499999915261
 20
163.3978791048175
 30
0.0
 11
81.4731320269293
 21
163.3978791048175
 31
0.0
  0
LINE
  5
1A1
330
19E
100
AcDbEntity
  8
文字
 62
     0
370
    -2
100
AcDbLine
 10
48.54999999915265
 20
63.39787910481745
 30
0.0
 11
81.4731320269293
 21
63.39787910481745
 31
0.0
  0
LINE
  5
1A2
330
19E
100
AcDbEntity
  8
文字
 62
     0
370
    -2
100
AcDbLine
 10
80.2231320269293
 20
160.8978791048175
 30
0.0
 11
80.2231320269293
 21
65.89787910481745
 31
0.0
  0
SOLID
  5
1A3
330
19E
100
AcDbEntity
  8
文字
 62
     0
100
AcDbTrace
 10
80.63979869359598
 20
160.8978791048175
 30
0.0
 11
79.80646536026264
 21
160.8978791048175
 31
0.0
 12
80.2231320269293
 22
163.3978791048175
 32
0.0
 13
80.2231320269293
 23
163.3978791048175
 33
0.0
  0
SOLID
  5
1A4
330
19E
100
AcDbEntity
  8
文字
 62
     0
100
AcDbTrace
 10
79.80646536026264
 20
65.89787910481745
 30
0.0
 11
80.63979869359598
 21
65.89787910481745
 31
0.0
 12
80.2231320269293
 22
63.39787910481745
 32
0.0
 13
80.2231320269293
 23
63.39787910481745
 33
0.0
  0
MTEXT
  5
1A5
330
19E
100
AcDbEntity
  8
文字
 62
     0
100
AcDbMText
 10
78.3225522179252
 20
113.3978791048175
 30
0.0
 40
2.5
 41
0.0
 46
0.0
 71
     5
 72
     1
  1
100
 11
0.0
 21
1.0
 31
0.0
 73
     1
 44
1.0
  0
POINT
  5
1A6
330
19E
100
AcDbEntity
  8
Defpoints
 62
     0
100
AcDbPoint
 10
37.99999999915261
 20
163.3978791048175
 30
0.0
  0
POINT
  5
1A7
330
19E
100
AcDbEntity
  8
Defpoints
 62
     0
100
AcDbPoint
 10
47.92499999915265
 20
63.39787910481745
 30
0.0
  0
POINT
  5
1A8
330
19E
100
AcDbEntity
  8
Defpoints
 62
     0
100
AcDbPoint
 10
80.2231320269293
 20
63.39787910481745
 30
0.0
  0
ENDBLK
  5
1A9
330
19E
100
AcDbEntity
  8
0
100
AcDbBlockEnd
  0
BLOCK
  5
1B1
330
1B0
100
AcDbEntity
  8
0
100
AcDbBlockBegin
  2
*D4
 70
     1
 10
0.0
 20
0.0
 30
0.0
  3
*D4
  1
*D5
  0
LINE
  5
1B2
330
1B0
100
AcDbEntity
  8
文字
 62
     0
370
    -2
100
AcDbLine
 10
148.9860644318631
 20
107.7400064259956
 30
0.0
 11
148.9860644318631
 21
67.75025302861654
 31
0.0
  0
LINE
  5
1B3
330
1B0
100
AcDbEntity
  8
文字
 62
     0
370
    -2
100
AcDbLine
 10
178.9505434028047
 20
107.7400064259956
 30
0.0
 11
178.9505434028047
 21
67.75025302861654
 31
0.0
  0
LINE
  5
1B4
330
1B0
100
AcDbEntity
  8
文字
 62
     0
370
    -2
100
AcDbLine
 10
151.4860644318631
 20
69.00025302861654
 30
0.0
 11
176.4505434028047
 21
69.00025302861654
 31
0.0
  0
SOLID
  5
1B5
330
1B0
100
AcDbEntity
  8
文字
 62
     0
100
AcDbTrace
 10
151.4860644318631
 20
69.41691969528321
 30
0.0
 11
151.4860644318631
 21
68.58358636194987
 31
0.0
 12
148.9860644318631
 22
69.00025302861654
 32
0.0
 13
148.9860644318631
 23
69.00025302861654
 33
0.0
  0
SOLID
  5
1B6
330
1B0
100
AcDbEntity
  8
文字
 62
     0
100
AcDbTrace
 10
176.4505434028047
 20
68.58358636194987
 30
0.0
 11
176.4505434028047
 21
69.41691969528321
 31
0.0
 12
178.9505434028047
 22
69.00025302861654
 32
0.0
 13
178.9505434028047
 23
69.00025302861654
 33
0.0
  0
MTEXT
  5
1B7
330
1B0
100
AcDbEntity
  8
文字
 62
     0
100
AcDbMText
 10
163.9683039173339
 20
70.90083283762064
 30
0.0
 40
2.5
 41
0.0
 46
0.0
 71
     5
 72
     1
  1
30
 73
     1
 44
1.0
  0
POINT
  5
1B8
330
1B0
100
AcDbEntity
  8
Defpoints
 62
     0
100
AcDbPoint
 10
148.9860644318631
 20
108.3650064259956
 30
0.0
  0
POINT
  5
1B9
330
1B0
100
AcDbEntity
  8
Defpoints
 62
     0
100
AcDbPoint
 10
178.9505434028047
 20
108.3650064259956
 30
0.0
  0
POINT
  5
1BA
330
1B0
100
AcDbEntity
  8
Defpoints
 62
     0
100
AcDbPoint
 10
178.9505434028047
 20
69.00025302861654
 30
0.0
  0
ENDBLK
  5
1BB
330
1B0
100
AcDbEntity
  8
0
100
AcDbBlockEnd
  0
BLOCK
  5
1D9
330
1D8
100
AcDbEntity
  8
0
100
AcDbBlockBegin
  2
*D5
 70
     1
 10
0.0
 20
0.0
 30
0.0
  3
*D5
  1
*D6
  0
LINE
  5
1DA
330
1D8
100
AcDbEntity
  8
文字
 62
     0
370
    -2
100
AcDbLine
 10
58.625
 20
29.39787910481746
 30
0.0
 11
81.4731320269293
 21
29.39787910481746
 31
0.0
  0
LINE
  5
1DB
330
1D8
100
AcDbEntity
  8
文字
 62
     0
370
    -2
100
AcDbLine
 10
48.54999999915265
 20
50.39787910481746
 30
0.0
 11
81.4731320269293
 21
50.39787910481746
 31
0.0
  0
LINE
  5
1DC
330
1D8
100
AcDbEntity
  8
文字
 62
     0
370
    -2
100
AcDbLine
 10
80.2231320269293
 20
31.89787910481746
 30
0.0
 11
80.2231320269293
 21
47.89787910481746
 31
0.0
  0
SOLID
  5
1DD
330
1D8
100
AcDbEntity
  8
文字
 62
     0
100
AcDbTrace
 10
79.80646536026264
 20
31.89787910481746
 30
0.0
 11
80.63979869359598
 21
31.89787910481746
 31
0.0
 12
80.2231320269293
 22
29.39787910481746
 32
0.0
 13
80.2231320269293
 23
29.39787910481746
 33
0.0
  0
SOLID
  5
1DE
330
1D8
100
AcDbEntity
  8
文字
 62
     0
100
AcDbTrace
 10
80.63979869359598
 20
47.89787910481746
 30
0.0
 11
79.80646536026264
 21
47.89787910481746
 31
0.0
 12
80.2231320269293
 22
50.39787910481746
 32
0.0
 13
80.2231320269293
 23
50.39787910481746
 33
0.0
  0
MTEXT
  5
1DF
330
1D8
100
AcDbEntity
  8
文字
 62
     0
100
AcDbMText
 10
78.3430160651285
 20
39.89787910481746
 30
0.0
 40
2.5
 41
0.0
 46
0.0
 71
     5
 72
     1
  1
21
 11
0.0
 21
1.0
 31
0.0
 73
     1
 44
1.0
  0
POINT
  5
1E0
330
1D8
100
AcDbEntity
  8
Defpoints
 62
     0
100
AcDbPoint
 10
58.0
 20
29.39787910481746
 30
0.0
  0
POINT
  5
1E1
330
1D8
100
AcDbEntity
  8
Defpoints
 62
     0
100
AcDbPoint
 10
47.92499999915265
 20
50.39787910481746
 30
0.0
  0
POINT
  5
1E2
330
1D8
100
AcDbEntity
  8
Defpoints
 62
     0
100
AcDbPoint
 10
80.2231320269293
 20
50.39787910481746
 30
0.0
  0
ENDBLK
  5
1E3
330
1D8
100
AcDbEntity
  8
0
100
AcDbBlockEnd
  0
BLOCK
  5
1E8
330
1E7
100
AcDbEntity
  8
0
100
AcDbBlockBegin
  2
*D6
 70
     1
 10
0.0
 20
0.0
 30
0.0
  3
*D6
  1
*D7
  0
LINE
  5
1E9
330
1E7
100
AcDbEntity
  8
文字
 62
     0
370
    -2
100
AcDbLine
 10
2.0
 20
28.77287910481746
 30
0.0
 11
2.0
 21
8.752394733246135
 31
0.0
  0
LINE
  5
1EA
330
1E7
100
AcDbEntity
  8
文字
 62
     0
370
    -2
100
AcDbLine
 10
58.0
 20
28.77287910481746
 30
0.0
 11
58.0
 21
8.752394733246135
 31
0.0
  0
LINE
  5
1EB
330
1E7
100
AcDbEntity
  8
文字
 62
     0
370
    -2
100
AcDbLine
 10
4.5
 20
10.00239473324613
 30
0.0
 11
55.5
 21
10.00239473324613
 31
0.0
  0
SOLID
  5
1EC
330
1E7
100
AcDbEntity
  8
文字
 62
     0
100
AcDbTrace
 10
4.5
 20
10.4190613999128
 30
0.0
 11
4.5
 21
9.585728066579469
 31
0.0
 12
2.0
 22
10.00239473324613
 32
0.0
 13
2.0
 23
10.00239473324613
 33
0.0
  0
SOLID
  5
1ED
330
1E7
100
AcDbEntity
  8
文字
 62
     0
100
AcDbTrace
 10
55.5
 20
9.585728066579469
 30
0.0
 11
55.5
 21
10.4190613999128
 31
0.0
 12
58.0
 22
10.00239473324613
 32
0.0
 13
58.0
 23
10.00239473324613
 33
0.0
  0
MTEXT
  5
1EE
330
1E7
100
AcDbEntity
  8
文字
 62
     0
100
AcDbMText
 10
30.0
 20
11.95072351905787
 30
0.0
 40
2.5
 41
0.0
 46
0.0
 71
     5
 72
     1
  1
%%c56
 73
     1
 44
1.0
  0
POINT
  5
1EF
330
1E7
100
AcDbEntity
  8
Defpoints
 62
     0
100
AcDbPoint
 10
2.0
 20
29.39787910481746
 30
0.0
  0
POINT
  5
1F0
330
1E7
100
AcDbEntity
  8
Defpoints
 62
     0
100
AcDbPoint
 10
58.0
 20
29.39787910481746
 30
0.0
  0
POINT
  5
1F1
330
1E7
100
AcDbEntity
  8
Defpoints
 62
     0
100
AcDbPoint
 10
58.0
 20
10.00239473324613
 30
0.0
  0
ENDBLK
  5
1F2
330
1E7
100
AcDbEntity
  8
0
100
AcDbBlockEnd
  0
BLOCK
  5
1F9
330
1F8
100
AcDbEntity
  8
0
100
AcDbBlockBegin
  2
*D7
 70
     1
 10
0.0
 20
0.0
 30
0.0
  3
*D7
  1
*D8
  0
LINE
  5
1FA
330
1F8
100
AcDbEntity
  8
文字
 62
     0
370
    -2
100
AcDbLine
 10
143.9683039173339
 20
116.3900064259956
 30
0.0
 11
143.9683039173339
 21
57.01993145786763
 31
0.0
  0
LINE
  5
1FB
330
1F8
100
AcDbEntity
  8
文字
 62
     0
370
    -2
100
AcDbLine
 10
183.9683039173339
 20
116.3900064259956
 30
0.0
 11
183.9683039173339
 21
57.01993145786763
 31
0.0
  0
LINE
  5
1FC
330
1F8
100
AcDbEntity
  8
文字
 62
     0
370
    -2
100
AcDbLine
 10
146.4683039173339
 20
58.26993145786763
 30
0.0
 11
181.4683039173339
 21
58.26993145786763
 31
0.0
  0
SOLID
  5
1FD
330
1F8
100
AcDbEntity
  8
文字
 62
     0
100
AcDbTrace
 10
146.4683039173339
 20
58.68659812453429
 30
0.0
 11
146.4683039173339
 21
57.85326479120096
 31
0.0
 12
143.9683039173339
 22
58.26993145786763
 32
0.0
 13
143.9683039173339
 23
58.26993145786763
 33
0.0
  0
SOLID
  5
1FE
330
1F8
100
AcDbEntity
  8
文字
 62
     0
100
AcDbTrace
 10
181.4683039173339
 20
57.85326479120096
 30
0.0
 11
181.4683039173339
 21
58.68659812453429
 31
0.0
 12
183.9683039173339
 22
58.26993145786763
 32
0.0
 13
183.9683039173339
 23
58.26993145786763
 33
0.0
  0
MTEXT
  5
1FF
330
1F8
100
AcDbEntity
  8
文字
 62
     0
100
AcDbMText
 10
164.0021194548424
 20
60.21826024367936
 30
0.0
 40
2.5
 41
0.0
 46
0.0
 71
     5
 72
     1
  1
%%c40
 73
     1
 44
1.0
  0
POINT
  5
200
330
1F8
100
AcDbEntity
  8
Defpoints
 62
     0
100
AcDbPoint
 10
143.9683039173339
 20
117.0150064259956
 30
0.0
  0
POINT
  5
201
330
1F8
100
AcDbEntity
  8
Defpoints
 62
     0
100
AcDbPoint
 10
183.9683039173339
 20
117.0150064259956
 30
0.0
  0
POINT
  5
202
330
1F8
100
AcDbEntity
  8
Defpoints
 62
     0
100
AcDbPoint
 10
183.9683039173339
 20
58.26993145786763
 30
0.0
  0
ENDBLK
  5
203
330
1F8
100
AcDbEntity
  8
0
100
AcDbBlockEnd
  0
BLOCK
  5
208
330
207
100
AcDbEntity
  8
0
100
AcDbBlockBegin
  2
*D8
 70
     1
 10
0.0
 20
0.0
 30
0.0
  3
*D8
  1
*D9
  0
LINE
  5
209
330
207
100
AcDbEntity
  8
文字
 62
     0
370
    -2
100
AcDbLine
 10
133.9683039173339
 20
116.3900064259956
 30
0.0
 11
133.9683039173339
 21
48.30720955382724
 31
0.0
  0
LINE
  5
20A
330
207
100
AcDbEntity
  8
文字
 62
     0
370
    -2
100
AcDbLine
 10
193.9683039173339
 20
116.3900064259956
 30
0.0
 11
193.9683039173339
 21
48.30720955382724
 31
0.0
  0
LINE
  5
20B
330
207
100
AcDbEntity
  8
文字
 62
     0
370
    -2
100
AcDbLine
 10
136.4683039173339
 20
49.55720955382724
 30
0.0
 11
191.4683039173339
 21
49.55720955382724
 31
0.0
  0
SOLID
  5
20C
330
207
100
AcDbEntity
  8
文字
 62
     0
100
AcDbTrace
 10
136.4683039173339
 20
49.9738762204939
 30
0.0
 11
136.4683039173339
 21
49.14054288716057
 31
0.0
 12
133.9683039173339
 22
49.55720955382724
 32
0.0
 13
133.9683039173339
 23
49.55720955382724
 33
0.0
  0
SOLID
  5
20D
330
207
100
AcDbEntity
  8
文字
 62
     0
100
AcDbTrace
 10
191.4683039173339
 20
49.14054288716057
 30
0.0
 11
191.4683039173339
 21
49.9738762204939
 31
0.0
 12
193.9683039173339
 22
49.55720955382724
 32
0.0
 13
193.9683039173339
 23
49.55720955382724
 33
0.0
  0
MTEXT
  5
20E
330
207
100
AcDbEntity
  8
文字
 62
     0
100
AcDbMText
 10
163.9683039173339
 20
51.50553833963897
 30
0.0
 40
2.5
 41
0.0
 46
0.0
 71
     5
 72
     1
  1
%%c60
 73
     1
 44
1.0
  0
POINT
  5
20F
330
207
100
AcDbEntity
  8
Defpoints
 62
     0
100
AcDbPoint
 10
133.9683039173339
 20
117.0150064259956
 30
0.0
  0
POINT
  5
210
330
207
100
AcDbEntity
  8
Defpoints
 62
     0
100
AcDbPoint
 10
193.9683039173339
 20
117.0150064259956
 30
0.0
  0
POINT
  5
211
330
207
100
AcDbEntity
  8
Defpoints
 62
     0
100
AcDbPoint
 10
193.9683039173339
 20
49.55720955382724
 30
0.0
  0
ENDBLK
  5
212
330
207
100
AcDbEntity
  8
0
100
AcDbBlockEnd
  0
BLOCK
  5
217
330
216
100
AcDbEntity
  8
0
100
AcDbBlockBegin
  2
*D9
 70
     1
 10
0.0
 20
0.0
 30
0.0
  3
*D9
  1
*D10
  0
LINE
  5
218
330
216
100
AcDbEntity
  8
文字
 62
     0
370
    -2
100
AcDbLine
 10
50.64980354505056
 20
46.45415477911137
 30
0.0
 11
73.10616176649967
 21
46.45415477911137
 31
0.0
  0
LINE
  5
219
330
216
100
AcDbEntity
  8
文字
 62
     0
370
    -2
100
AcDbLine
 10
58.625
 20
29.39787910481746
 30
0.0
 11
73.10616176649967
 21
29.39787910481746
 31
0.0
  0
LINE
  5
21A
330
216
100
AcDbEntity
  8
文字
 62
     0
370
    -2
100
AcDbLine
 10
71.85616176649967
 20
43.95415477911137
 30
0.0
 11
71.85616176649967
 21
31.89787910481746
 31
0.0
  0
SOLID
  5
21B
330
216
100
AcDbEntity
  8
文字
 62
     0
100
AcDbTrace
 10
72.27282843316634
 20
43.95415477911137
 30
0.0
 11
71.439495099833
 21
43.95415477911137
 31
0.0
 12
71.85616176649967
 22
46.45415477911137
 32
0.0
 13
71.85616176649967
 23
46.45415477911137
 33
0.0
  0
SOLID
  5
21C
330
216
100
AcDbEntity
  8
文字
 62
     0
100
AcDbTrace
 10
71.439495099833
 20
31.89787910481746
 30
0.0
 11
72.27282843316634
 21
31.89787910481746
 31
0.0
 12
71.85616176649967
 22
29.39787910481746
 32
0.0
 13
71.85616176649967
 23
29.39787910481746
 33
0.0
  0
MTEXT
  5
21D
330
216
100
AcDbEntity
  8
文字
 62
     0
100
AcDbMText
 10
69.97604580469886
 20
37.92601694196442
 30
0.0
 40
2.5
 41
0.0
 46
0.0
 71
     5
 72
     1
  1
17
 11
0.0
 21
1.0
 31
0.0
 73
     1
 44
1.0
  0
POINT
  5
21E
330
216
100
AcDbEntity
  8
Defpoints
 62
     0
100
AcDbPoint
 10
50.02480354505056
 20
46.45415477911137
 30
0.0
  0
POINT
  5
21F
330
216
100
AcDbEntity
  8
Defpoints
 62
     0
100
AcDbPoint
 10
58.0
 20
29.39787910481746
 30
0.0
  0
POINT
  5
220
330
216
100
AcDbEntity
  8
Defpoints
 62
     0
100
AcDbPoint
 10
71.85616176649967
 20
29.39787910481746
 30
0.0
  0
ENDBLK
  5
221
330
216
100
AcDbEntity
  8
0
100
AcDbBlockEnd
  0
BLOCK
  5
226
330
225
100
AcDbEntity
  8
0
100
AcDbBlockBegin
  2
*D10
 70
     1
 10
0.0
 20
0.0
 30
0.0
  3
*D10
  1
*D11
  0
LINE
  5
227
330
225
100
AcDbEntity
  8
文字
 62
     0
370
    -2
100
AcDbLine
 10
0.0
 20
33.77287910481746
 30
0.0
 11
0.0
 21
1.226409670262385
 31
0.0
  0
LINE
  5
228
330
225
100
AcDbEntity
  8
文字
 62
     0
370
    -2
100
AcDbLine
 10
60.0
 20
33.77287910481746
 30
0.0
 11
60.0
 21
1.226409670262385
 31
0.0
  0
LINE
  5
229
330
225
100
AcDbEntity
  8
文字
 62
     0
370
    -2
100
AcDbLine
 10
2.5
 20
2.476409670262385
 30
0.0
 11
57.5
 21
2.476409670262385
 31
0.0
  0
SOLID
  5
22A
330
225
100
AcDbEntity
  8
文字
 62
     0
100
AcDbTrace
 10
2.5
 20
2.893076336929051
 30
0.0
 11
2.5
 21
2.059743003595718
 31
0.0
 12
0.0
 22
2.476409670262385
 32
0.0
 13
0.0
 23
2.476409670262385
 33
0.0
  0
SOLID
  5
22B
330
225
100
AcDbEntity
  8
文字
 62
     0
100
AcDbTrace
 10
57.5
 20
2.059743003595718
 30
0.0
 11
57.5
 21
2.893076336929051
 31
0.0
 12
60.0
 22
2.476409670262385
 32
0.0
 13
60.0
 23
2.476409670262385
 33
0.0
  0
MTEXT
  5
22C
330
225
100
AcDbEntity
  8
文字
 62
     0
100
AcDbMText
 10
30.0
 20
4.424738456074117
 30
0.0
 40
2.5
 41
0.0
 46
0.0
 71
     5
 72
     1
  1
%%c60
 73
     1
 44
1.0
  0
POINT
  5
22D
330
225
100
AcDbEntity
  8
Defpoints
 62
     0
100
AcDbPoint
 10
0.0
 20
34.39787910481746
 30
0.0
  0
POINT
  5
22E
330
225
100
AcDbEntity
  8
Defpoints
 62
     0
100
AcDbPoint
 10
60.0
 20
34.39787910481746
 30
0.0
  0
POINT
  5
22F
330
225
100
AcDbEntity
  8
Defpoints
 62
     0
100
AcDbPoint
 10
60.0
 20
2.476409670262385
 30
0.0
  0
ENDBLK
  5
230
330
225
100
AcDbEntity
  8
0
100
AcDbBlockEnd
  0
BLOCK
  5
2A3
330
2A2
100
AcDbEntity
  8
0
100
AcDbBlockBegin
  2
*D11
 70
     1
 10
0.0
 20
0.0
 30
0.0
  3
*D11
  1
*D12
  0
LINE
  5
2A5
330
2A2
100
AcDbEntity
  8
文字
 62
     0
370
    -2
100
AcDbLine
 10
335.8290170992434
 20
479.6856874635288
 30
0.0
 11
335.8290170992434
 21
495.8009389458697
 31
0.0
  0
LINE
  5
2A6
330
2A2
100
AcDbEntity
  8
文字
 62
     0
370
    -2
100
AcDbLine
 10
355.8290170992434
 20
479.6856874635288
 30
0.0
 11
355.8290170992434
 21
495.8009389458697
 31
0.0
  0
LINE
  5
2A7
330
2A2
100
AcDbEntity
  8
文字
 62
     0
370
    -2
100
AcDbLine
 10
338.3290170992434
 20
494.5509389458697
 30
0.0
 11
353.3290170992434
 21
494.5509389458697
 31
0.0
  0
SOLID
  5
2A8
330
2A2
100
AcDbEntity
  8
文字
 62
     0
100
AcDbTrace
 10
338.3290170992434
 20
494.9676056125364
 30
0.0
 11
338.3290170992434
 21
494.134272279203
 31
0.0
 12
335.8290170992434
 22
494.5509389458697
 32
0.0
 13
335.8290170992434
 23
494.5509389458697
 33
0.0
  0
SOLID
  5
2A9
330
2A2
100
AcDbEntity
  8
文字
 62
     0
100
AcDbTrace
 10
353.3290170992434
 20
494.134272279203
 30
0.0
 11
353.3290170992434
 21
494.9676056125364
 31
0.0
 12
355.8290170992434
 22
494.5509389458697
 32
0.0
 13
355.8290170992434
 23
494.5509389458697
 33
0.0
  0
MTEXT
  5
2AA
330
2A2
100
AcDbEntity
  8
文字
 62
     0
100
AcDbMText
 10
345.8290170992434
 20
496.4515187548738
 30
0.0
 40
2.5
 41
0.0
 46
0.0
 71
     5
 72
     1
  1
{\fArial|b0|i0|c0|p32;M}20
 73
     1
 44
1.0
  0
POINT
  5
2AB
330
2A2
100
AcDbEntity
  8
Defpoints
 62
     0
100
AcDbPoint
 10
335.8290170992434
 20
479.0606874635288
 30
0.0
  0
POINT
  5
2AC
330
2A2
100
AcDbEntity
  8
Defpoints
 62
     0
100
AcDbPoint
 10
355.8290170992434
 20
479.0606874635288
 30
0.0
  0
POINT
  5
2AD
330
2A2
100
AcDbEntity
  8
Defpoints
 62
     0
100
AcDbPoint
 10
355.8290170992434
 20
494.5509389458697
 30
0.0
  0
ENDBLK
  5
2A4
330
2A2
100
AcDbEntity
  8
0
100
AcDbBlockEnd
  0
BLOCK
  5
2AF
330
2AE
100
AcDbEntity
  8
0
100
AcDbBlockBegin
  2
*D12
 70
     1
 10
0.0
 20
0.0
 30
0.0
  3
*D12
  1
*D13
  0
LINE
  5
2B1
330
2AE
100
AcDbEntity
  8
文字
 62
     0
370
    -2
100
AcDbLine
 10
363.7540170992435
 20
381.0606874635288
 30
0.0
 11
397.3021491270201
 21
381.0606874635288
 31
0.0
  0
LINE
  5
2B2
330
2AE
100
AcDbEntity
  8
文字
 62
     0
370
    -2
100
AcDbLine
 10
363.7540170992435
 20
368.0606874635288
 30
0.0
 11
397.3021491270201
 21
368.0606874635288
 31
0.0
  0
LINE
  5
2B3
330
2AE
100
AcDbEntity
  8
文字
 62
     0
370
    -2
100
AcDbLine
 10
396.0521491270201
 20
378.5606874635288
 30
0.0
 11
396.0521491270201
 21
370.5606874635288
 31
0.0
  0
SOLID
  5
2B4
330
2AE
100
AcDbEntity
  8
文字
 62
     0
100
AcDbTrace
 10
396.4688157936868
 20
378.5606874635288
 30
0.0
 11
395.6354824603534
 21
378.5606874635288
 31
0.0
 12
396.0521491270201
 22
381.0606874635288
 32
0.0
 13
396.0521491270201
 23
381.0606874635288
 33
0.0
  0
SOLID
  5
2B5
330
2AE
100
AcDbEntity
  8
文字
 62
     0
100
AcDbTrace
 10
395.6354824603534
 20
370.5606874635288
 30
0.0
 11
396.4688157936868
 21
370.5606874635288
 31
0.0
 12
396.0521491270201
 22
368.0606874635288
 32
0.0
 13
396.0521491270201
 23
368.0606874635288
 33
0.0
  0
MTEXT
  5
2B6
330
2AE
100
AcDbEntity
  8
文字
 62
     0
100
AcDbMText
 10
394.151569318016
 20
374.5606874635288
 30
0.0
 40
2.5
 41
0.0
 46
0.0
 71
     5
 72
     1
  1
13
 11
0.0
 21
1.0
 31
0.0
 73
     1
 44
1.0
  0
POINT
  5
2B7
330
2AE
100
AcDbEntity
  8
Defpoints
 62
     0
100
AcDbPoint
 10
363.1290170992435
 20
381.0606874635288
 30
0.0
  0
POINT
  5
2B8
330
2AE
100
AcDbEntity
  8
Defpoints
 62
     0
100
AcDbPoint
 10
363.1290170992435
 20
368.0606874635288
 30
0.0
  0
POINT
  5
2B9
330
2AE
100
AcDbEntity
  8
Defpoints
 62
     0
100
AcDbPoint
 10
396.0521491270201
 20
368.0606874635288
 30
0.0
  0
ENDBLK
  5
2B0
330
2AE
100
AcDbEntity
  8
0
100
AcDbBlockEnd
  0
BLOCK
  5
2BB
330
2BA
100
AcDbEntity
  8
0
100
AcDbBlockBegin
  2
*D13
 70
     1
 10
0.0
 20
0.0
 30
0.0
  3
*D13
  1
*D14
  0
LINE
  5
2BD
330
2BA
100
AcDbEntity
  8
文字
 62
     0
370
    -2
100
AcDbLine
 10
354.4540170992434
 20
481.0606874635288
 30
0.0
 11
397.3021491270201
 21
481.0606874635288
 31
0.0
  0
LINE
  5
2BE
330
2BA
100
AcDbEntity
  8
文字
 62
     0
370
    -2
100
AcDbLine
 10
364.3790170992435
 20
381.0606874635288
 30
0.0
 11
397.3021491270201
 21
381.0606874635288
 31
0.0
  0
LINE
  5
2BF
330
2BA
100
AcDbEntity
  8
文字
 62
     0
370
    -2
100
AcDbLine
 10
396.0521491270201
 20
478.5606874635288
 30
0.0
 11
396.0521491270201
 21
383.5606874635288
 31
0.0
  0
SOLID
  5
2C0
330
2BA
100
AcDbEntity
  8
文字
 62
     0
100
AcDbTrace
 10
396.4688157936868
 20
478.5606874635288
 30
0.0
 11
395.6354824603534
 21
478.5606874635288
 31
0.0
 12
396.0521491270201
 22
481.0606874635288
 32
0.0
 13
396.0521491270201
 23
481.0606874635288
 33
0.0
  0
SOLID
  5
2C1
330
2BA
100
AcDbEntity
  8
文字
 62
     0
100
AcDbTrace
 10
395.6354824603534
 20
383.5606874635288
 30
0.0
 11
396.4688157936868
 21
383.5606874635288
 31
0.0
 12
396.0521491270201
 22
381.0606874635288
 32
0.0
 13
396.0521491270201
 23
381.0606874635288
 33
0.0
  0
MTEXT
  5
2C2
330
2BA
100
AcDbEntity
  8
文字
 62
     0
100
AcDbMText
 10
394.151569318016
 20
431.0606874635288
 30
0.0
 40
2.5
 41
0.0
 46
0.0
 71
     5
 72
     1
  1
100
 11
0.0
 21
1.0
 31
0.0
 73
     1
 44
1.0
  0
POINT
  5
2C3
330
2BA
100
AcDbEntity
  8
Defpoints
 62
     0
100
AcDbPoint
 10
353.8290170992434
 20
481.0606874635288
 30
0.0
  0
POINT
  5
2C4
330
2BA
100
AcDbEntity
  8
Defpoints
 62
     0
100
AcDbPoint
 10
363.7540170992435
 20
381.0606874635288
 30
0.0
  0
POINT
  5
2C5
330
2BA
100
AcDbEntity
  8
Defpoints
 62
     0
100
AcDbPoint
 10
396.0521491270201
 20
381.0606874635288
 30
0.0
  0
ENDBLK
  5
2BC
330
2BA
100
AcDbEntity
  8
0
100
AcDbBlockEnd
  0
BLOCK
  5
2C7
330
2C6
100
AcDbEntity
  8
0
100
AcDbBlockBegin
  2
*D14
 70
     1
 10
0.0
 20
0.0
 30
0.0
  3
*D14
  1
*D15
  0
LINE
  5
2C9
330
2C6
100
AcDbEntity
  8
文字
 62
     0
370
    -2
100
AcDbLine
 10
464.8150815319539
 20
425.402814784707
 30
0.0
 11
464.8150815319539
 21
385.4130613873279
 31
0.0
  0
LINE
  5
2CA
330
2C6
100
AcDbEntity
  8
文字
 62
     0
370
    -2
100
AcDbLine
 10
494.7795605028955
 20
425.4028147847069
 30
0.0
 11
494.7795605028955
 21
385.4130613873279
 31
0.0
  0
LINE
  5
2CB
330
2C6
100
AcDbEntity
  8
文字
 62
     0
370
    -2
100
AcDbLine
 10
467.3150815319539
 20
386.6630613873279
 30
0.0
 11
492.2795605028955
 21
386.6630613873279
 31
0.0
  0
SOLID
  5
2CC
330
2C6
100
AcDbEntity
  8
文字
 62
     0
100
AcDbTrace
 10
467.3150815319539
 20
387.0797280539946
 30
0.0
 11
467.3150815319539
 21
386.2463947206612
 31
0.0
 12
464.8150815319539
 22
386.6630613873279
 32
0.0
 13
464.8150815319539
 23
386.6630613873279
 33
0.0
  0
SOLID
  5
2CD
330
2C6
100
AcDbEntity
  8
文字
 62
     0
100
AcDbTrace
 10
492.2795605028955
 20
386.2463947206612
 30
0.0
 11
492.2795605028955
 21
387.0797280539946
 31
0.0
 12
494.7795605028955
 22
386.6630613873279
 32
0.0
 13
494.7795605028955
 23
386.6630613873279
 33
0.0
  0
MTEXT
  5
2CE
330
2C6
100
AcDbEntity
  8
文字
 62
     0
100
AcDbMText
 10
479.7973210174247
 20
388.563641196332
 30
0.0
 40
2.5
 41
0.0
 46
0.0
 71
     5
 72
     1
  1
30
 73
     1
 44
1.0
  0
POINT
  5
2CF
330
2C6
100
AcDbEntity
  8
Defpoints
 62
     0
100
AcDbPoint
 10
464.8150815319539
 20
426.027814784707
 30
0.0
  0
POINT
  5
2D0
330
2C6
100
AcDbEntity
  8
Defpoints
 62
     0
100
AcDbPoint
 10
494.7795605028955
 20
426.0278147847069
 30
0.0
  0
POINT
  5
2D1
330
2C6
100
AcDbEntity
  8
Defpoints
 62
     0
100
AcDbPoint
 10
494.7795605028955
 20
386.6630613873279
 30
0.0
  0
ENDBLK
  5
2C8
330
2C6
100
AcDbEntity
  8
0
100
AcDbBlockEnd
  0
BLOCK
  5
2D3
330
2D2
100
AcDbEntity
  8
0
100
AcDbBlockBegin
  2
*D15
 70
     1
 10
0.0
 20
0.0
 30
0.0
  3
*D15
  1
*D16
  0
LINE
  5
2D5
330
2D2
100
AcDbEntity
  8
文字
 62
     0
370
    -2
100
AcDbLine
 10
374.4540171000908
 20
347.0606874635288
 30
0.0
 11
397.3021491270201
 21
347.0606874635288
 31
0.0
  0
LINE
  5
2D6
330
2D2
100
AcDbEntity
  8
文字
 62
     0
370
    -2
100
AcDbLine
 10
364.3790170992435
 20
368.0606874635288
 30
0.0
 11
397.3021491270201
 21
368.0606874635288
 31
0.0
  0
LINE
  5
2D7
330
2D2
100
AcDbEntity
  8
文字
 62
     0
370
    -2
100
AcDbLine
 10
396.0521491270201
 20
349.5606874635288
 30
0.0
 11
396.0521491270201
 21
365.5606874635288
 31
0.0
  0
SOLID
  5
2D8
330
2D2
100
AcDbEntity
  8
文字
 62
     0
100
AcDbTrace
 10
395.6354824603534
 20
349.5606874635288
 30
0.0
 11
396.4688157936868
 21
349.5606874635288
 31
0.0
 12
396.0521491270201
 22
347.0606874635288
 32
0.0
 13
396.0521491270201
 23
347.0606874635288
 33
0.0
  0
SOLID
  5
2D9
330
2D2
100
AcDbEntity
  8
文字
 62
     0
100
AcDbTrace
 10
396.4688157936868
 20
365.5606874635288
 30
0.0
 11
395.6354824603534
 21
365.5606874635288
 31
0.0
 12
396.0521491270201
 22
368.0606874635288
 32
0.0
 13
396.0521491270201
 23
368.0606874635288
 33
0.0
  0
MTEXT
  5
2DA
330
2D2
100
AcDbEntity
  8
文字
 62
     0
100
AcDbMText
 10
394.1720331652193
 20
357.5606874635288
 30
0.0
 40
2.5
 41
0.0
 46
0.0
 71
     5
 72
     1
  1
21
 11
0.0
 21
1.0
 31
0.0
 73
     1
 44
1.0
  0
POINT
  5
2DB
330
2D2
100
AcDbEntity
  8
Defpoints
 62
     0
100
AcDbPoint
 10
373.8290171000908
 20
347.0606874635288
 30
0.0
  0
POINT
  5
2DC
330
2D2
100
AcDbEntity
  8
Defpoints
 62
     0
100
AcDbPoint
 10
363.7540170992435
 20
368.0606874635288
 30
0.0
  0
POINT
  5
2DD
330
2D2
100
AcDbEntity
  8
Defpoints
 62
     0
100
AcDbPoint
 10
396.0521491270201
 20
368.0606874635288
 30
0.0
  0
ENDBLK
  5
2D4
330
2D2
100
AcDbEntity
  8
0
100
AcDbBlockEnd
  0
BLOCK
  5
2DF
330
2DE
100
AcDbEntity
  8
0
100
AcDbBlockBegin
  2
*D16
 70
     1
 10
0.0
 20
0.0
 30
0.0
  3
*D16
  1
*D17
  0
LINE
  5
2E1
330
2DE
100
AcDbEntity
  8
文字
 62
     0
370
    -2
100
AcDbLine
 10
317.8290171000908
 20
346.4356874635288
 30
0.0
 11
317.8290171000908
 21
326.4152030919575
 31
0.0
  0
LINE
  5
2E2
330
2DE
100
AcDbEntity
  8
文字
 62
     0
370
    -2
100
AcDbLine
 10
373.8290171000908
 20
346.4356874635288
 30
0.0
 11
373.8290171000908
 21
326.4152030919575
 31
0.0
  0
LINE
  5
2E3
330
2DE
100
AcDbEntity
  8
文字
 62
     0
370
    -2
100
AcDbLine
 10
320.3290171000908
 20
327.6652030919575
 30
0.0
 11
371.3290171000908
 21
327.6652030919575
 31
0.0
  0
SOLID
  5
2E4
330
2DE
100
AcDbEntity
  8
文字
 62
     0
100
AcDbTrace
 10
320.3290171000908
 20
328.0818697586242
 30
0.0
 11
320.3290171000908
 21
327.2485364252908
 31
0.0
 12
317.8290171000908
 22
327.6652030919575
 32
0.0
 13
317.8290171000908
 23
327.6652030919575
 33
0.0
  0
SOLID
  5
2E5
330
2DE
100
AcDbEntity
  8
文字
 62
     0
100
AcDbTrace
 10
371.3290171000908
 20
327.2485364252908
 30
0.0
 11
371.3290171000908
 21
328.0818697586242
 31
0.0
 12
373.8290171000908
 22
327.6652030919575
 32
0.0
 13
373.8290171000908
 23
327.6652030919575
 33
0.0
  0
MTEXT
  5
2E6
330
2DE
100
AcDbEntity
  8
文字
 62
     0
100
AcDbMText
 10
345.8290171000908
 20
329.6135318777692
 30
0.0
 40
2.5
 41
0.0
 46
0.0
 71
     5
 72
     1
  1
%%c56
 73
     1
 44
1.0
  0
POINT
  5
2E7
330
2DE
100
AcDbEntity
  8
Defpoints
 62
     0
100
AcDbPoint
 10
317.8290171000908
 20
347.0606874635288
 30
0.0
  0
POINT
  5
2E8
330
2DE
100
AcDbEntity
  8
Defpoints
 62
     0
100
AcDbPoint
 10
373.8290171000908
 20
347.0606874635288
 30
0.0
  0
POINT
  5
2E9
330
2DE
100
AcDbEntity
  8
Defpoints
 62
     0
100
AcDbPoint
 10
373.8290171000908
 20
327.6652030919575
 30
0.0
  0
ENDBLK
  5
2E0
330
2DE
100
AcDbEntity
  8
0
100
AcDbBlockEnd
  0
BLOCK
  5
2EB
330
2EA
100
AcDbEntity
  8
0
100
AcDbBlockBegin
  2
*D17
 70
     1
 10
0.0
 20
0.0
 30
0.0
  3
*D17
  1
*D18
  0
LINE
  5
2ED
330
2EA
100
AcDbEntity
  8
文字
 62
     0
370
    -2
100
AcDbLine
 10
459.7973210174247
 20
434.0528147847069
 30
0.0
 11
459.7973210174247
 21
374.682739816579
 31
0.0
  0
LINE
  5
2EE
330
2EA
100
AcDbEntity
  8
文字
 62
     0
370
    -2
100
AcDbLine
 10
499.7973210174247
 20
434.0528147847069
 30
0.0
 11
499.7973210174247
 21
374.682739816579
 31
0.0
  0
LINE
  5
2EF
330
2EA
100
AcDbEntity
  8
文字
 62
     0
370
    -2
100
AcDbLine
 10
462.2973210174247
 20
375.932739816579
 30
0.0
 11
497.2973210174247
 21
375.932739816579
 31
0.0
  0
SOLID
  5
2F0
330
2EA
100
AcDbEntity
  8
文字
 62
     0
100
AcDbTrace
 10
462.2973210174247
 20
376.3494064832457
 30
0.0
 11
462.2973210174247
 21
375.5160731499123
 31
0.0
 12
459.7973210174247
 22
375.932739816579
 32
0.0
 13
459.7973210174247
 23
375.932739816579
 33
0.0
  0
SOLID
  5
2F1
330
2EA
100
AcDbEntity
  8
文字
 62
     0
100
AcDbTrace
 10
497.2973210174247
 20
375.5160731499123
 30
0.0
 11
497.2973210174247
 21
376.3494064832457
 31
0.0
 12
499.7973210174247
 22
375.932739816579
 32
0.0
 13
499.7973210174247
 23
375.932739816579
 33
0.0
  0
MTEXT
  5
2F2
330
2EA
100
AcDbEntity
  8
文字
 62
     0
100
AcDbMText
 10
479.8311365549332
 20
377.8810686023907
 30
0.0
 40
2.5
 41
0.0
 46
0.0
 71
     5
 72
     1
  1
%%c40
 73
     1
 44
1.0
  0
POINT
  5
2F3
330
2EA
100
AcDbEntity
  8
Defpoints
 62
     0
100
AcDbPoint
 10
459.7973210174247
 20
434.6778147847069
 30
0.0
  0
POINT
  5
2F4
330
2EA
100
AcDbEntity
  8
Defpoints
 62
     0
100
AcDbPoint
 10
499.7973210174247
 20
434.6778147847069
 30
0.0
  0
POINT
  5
2F5
330
2EA
100
AcDbEntity
  8
Defpoints
 62
     0
100
AcDbPoint
 10
499.7973210174247
 20
375.932739816579
 30
0.0
  0
ENDBLK
  5
2EC
330
2EA
100
AcDbEntity
  8
0
100
AcDbBlockEnd
  0
BLOCK
  5
2F7
330
2F6
100
AcDbEntity
  8
0
100
AcDbBlockBegin
  2
*D18
 70
     1
 10
0.0
 20
0.0
 30
0.0
  3
*D18
  1
*D19
  0
LINE
  5
2F9
330
2F6
100
AcDbEntity
  8
文字
 62
     0
370
    -2
100
AcDbLine
 10
449.7973210174247
 20
434.0528147847069
 30
0.0
 11
449.7973210174247
 21
365.9700179125386
 31
0.0
  0
LINE
  5
2FA
330
2F6
100
AcDbEntity
  8
文字
 62
     0
370
    -2
100
AcDbLine
 10
509.7973210174247
 20
434.0528147847069
 30
0.0
 11
509.7973210174247
 21
365.9700179125386
 31
0.0
  0
LINE
  5
2FB
330
2F6
100
AcDbEntity
  8
文字
 62
     0
370
    -2
100
AcDbLine
 10
452.2973210174247
 20
367.2200179125386
 30
0.0
 11
507.2973210174247
 21
367.2200179125386
 31
0.0
  0
SOLID
  5
2FC
330
2F6
100
AcDbEntity
  8
文字
 62
     0
100
AcDbTrace
 10
452.2973210174247
 20
367.6366845792053
 30
0.0
 11
452.2973210174247
 21
366.8033512458719
 31
0.0
 12
449.7973210174247
 22
367.2200179125386
 32
0.0
 13
449.7973210174247
 23
367.2200179125386
 33
0.0
  0
SOLID
  5
2FD
330
2F6
100
AcDbEntity
  8
文字
 62
     0
100
AcDbTrace
 10
507.2973210174247
 20
366.8033512458719
 30
0.0
 11
507.2973210174247
 21
367.6366845792053
 31
0.0
 12
509.7973210174247
 22
367.2200179125386
 32
0.0
 13
509.7973210174247
 23
367.2200179125386
 33
0.0
  0
MTEXT
  5
2FE
330
2F6
100
AcDbEntity
  8
文字
 62
     0
100
AcDbMText
 10
479.7973210174247
 20
369.1683466983503
 30
0.0
 40
2.5
 41
0.0
 46
0.0
 71
     5
 72
     1
  1
%%c60
 73
     1
 44
1.0
  0
POINT
  5
2FF
330
2F6
100
AcDbEntity
  8
Defpoints
 62
     0
100
AcDbPoint
 10
449.7973210174247
 20
434.6778147847069
 30
0.0
  0
POINT
  5
300
330
2F6
100
AcDbEntity
  8
Defpoints
 62
     0
100
AcDbPoint
 10
509.7973210174247
 20
434.6778147847069
 30
0.0
  0
POINT
  5
301
330
2F6
100
AcDbEntity
  8
Defpoints
 62
     0
100
AcDbPoint
 10
509.7973210174247
 20
367.2200179125386
 30
0.0
  0
ENDBLK
  5
2F8
330
2F6
100
AcDbEntity
  8
0
100
AcDbBlockEnd
  0
BLOCK
  5
303
330
302
100
AcDbEntity
  8
0
100
AcDbBlockBegin
  2
*D19
 70
     1
 10
0.0
 20
0.0
 30
0.0
  3
*D19
  1
*D20
  0
LINE
  5
305
330
302
100
AcDbEntity
  8
文字
 62
     0
370
    -2
100
AcDbLine
 10
366.4788206451414
 20
364.1169631378227
 30
0.0
 11
388.9351788665905
 21
364.1169631378227
 31
0.0
  0
LINE
  5
306
330
302
100
AcDbEntity
  8
文字
 62
     0
370
    -2
100
AcDbLine
 10
374.4540171000908
 20
347.0606874635288
 30
0.0
 11
388.9351788665905
 21
347.0606874635288
 31
0.0
  0
LINE
  5
307
330
302
100
AcDbEntity
  8
文字
 62
     0
370
    -2
100
AcDbLine
 10
387.6851788665905
 20
361.6169631378227
 30
0.0
 11
387.6851788665905
 21
349.5606874635288
 31
0.0
  0
SOLID
  5
308
330
302
100
AcDbEntity
  8
文字
 62
     0
100
AcDbTrace
 10
388.1018455332572
 20
361.6169631378227
 30
0.0
 11
387.2685121999238
 21
361.6169631378227
 31
0.0
 12
387.6851788665905
 22
364.1169631378227
 32
0.0
 13
387.6851788665905
 23
364.1169631378227
 33
0.0
  0
SOLID
  5
309
330
302
100
AcDbEntity
  8
文字
 62
     0
100
AcDbTrace
 10
387.2685121999238
 20
349.5606874635288
 30
0.0
 11
388.1018455332572
 21
349.5606874635288
 31
0.0
 12
387.6851788665905
 22
347.0606874635288
 32
0.0
 13
387.6851788665905
 23
347.0606874635288
 33
0.0
  0
MTEXT
  5
30A
330
302
100
AcDbEntity
  8
文字
 62
     0
100
AcDbMText
 10
385.8050629047897
 20
355.5888253006758
 30
0.0
 40
2.5
 41
0.0
 46
0.0
 71
     5
 72
     1
  1
17
 11
0.0
 21
1.0
 31
0.0
 73
     1
 44
1.0
  0
POINT
  5
30B
330
302
100
AcDbEntity
  8
Defpoints
 62
     0
100
AcDbPoint
 10
365.8538206451414
 20
364.1169631378227
 30
0.0
  0
POINT
  5
30C
330
302
100
AcDbEntity
  8
Defpoints
 62
     0
100
AcDbPoint
 10
373.8290171000908
 20
347.0606874635288
 30
0.0
  0
POINT
  5
30D
330
302
100
AcDbEntity
  8
Defpoints
 62
     0
100
AcDbPoint
 10
387.6851788665905
 20
347.0606874635288
 30
0.0
  0
ENDBLK
  5
304
330
302
100
AcDbEntity
  8
0
100
AcDbBlockEnd
  0
BLOCK
  5
30F
330
30E
100
AcDbEntity
  8
0
100
AcDbBlockBegin
  2
*D20
 70
     1
 10
0.0
 20
0.0
 30
0.0
  3
*D20
  1
*D21
  0
LINE
  5
311
330
30E
100
AcDbEntity
  8
文字
 62
     0
370
    -2
100
AcDbLine
 10
315.8290171000908
 20
351.4356874635288
 30
0.0
 11
315.8290171000908
 21
318.8892180289737
 31
0.0
  0
LINE
  5
312
330
30E
100
AcDbEntity
  8
文字
 62
     0
370
    -2
100
AcDbLine
 10
375.8290171000908
 20
351.4356874635288
 30
0.0
 11
375.8290171000908
 21
318.8892180289737
 31
0.0
  0
LINE
  5
313
330
30E
100
AcDbEntity
  8
文字
 62
     0
370
    -2
100
AcDbLine
 10
318.3290171000908
 20
320.1392180289737
 30
0.0
 11
373.3290171000908
 21
320.1392180289737
 31
0.0
  0
SOLID
  5
314
330
30E
100
AcDbEntity
  8
文字
 62
     0
100
AcDbTrace
 10
318.3290171000908
 20
320.5558846956404
 30
0.0
 11
318.3290171000908
 21
319.7225513623071
 31
0.0
 12
315.8290171000908
 22
320.1392180289737
 32
0.0
 13
315.8290171000908
 23
320.1392180289737
 33
0.0
  0
SOLID
  5
315
330
30E
100
AcDbEntity
  8
文字
 62
     0
100
AcDbTrace
 10
373.3290171000908
 20
319.7225513623071
 30
0.0
 11
373.3290171000908
 21
320.5558846956404
 31
0.0
 12
375.8290171000908
 22
320.1392180289737
 32
0.0
 13
375.8290171000908
 23
320.1392180289737
 33
0.0
  0
MTEXT
  5
316
330
30E
100
AcDbEntity
  8
文字
 62
     0
100
AcDbMText
 10
345.8290171000908
 20
322.0875468147855
 30
0.0
 40
2.5
 41
0.0
 46
0.0
 71
     5
 72
     1
  1
%%c60
 73
     1
 44
1.0
  0
POINT
  5
317
330
30E
100
AcDbEntity
  8
Defpoints
 62
     0
100
AcDbPoint
 10
315.8290171000908
 20
352.0606874635288
 30
0.0
  0
POINT
  5
318
330
30E
100
AcDbEntity
  8
Defpoints
 62
     0
100
AcDbPoint
 10
375.8290171000908
 20
352.0606874635288
 30
0.0
  0
POINT
  5
319
330
30E
100
AcDbEntity
  8
Defpoints
 62
     0
100
AcDbPoint
 10
375.8290171000908
 20
320.1392180289737
 30
0.0
  0
ENDBLK
  5
310
330
30E
100
AcDbEntity
  8
0
100
AcDbBlockEnd
  0
BLOCK
  5
38C
330
38B
100
AcDbEntity
  8
0
100
AcDbBlockBegin
  2
*D22
 70
     1
 10
0.0
 20
0.0
 30
0.0
  3
*D22
  1
*D14
  0
LINE
  5
38D
330
38B
100
AcDbEntity
  8
文字
 62
     0
370
    -2
100
AcDbLine
 10
58.57061990339436
 20
21.06217515252542
 30
0.0
 11
81.38512859693216
 21
21.06217515252542
 31
0.0
  0
LINE
  5
38E
330
38B
100
AcDbEntity
  8
文字
 62
     0
370
    -2
100
AcDbLine
 10
48.4619965691555
 20
43.06160972839903
 30
0.0
 11
81.38512859693216
 21
43.06160972839903
 31
0.0
  0
LINE
  5
38F
330
38B
100
AcDbEntity
  8
文字
 62
     0
370
    -2
100
AcDbLine
 10
80.13512859693216
 20
23.56217515252542
 30
0.0
 11
80.13512859693216
 21
40.56160972839903
 31
0.0
  0
SOLID
  5
390
330
38B
100
AcDbEntity
  8
文字
 62
     0
100
AcDbTrace
 10
79.71846193026549
 20
23.56217515252542
 30
0.0
 11
80.55179526359883
 21
23.56217515252542
 31
0.0
 12
80.13512859693216
 22
21.06217515252542
 32
0.0
 13
80.13512859693216
 23
21.06217515252542
 33
0.0
  0
SOLID
  5
391
330
38B
100
AcDbEntity
  8
文字
 62
     0
100
AcDbTrace
 10
80.55179526359883
 20
40.56160972839903
 30
0.0
 11
79.71846193026549
 21
40.56160972839903
 31
0.0
 12
80.13512859693216
 22
43.06160972839903
 32
0.0
 13
80.13512859693216
 23
43.06160972839903
 33
0.0
  0
MTEXT
  5
392
330
38B
100
AcDbEntity
  8
文字
 62
     0
100
AcDbMText
 10
78.25512859693217
 20
32.06189244046222
 30
0.0
 40
2.5
 41
0.0
 46
0.0
 71
     5
 72
     1
  1
22
 11
0.0
 21
1.0
 31
0.0
 73
     1
 44
1.0
  0
POINT
  5
393
330
38B
100
AcDbEntity
  8
Defpoints
 62
     0
100
AcDbPoint
 10
57.94561990339436
 20
21.06217515252542
 30
0.0
  0
POINT
  5
394
330
38B
100
AcDbEntity
  8
Defpoints
 62
     0
100
AcDbPoint
 10
47.8369965691555
 20
43.06160972839903
 30
0.0
  0
POINT
  5
395
330
38B
100
AcDbEntity
  8
Defpoints
 62
     0
100
AcDbPoint
 10
80.13512859693216
 20
43.06160972839903
 30
0.0
  0
ENDBLK
  5
396
330
38B
100
AcDbEntity
  8
0
100
AcDbBlockEnd
  0
BLOCK
  5
39A
330
399
100
AcDbEntity
  8
0
100
AcDbBlockBegin
  2
*D23
 70
     1
 10
0.0
 20
0.0
 30
0.0
  3
*D23
  1
*D17
  0
LINE
  5
39B
330
399
100
AcDbEntity
  8
文字
 62
     0
370
    -2
100
AcDbLine
 10
0.0183621114027517
 20
27.16202825032816
 30
0.0
 11
0.0183621114027517
 21
0.0
 31
0.0
  0
LINE
  5
39C
330
399
100
AcDbEntity
  8
文字
 62
     0
370
    -2
100
AcDbLine
 10
60.01836211140275
 20
27.16202825032816
 30
0.0
 11
60.01836211140275
 21
0.0
 31
0.0
  0
LINE
  5
39D
330
399
100
AcDbEntity
  8
文字
 62
     0
370
    -2
100
AcDbLine
 10
2.518362111402752
 20
1.25
 30
0.0
 11
57.51836211140275
 21
1.25
 31
0.0
  0
SOLID
  5
39E
330
399
100
AcDbEntity
  8
文字
 62
     0
100
AcDbTrace
 10
2.518362111402752
 20
1.666666666666667
 30
0.0
 11
2.518362111402752
 21
0.8333333333333333
 31
0.0
 12
0.0183621114027517
 22
1.25
 32
0.0
 13
0.0183621114027517
 23
1.25
 33
0.0
  0
SOLID
  5
39F
330
399
100
AcDbEntity
  8
文字
 62
     0
100
AcDbTrace
 10
57.51836211140275
 20
0.8333333333333333
 30
0.0
 11
57.51836211140275
 21
1.666666666666667
 31
0.0
 12
60.01836211140275
 22
1.25
 32
0.0
 13
60.01836211140275
 23
1.25
 33
0.0
  0
MTEXT
  5
3A0
330
399
100
AcDbEntity
  8
文字
 62
     0
100
AcDbMText
 10
29.62837132337188
 20
3.19625
 30
0.0
 40
2.5
 41
0.0
 46
0.0
 71
     5
 72
     1
  1
%%c60
 73
     1
 44
1.0
  0
POINT
  5
3A1
330
399
100
AcDbEntity
  8
Defpoints
 62
     0
100
AcDbPoint
 10
0.0183621114027517
 20
27.78702825032816
 30
0.0
  0
POINT
  5
3A2
330
399
100
AcDbEntity
  8
Defpoints
 62
     0
100
AcDbPoint
 10
60.01836211140275
 20
27.78702825032816
 30
0.0
  0
POINT
  5
3A3
330
399
100
AcDbEntity
  8
Defpoints
 62
     0
100
AcDbPoint
 10
60.01836211140275
 20
1.25
 30
0.0
  0
ENDBLK
  5
3A4
330
399
100
AcDbEntity
  8
0
100
AcDbBlockEnd
  0
BLOCK
  5
3C4
330
3C3
100
AcDbEntity
  8
0
100
AcDbBlockBegin
  2
*D24
 70
     1
 10
0.0
 20
0.0
 30
0.0
  3
*D24
  1
*D24
  0
LINE
  5
3C6
330
3C3
100
AcDbEntity
  8
文字
 62
     0
370
    -2
100
AcDbLine
 10
374.4456292413171
 20
346.0969221804457
 30
0.0
 11
397.2601379348549
 21
346.0969221804457
 31
0.0
  0
LINE
  5
3C7
330
3C3
100
AcDbEntity
  8
文字
 62
     0
370
    -2
100
AcDbLine
 10
364.3370059070783
 20
368.0963567563194
 30
0.0
 11
397.2601379348549
 21
368.0963567563194
 31
0.0
  0
LINE
  5
3C8
330
3C3
100
AcDbEntity
  8
文字
 62
     0
370
    -2
100
AcDbLine
 10
396.0101379348549
 20
348.5969221804457
 30
0.0
 11
396.0101379348549
 21
365.5963567563194
 31
0.0
  0
SOLID
  5
3C9
330
3C3
100
AcDbEntity
  8
文字
 62
     0
100
AcDbTrace
 10
395.5934712681882
 20
348.5969221804457
 30
0.0
 11
396.4268046015216
 21
348.5969221804457
 31
0.0
 12
396.0101379348549
 22
346.0969221804457
 32
0.0
 13
396.0101379348549
 23
346.0969221804457
 33
0.0
  0
SOLID
  5
3CA
330
3C3
100
AcDbEntity
  8
文字
 62
     0
100
AcDbTrace
 10
396.4268046015216
 20
365.5963567563194
 30
0.0
 11
395.5934712681882
 21
365.5963567563194
 31
0.0
 12
396.0101379348549
 22
368.0963567563194
 32
0.0
 13
396.0101379348549
 23
368.0963567563194
 33
0.0
  0
MTEXT
  5
3CB
330
3C3
100
AcDbEntity
  8
文字
 62
     0
100
AcDbMText
 10
394.1301379348549
 20
357.0966394683826
 30
0.0
 40
2.5
 41
0.0
 46
0.0
 71
     5
 72
     1
  1
22
 11
0.0
 21
1.0
 31
0.0
 73
     1
 44
1.0
  0
POINT
  5
3CC
330
3C3
100
AcDbEntity
  8
Defpoints
 62
     0
100
AcDbPoint
 10
373.8206292413171
 20
346.0969221804457
 30
0.0
  0
POINT
  5
3CD
330
3C3
100
AcDbEntity
  8
Defpoints
 62
     0
100
AcDbPoint
 10
363.7120059070783
 20
368.0963567563194
 30
0.0
  0
POINT
  5
3CE
330
3C3
100
AcDbEntity
  8
Defpoints
 62
     0
100
AcDbPoint
 10
396.0101379348549
 20
368.0963567563194
 30
0.0
  0
ENDBLK
  5
3C5
330
3C3
100
AcDbEntity
  8
0
100
AcDbBlockEnd
  0
BLOCK
  5
3D0
330
3CF
100
AcDbEntity
  8
0
100
AcDbBlockBegin
  2
*D25
 70
     1
 10
0.0
 20
0.0
 30
0.0
  3
*D25
  1
*D25
  0
LINE
  5
3D2
330
3CF
100
AcDbEntity
  8
文字
 62
     0
370
    -2
100
AcDbLine
 10
315.8933714493255
 20
352.1967752782485
 30
0.0
 11
315.8933714493255
 21
325.0347470279203
 31
0.0
  0
LINE
  5
3D3
330
3CF
100
AcDbEntity
  8
文字
 62
     0
370
    -2
100
AcDbLine
 10
375.8933714493255
 20
352.1967752782485
 30
0.0
 11
375.8933714493255
 21
325.0347470279203
 31
0.0
  0
LINE
  5
3D4
330
3CF
100
AcDbEntity
  8
文字
 62
     0
370
    -2
100
AcDbLine
 10
318.3933714493255
 20
326.2847470279203
 30
0.0
 11
373.3933714493255
 21
326.2847470279203
 31
0.0
  0
SOLID
  5
3D5
330
3CF
100
AcDbEntity
  8
文字
 62
     0
100
AcDbTrace
 10
318.3933714493255
 20
326.701413694587
 30
0.0
 11
318.3933714493255
 21
325.8680803612536
 31
0.0
 12
315.8933714493255
 22
326.2847470279203
 32
0.0
 13
315.8933714493255
 23
326.2847470279203
 33
0.0
  0
SOLID
  5
3D6
330
3CF
100
AcDbEntity
  8
文字
 62
     0
100
AcDbTrace
 10
373.3933714493255
 20
325.8680803612536
 30
0.0
 11
373.3933714493255
 21
326.701413694587
 31
0.0
 12
375.8933714493255
 22
326.2847470279203
 32
0.0
 13
375.8933714493255
 23
326.2847470279203
 33
0.0
  0
MTEXT
  5
3D7
330
3CF
100
AcDbEntity
  8
文字
 62
     0
100
AcDbMText
 10
345.5033806612946
 20
328.2309970279204
 30
0.0
 40
2.5
 41
0.0
 46
0.0
 71
     5
 72
     1
  1
%%c60
 73
     1
 44
1.0
  0
POINT
  5
3D8
330
3CF
100
AcDbEntity
  8
Defpoints
 62
     0
100
AcDbPoint
 10
315.8933714493255
 20
352.8217752782485
 30
0.0
  0
POINT
  5
3D9
330
3CF
100
AcDbEntity
  8
Defpoints
 62
     0
100
AcDbPoint
 10
375.8933714493255
 20
352.8217752782485
 30
0.0
  0
POINT
  5
3DA
330
3CF
100
AcDbEntity
  8
Defpoints
 62
     0
100
AcDbPoint
 10
375.8933714493255
 20
326.2847470279203
 30
0.0
  0
ENDBLK
  5
3D1
330
3CF
100
AcDbEntity
  8
0
100
AcDbBlockEnd
  0
ENDSEC
  0
SECTION
  2
ENTITIES
  0
LINE
  5
24C
330
1F
100
AcDbEntity
  8
中心線
 48
0.5
100
AcDbLine
 10
479.7973210174247
 20
434.6778147847069
 30
0.0
 11
479.7973210174247
 21
480.2156404244572
 31
0.0
  0
LINE
  5
24D
330
1F
100
AcDbEntity
  8
中心線
 48
0.5
100
AcDbLine
 10
479.7973210174247
 20
434.6778147847069
 30
0.0
 11
479.7973210174247
 21
392.859048571754
 31
0.0
  0
LINE
  5
24E
330
1F
100
AcDbEntity
  8
実線
100
AcDbLine
 10
336.242034670689
 20
368.0606874635288
 30
0.0
 11
355.4159995277979
 21
368.0606874635288
 31
0.0
  0
LINE
  5
251
102
{ACAD_REACTORS
330
298
102
}
330
1F
100
AcDbEntity
  8
中心線
 48
0.5
100
AcDbLine
 10
479.7973210174247
 20
434.6778147847069
 30
0.0
 11
431.4265060143031
 21
434.6778147847069
 31
0.0
  0
LINE
  5
252
102
{ACAD_REACTORS
330
298
102
}
330
1F
100
AcDbEntity
  8
中心線
 48
0.5
100
AcDbLine
 10
479.7973210174247
 20
434.6778147847069
 30
0.0
 11
527.2693282426815
 21
434.6778147847069
 31
0.0
  0
LINE
  5
253
330
1F
100
AcDbEntity
  8
実線
100
AcDbLine
 10
334.4890170992434
 20
368.0607005647802
 30
0.0
 11
357.1703378109592
 21
368.0606743607516
 31
0.0
  0
LWPOLYLINE
  5
254
330
1F
100
AcDbEntity
  8
実線
100
AcDbPolyline
 90
        4
 70
     0
 43
0.0
 10
335.8290170992434
 20
418.2322603387827
 10
335.8290170992434
 20
381.0606874635288
 10
355.8290170992434
 20
381.0606874635288
 10
355.8290170992434
 20
438.2322603387826
  0
LINE
  5
255
330
1F
100
AcDbEntity
  8
実線
370
    20
100
AcDbLine
 10
337.8290170992434
 20
420.2322603387827
 30
0.0
 11
337.8290170992434
 21
381.0606874635288
 31
0.0
  0
LINE
  5
256
330
1F
100
AcDbEntity
  8
実線
370
    20
100
AcDbLine
 10
353.8290170992434
 20
436.2322603387826
 30
0.0
 11
353.8290170992434
 21
381.0606874635288
 31
0.0
  0
DIMENSION
  5
257
102
{ACAD_REACTORS
330
259
102
}
102
{ACAD_XDICTIONARY
360
258
102
}
330
1F
100
AcDbEntity
  8
文字
100
AcDbDimension
280
     0
  2
*D11
 10
355.8290170992434
 20
494.5509389458697
 30
0.0
 11
345.8290170992434
 21
496.4515187548738
 31
0.0
 70
    32
  1
{\fArial|b0|i0|c0|p32;M}<>
 71
     5
 42
20.0
 73
     0
 74
     0
 75
     0
  3
ISO-25
100
AcDbAlignedDimension
 13
335.8290170992434
 23
479.0606874635288
 33
0.0
 14
355.8290170992434
 24
479.0606874635288
 34
0.0
100
AcDbRotatedDimension
  0
LINE
  5
25A
330
1F
100
AcDbEntity
  8
実線
370
    20
100
AcDbLine
 10
353.8290170992434
 20
481.0606874635288
 30
0.0
 11
353.8290170992434
 21
439.0606874635288
 31
0.0
  0
LINE
  5
25B
330
1F
100
AcDbEntity
  8
実線
370
    20
100
AcDbLine
 10
337.8290170992434
 20
481.0606874635288
 30
0.0
 11
337.8290170992434
 21
423.0606874635289
 31
0.0
  0
LINE
  5
25C
102
{ACAD_REACTORS
330
259
102
}
330
1F
100
AcDbEntity
  8
実線
370
    20
100
AcDbLine
 10
335.8290170992434
 20
479.0606874635288
 30
0.0
 11
355.8290170992434
 21
479.0606874635288
 31
0.0
  0
LWPOLYLINE
  5
25D
102
{ACAD_REACTORS
330
26E
102
}
330
1F
100
AcDbEntity
  8
実線
100
AcDbPolyline
 90
        6
 70
     0
 43
0.0
 10
355.8290170992434
 20
441.0606874635288
 10
355.8290170992434
 20
479.0606874635288
 10
353.8290170992434
 20
481.0606874635288
 10
337.8290170992434
 20
481.0606874635288
 10
335.8290170992434
 20
479.0606874635288
 10
335.8290170992434
 20
421.0606874635289
  0
DIMENSION
  5
25E
102
{ACAD_REACTORS
330
260
102
}
102
{ACAD_XDICTIONARY
360
25F
102
}
330
1F
100
AcDbEntity
  8
文字
100
AcDbDimension
280
     0
  2
*D12
 10
396.0521491270201
 20
368.0606874635288
 30
0.0
 11
394.151569318016
 21
374.5606874635288
 31
0.0
 70
    32
 71
     5
 42
13.0
 73
     0
 74
     0
 75
     0
  3
ISO-25
100
AcDbAlignedDimension
 13
363.1290170992435
 23
381.0606874635288
 33
0.0
 14
363.1290170992435
 24
368.0606874635288
 34
0.0
 50
90.0
100
AcDbRotatedDimension
  0
LINE
  5
261
330
1F
100
AcDbEntity
  8
実線
100
AcDbLine
 10
337.1790170992434
 20
381.0606874635288
 30
0.0
 11
337.1790170992434
 21
369.0606874635288
 31
0.0
  0
ARC
  5
262
330
1F
100
AcDbEntity
  8
実線
100
AcDbCircle
 10
332.8540170992435
 20
377.9134999635288
 30
0.0
 40
9.852812499999981
100
AcDbArc
 50
243.9623951404291
 51
296.0376048595689
  0
LWPOLYLINE
  5
263
102
{ACAD_REACTORS
330
260
102
}
330
1F
100
AcDbEntity
  8
実線
100
AcDbPolyline
 90
        4
 70
     0
 43
0.0
 10
363.1290170992435
 20
369.0606874635288
 10
363.1290170992435
 20
381.0606874635288
 10
328.5290170992434
 20
381.0606874635288
 10
328.5290170992434
 20
369.0606874635288
  0
LINE
  5
264
330
1F
100
AcDbEntity
  8
実線
100
AcDbLine
 10
354.4790170992435
 20
381.0606874635288
 30
0.0
 11
354.4790170992435
 21
369.0606874635288
 31
0.0
  0
ARC
  5
265
330
1F
100
AcDbEntity
  8
実線
100
AcDbCircle
 10
358.8040170992435
 20
377.9134999635288
 30
0.0
 40
9.852812500000026
100
AcDbArc
 50
243.9623951404291
 51
296.0376048595692
  0
ARC
  5
266
330
1F
100
AcDbEntity
  8
実線
100
AcDbCircle
 10
345.8290170992435
 20
405.9719374635288
 30
0.0
 40
37.91124999999995
100
AcDbArc
 50
256.810969935543
 51
283.1890300644552
  0
LINE
  5
267
330
1F
100
AcDbEntity
  8
中心線
100
AcDbLine
 10
345.8290170992434
 20
336.0014563287883
 30
0.0
 11
345.8290170992434
 21
488.1556390088153
 31
0.0
  0
LINE
  5
268
330
1F
100
AcDbEntity
  8
実線
100
AcDbLine
 10
335.8290170992434
 20
421.0606874635289
 30
0.0
 11
335.8290170992434
 21
418.2322603387827
 31
0.0
  0
LINE
  5
269
330
1F
100
AcDbEntity
  8
実線
100
AcDbLine
 10
355.8290170992434
 20
441.0606874635288
 30
0.0
 11
355.8290170992434
 21
438.2322603387826
 31
0.0
  0
LINE
  5
26A
330
1F
100
AcDbEntity
  8
実線
370
    20
100
AcDbLine
 10
353.8290170992434
 20
439.0606874635288
 30
0.0
 11
353.8290170992434
 21
436.2322603387826
 31
0.0
  0
LINE
  5
26B
330
1F
100
AcDbEntity
  8
実線
370
    20
100
AcDbLine
 10
337.8290170992434
 20
423.0606874635289
 30
0.0
 11
337.8290170992434
 21
420.2322603387827
 31
0.0
  0
DIMENSION
  5
26C
102
{ACAD_REACTORS
330
26E
102
}
102
{ACAD_XDICTIONARY
360
26D
102
}
330
1F
100
AcDbEntity
  8
文字
100
AcDbDimension
280
     0
  2
*D13
 10
396.0521491270201
 20
381.0606874635288
 30
0.0
 11
394.151569318016
 21
431.0606874635288
 31
0.0
 70
    32
 71
     5
 42
100.0000000000001
 73
     0
 74
     0
 75
     0
  3
ISO-25
100
AcDbAlignedDimension
 13
353.8290170992434
 23
481.0606874635288
 33
0.0
 14
363.7540170992435
 24
381.0606874635288
 34
0.0
 50
90.0
100
AcDbRotatedDimension
  0
CIRCLE
  5
26F
330
1F
100
AcDbEntity
  8
実線
100
AcDbCircle
 10
479.7973210174247
 20
434.6778147847069
 30
0.0
 40
10.0
  0
CIRCLE
  5
270
330
1F
100
AcDbEntity
  8
実線
370
    20
100
AcDbCircle
 10
479.7973210174247
 20
434.6778147847069
 30
0.0
 40
8.0
  0
LWPOLYLINE
  5
271
102
{ACAD_REACTORS
330
274
102
}
330
1F
100
AcDbEntity
  8
実線
100
AcDbPolyline
 90
        6
 70
     1
 43
0.0
 10
494.7795605028955
 20
443.327814784707
 10
479.7973210174247
 20
451.977814784707
 10
464.8150815319539
 20
443.327814784707
 10
464.8150815319539
 20
426.027814784707
 10
479.7973210174247
 20
417.377814784707
 10
494.7795605028955
 20
426.0278147847069
  0
DIMENSION
  5
272
102
{ACAD_REACTORS
330
274
102
}
102
{ACAD_XDICTIONARY
360
273
102
}
330
1F
100
AcDbEntity
  8
文字
100
AcDbDimension
280
     0
  2
*D14
 10
494.7795605028955
 20
386.6630613873279
 30
0.0
 11
479.7973210174247
 21
388.563641196332
 31
0.0
 70
    32
  1
30
 71
     5
 42
29.96447897094157
 73
     0
 74
     0
 75
     0
  3
ISO-25
100
AcDbAlignedDimension
 13
464.8150815319539
 23
426.027814784707
 33
0.0
 14
494.7795605028955
 24
426.0278147847069
 34
0.0
100
AcDbRotatedDimension
  0
CIRCLE
  5
294
102
{ACAD_REACTORS
330
298
102
}
330
1F
100
AcDbEntity
  8
実線
100
AcDbCircle
 10
479.7973210174247
 20
434.6778147847069
 30
0.0
 40
20.0
  0
CIRCLE
  5
295
102
{ACAD_REACTORS
102
}
330
1F
100
AcDbEntity
  8
実線
100
AcDbCircle
 10
479.7973210174247
 20
434.6778147847069
 30
0.0
 40
30.0
  0
DIMENSION
  5
296
102
{ACAD_REACTORS
330
298
102
}
102
{ACAD_XDICTIONARY
360
297
102
}
330
1F
100
AcDbEntity
  8
文字
100
AcDbDimension
280
     0
  2
*D17
 10
499.7973210174247
 20
375.932739816579
 30
0.0
 11
479.8311365549332
 21
375.932739816579
 31
0.0
 70
   160
  1
%%c<>
 71
     5
 42
40.0
 73
     0
 74
     0
 75
     0
  3
ISO-25
100
AcDbAlignedDimension
 13
459.7973210174247
 23
434.6778147847069
 33
0.0
 14
499.7973210174247
 24
434.6778147847069
 34
0.0
100
AcDbRotatedDimension
  0
MTEXT
  5
343
330
1F
100
AcDbEntity
  8
文字・寸法線
 62
     0
100
AcDbMText
 10
324.628920144187
 20
524.507599021392
 30
0.0
 40
6.0
 41
0.0
 46
6.0
 71
     9
 72
     1
  1
{\fＭＳ ゴシック|b0|i0|c0|p0;S-K1 M20X100}
 73
     1
 44
1.0
1001
ACAD
1000
ACAD_MTEXT_DEFINED_HEIGHT_BEGIN
1070
    46
1040
6.0
1000
ACAD_MTEXT_DEFINED_HEIGHT_END
  0
LINE
  5
3A9
330
1F
100
AcDbEntity
  8
実線
100
AcDbLine
 10
375.8750093379227
 20
351.0200667342924
 30
0.0
 11
375.8750093379227
 21
360.2200667342924
 31
0.0
  0
ARC
  5
3AA
330
1F
100
AcDbEntity
  8
実線
100
AcDbCircle
 10
353.2981936809315
 20
354.5005680123595
 30
0.0
 40
15.40513407648559
100
AcDbArc
 50
34.50740478193565
 51
61.95141753157571
  0
ARC
  5
3AB
330
1F
100
AcDbEntity
  8
実線
100
AcDbCircle
 10
366.5408613614392
 20
363.8105874169645
 30
0.0
 40
0.8
100
AcDbArc
 50
226.7623256712442
 51
270.0
  0
ARC
  5
3AC
330
1F
100
AcDbEntity
  8
実線
100
AcDbCircle
 10
325.0568399672707
 20
363.8066391648214
 30
0.0
 40
0.8
100
AcDbArc
 50
270.0
 51
313.2376743287558
  0
ARC
  5
3AD
330
1F
100
AcDbEntity
  8
実線
100
AcDbCircle
 10
373.0750093379227
 20
360.2200667342924
 30
0.0
 40
2.8
100
AcDbArc
 50
0.0
 51
90.0
  0
ARC
  5
3AE
330
1F
100
AcDbEntity
  8
実線
100
AcDbCircle
 10
318.6750093379227
 20
360.2200667342924
 30
0.0
 40
2.8
100
AcDbArc
 50
90.0
 51
180.0
  0
LINE
  5
3AF
330
1F
100
AcDbEntity
  8
実線
100
AcDbLine
 10
366.1564671765058
 20
363.0126682432118
 30
0.0
 11
373.0369194587341
 21
363.0126682432119
 31
0.0
  0
ARC
  5
3B0
330
1F
100
AcDbEntity
  8
実線
100
AcDbCircle
 10
353.2981936809315
 20
354.5005680123595
 30
0.0
 40
15.40513407648559
100
AcDbArc
 50
34.50740478193577
 51
61.95141753157571
  0
ARC
  5
3B1
330
1F
100
AcDbEntity
  8
実線
100
AcDbCircle
 10
338.4678997449648
 20
354.3553544716148
 30
0.0
 40
15.62394080340171
100
AcDbArc
 50
118.4198471002426
 51
145.4155337894823
  0
LINE
  5
3B2
330
1F
100
AcDbEntity
  8
実線
100
AcDbLine
 10
375.8750093379227
 20
360.2200667342924
 30
0.0
 11
375.8750093379227
 21
351.0200667342924
 31
0.0
  0
LINE
  5
3B3
330
1F
100
AcDbEntity
  8
実線
100
AcDbLine
 10
318.6750093379227
 20
363.0200667342924
 30
0.0
 11
325.5554616201511
 21
363.0200667342924
 31
0.0
  0
LINE
  5
3B4
330
1F
100
AcDbEntity
  8
実線
100
AcDbLine
 10
315.8750093379227
 20
351.0200667342924
 30
0.0
 11
315.8750093379227
 21
360.2200667342924
 31
0.0
  0
LINE
  5
3B5
330
1F
100
AcDbEntity
  8
実線
100
AcDbLine
 10
325.5554616201511
 20
363.0200667342924
 30
0.0
 11
366.1945570556944
 21
363.0200667342924
 31
0.0
  0
LINE
  5
3B6
330
1F
100
AcDbEntity
  8
実線
100
AcDbLine
 10
315.8750093379227
 20
351.0200667342924
 30
0.0
 11
375.8750093379227
 21
351.0200667342924
 31
0.0
  0
LWPOLYLINE
  5
3B7
330
1F
100
AcDbEntity
  8
実線
100
AcDbPolyline
 90
        2
 70
     0
 43
0.0
 10
325.2870059079256
 20
345.9902144119912
 10
327.7870059079256
 20
345.9902144119912
  0
ARC
  5
3B8
330
1F
100
AcDbEntity
  8
実線
100
AcDbCircle
 10
323.7870059079256
 20
345.9902144119912
 30
0.0
 40
1.5
100
AcDbArc
 50
0.0
 51
180.0
  0
ARC
  5
3B9
330
1F
100
AcDbEntity
  8
実線
100
AcDbCircle
 10
329.2870059079256
 20
345.9902144119912
 30
0.0
 40
1.5
100
AcDbArc
 50
0.0
 51
180.0
  0
ARC
  5
3BA
330
1F
100
AcDbEntity
  8
実線
100
AcDbCircle
 10
362.3750093379227
 20
346.0200667342924
 30
0.0
 40
1.5
100
AcDbArc
 50
0.0
 51
180.0
  0
ARC
  5
3BB
330
1F
100
AcDbEntity
  8
実線
100
AcDbCircle
 10
367.8750093379227
 20
346.0200667342924
 30
0.0
 40
1.5
100
AcDbArc
 50
0.0
 51
180.0
  0
LWPOLYLINE
  5
3BC
330
1F
100
AcDbEntity
  8
実線
100
AcDbPolyline
 90
        2
 70
     0
 43
0.0
 10
330.8750093379227
 20
346.0200667342924
 10
360.8750093379227
 20
346.0200667342924
  0
LWPOLYLINE
  5
3BD
330
1F
100
AcDbEntity
  8
実線
100
AcDbPolyline
 90
        2
 70
     0
 43
0.0
 10
363.8750093379227
 20
346.0200667342924
 10
366.3750093379227
 20
346.0200667342924
  0
LWPOLYLINE
  5
3BE
330
1F
100
AcDbEntity
  8
実線
100
AcDbPolyline
 90
        6
 70
     0
 43
0.0
 10
369.3750093379227
 20
346.0200667342924
 10
373.8750093379227
 20
346.0200667342924
 10
373.8750093379227
 20
351.0200667342924
 10
317.8750093379227
 20
351.0200667342924
 10
317.8750093379227
 20
346.0200667342924
 10
322.3750093379227
 20
346.0200667342924
  0
DIMENSION
  5
3BF
102
{ACAD_XDICTIONARY
360
3C0
102
}
330
1F
100
AcDbEntity
  8
文字
100
AcDbDimension
280
     0
  2
*D24
 10
396.0101379348549
 20
368.0963567563194
 30
0.0
 11
394.1301379348549
 21
357.0966394683826
 31
0.0
 70
    32
 71
     5
 42
21.99943457587364
 73
     0
 74
     0
 75
     0
  3
ISO-25
100
AcDbAlignedDimension
 13
373.8206292413171
 23
346.0969221804457
 33
0.0
 14
363.7120059070783
 24
368.0963567563194
 34
0.0
 50
90.0
100
AcDbRotatedDimension
  0
DIMENSION
  5
3C1
102
{ACAD_XDICTIONARY
360
3C2
102
}
330
1F
100
AcDbEntity
  8
文字
100
AcDbDimension
280
     0
  2
*D25
 10
375.8933714493255
 20
326.2847470279203
 30
0.0
 11
345.5033806612946
 21
326.2847470279203
 31
0.0
 70
   160
  1
%%c<>
 71
     5
 42
60.0
 73
     0
 74
     0
 75
     0
  3
ISO-25
100
AcDbAlignedDimension
 13
315.8933714493255
 23
352.8217752782485
 33
0.0
 14
375.8933714493255
 24
352.8217752782485
 34
0.0
100
AcDbRotatedDimension
  0
ENDSEC
  0
SECTION
  2
OBJECTS
  0
DICTIONARY
  5
C
330
0
100
AcDbDictionary
281
     1
  3
ACAD_COLOR
350
73
  3
ACAD_DETAILVIEWSTYLE
350
122
  3
ACAD_GROUP
350
D
  3
ACAD_IMAGE_VARS
350
DC
  3
ACAD_LAYOUT
350
1A
  3
ACAD_MATERIAL
350
72
  3
ACAD_MLEADERSTYLE
350
B5
  3
ACAD_MLINESTYLE
350
17
  3
ACAD_PLOTSETTINGS
350
19
  3
ACAD_PLOTSTYLENAME
350
E
  3
ACAD_SCALELIST
350
B6
  3
ACAD_SECTIONVIEWSTYLE
350
123
  3
ACAD_TABLESTYLE
350
86
  3
ACAD_VISUALSTYLE
350
99
  3
ACDB_RECOMPOSE_DATA
350
3DD
  3
AcDbVariableDictionary
350
66
  3
APPDATA
350
E1
  0
SUN
  5
ED
330
94
100
AcDbSun
 90
        1
290
     0
 63
     7
421
 16777215
 40
1.0
291
     1
 91
  2455826
 92
 54000000
292
     0
 70
     2
 71
   256
280
     1
  0
DICTIONARY
  5
258
330
257
100
AcDbDictionary
280
     1
281
     1
  3
ACAD_DIMASSOC
360
259
  0
DICTIONARY
  5
25F
330
25E
100
AcDbDictionary
280
     1
281
     1
  3
ACAD_DIMASSOC
360
260
  0
DICTIONARY
  5
26D
330
26C
100
AcDbDictionary
280
     1
281
     1
  3
ACAD_DIMASSOC
360
26E
  0
DICTIONARY
  5
273
330
272
100
AcDbDictionary
280
     1
281
     1
  3
ACAD_DIMASSOC
360
274
  0
DICTIONARY
  5
297
330
296
100
AcDbDictionary
280
     1
281
     1
  3
ACAD_DIMASSOC
360
298
  0
DICTIONARY
  5
3C0
330
3BF
100
AcDbDictionary
280
     1
281
     1
  0
DICTIONARY
  5
3C2
330
3C1
100
AcDbDictionary
280
     1
281
     1
  0
DICTIONARY
  5
73
102
{ACAD_REACTORS
330
C
102
}
330
C
100
AcDbDictionary
281
     1
  0
DICTIONARY
  5
122
102
{ACAD_REACTORS
330
C
102
}
330
C
100
AcDbDictionary
281
     1
  0
DICTIONARY
  5
D
102
{ACAD_REACTORS
330
C
102
}
330
C
100
AcDbDictionary
281
     1
  0
RASTERVARIABLES
  5
DC
102
{ACAD_REACTORS
330
C
102
}
330
C
100
AcDbRasterVariables
 90
        0
 70
     1
 71
     1
 72
     5
  0
DICTIONARY
  5
1A
102
{ACAD_REACTORS
330
C
102
}
330
C
100
AcDbDictionary
281
     1
  3
Model
350
22
  3
Sheet1
350
59
  3
Sheet2
350
5E
  0
DICTIONARY
  5
72
102
{ACAD_REACTORS
330
C
102
}
330
C
100
AcDbDictionary
281
     1
  3
ByBlock
350
E2
  3
ByLayer
350
96
  3
Global
350
98
  0
DICTIONARY
  5
B5
102
{ACAD_REACTORS
330
C
102
}
330
C
100
AcDbDictionary
281
     1
  0
DICTIONARY
  5
17
102
{ACAD_REACTORS
330
C
102
}
330
C
100
AcDbDictionary
281
     1
  3
Standard
350
18
  0
DICTIONARY
  5
19
102
{ACAD_REACTORS
330
C
102
}
330
C
100
AcDbDictionary
281
     1
  0
ACDBDICTIONARYWDFLT
  5
E
102
{ACAD_REACTORS
330
C
102
}
330
C
100
AcDbDictionary
281
     1
  3
Normal
350
F
100
AcDbDictionaryWithDefault
340
F
  0
DICTIONARY
  5
B6
102
{ACAD_REACTORS
330
C
102
}
330
C
100
AcDbDictionary
281
     1
  3
A0
350
B7
  3
A1
350
B8
  3
A2
350
B9
  3
A3
350
BA
  3
A4
350
BB
  3
A5
350
BC
  3
A6
350
BD
  3
A7
350
BE
  3
A8
350
BF
  3
A9
350
C0
  3
B0
350
C1
  3
B1
350
C2
  3
B2
350
C3
  3
B3
350
C4
  3
B4
350
C5
  3
B5
350
C6
  3
B6
350
C7
  3
B7
350
C8
  3
B8
350
C9
  3
B9
350
CA
  3
C0
350
CB
  3
C1
350
CC
  3
C2
350
CD
  3
C3
350
CE
  3
C4
350
CF
  3
C5
350
D0
  3
C6
350
D1
  3
C7
350
D2
  3
C8
350
D3
  3
C9
350
D4
  3
D0
350
D5
  3
D1
350
D6
  3
D2
350
D7
  0
DICTIONARY
  5
123
102
{ACAD_REACTORS
330
C
102
}
330
C
100
AcDbDictionary
281
     1
  0
DICTIONARY
  5
86
102
{ACAD_REACTORS
330
C
102
}
330
C
100
AcDbDictionary
281
     1
  3
Standard
350
87
  0
DICTIONARY
  5
99
102
{ACAD_REACTORS
330
C
102
}
330
C
100
AcDbDictionary
281
     1
  3
2dWireframe
350
9F
  3
3D Hidden
350
A1
  3
3dWireframe
350
A0
  3
Basic
350
9E
  3
Brighten
350
A5
  3
ColorChange
350
A9
  3
Conceptual
350
A2
  3
Dim
350
A4
  3
EdgeColorOff
350
E7
  3
Facepattern
350
A8
  3
Flat
350
9A
  3
FlatWithEdges
350
9B
  3
Gouraud
350
9C
  3
GouraudWithEdges
350
9D
  3
Hidden
350
E4
  3
JitterOff
350
E5
  3
Linepattern
350
A7
  3
OverhangOff
350
E6
  3
Realistic
350
A3
  3
Shaded
350
EC
  3
Shaded with edges
350
EB
  3
Shades of Gray
350
E8
  3
Sketchy
350
E9
  3
Thicken
350
A6
  3
Wireframe
350
E3
  3
X-Ray
350
EA
  0
XRECORD
  5
3DD
102
{ACAD_REACTORS
330
C
102
}
330
C
100
AcDbXrecord
280
     1
 90
        1
330
87
  0
DICTIONARY
  5
66
102
{ACAD_REACTORS
330
C
102
}
330
C
100
AcDbDictionary
281
     1
  3
CANNOSCALE
350
D8
  3
CTABLESTYLE
350
89
  3
DIMASSOC
350
67
  3
HIDETEXT
350
6B
  3
LIGHTSINBLOCKS
350
DF
  3
XCLIPFRAME
350
E0
  0
DICTIONARY
  5
E1
102
{ACAD_REACTORS
330
C
102
}
330
C
100
AcDbDictionary
281
     1
  0
DIMASSOC
  5
259
102
{ACAD_REACTORS
330
258
102
}
330
258
100
AcDbDimAssoc
330
257
 90
        3
 70
     0
 71
     0
  1
AcDbOsnapPointRef
 72
    13
331
25C
 73
     2
 91
        0
 40
0.0
 10
0.0
 20
0.0
 30
2.000000000000000E+50
 75
     0
  1
AcDbOsnapPointRef
 72
     1
331
25C
 73
     2
 91
        0
 40
1.0
 10
0.0
 20
0.0
 30
2.000000000000000E+50
 75
     0
  0
DIMASSOC
  5
260
102
{ACAD_REACTORS
330
25F
102
}
330
25F
100
AcDbDimAssoc
330
25E
 90
        1
 70
     0
 71
     0
  1
AcDbOsnapPointRef
 72
     1
331
263
 73
     2
 91
        1
 40
1.0
 10
0.0
 20
0.0
 30
2.000000000000000E+50
 75
     0
  0
DIMASSOC
  5
26E
102
{ACAD_REACTORS
330
26D
102
}
330
26D
100
AcDbDimAssoc
330
26C
 90
        1
 70
     0
 71
     0
  1
AcDbOsnapPointRef
 72
     1
331
25D
 73
     2
 91
        2
 40
0.9999999999999999
 10
0.0
 20
0.0
 30
2.000000000000000E+50
 75
     0
  0
DIMASSOC
  5
274
102
{ACAD_REACTORS
330
273
102
}
330
273
100
AcDbDimAssoc
330
272
 90
        3
 70
     0
 71
     0
  1
AcDbOsnapPointRef
 72
     1
331
271
 73
     2
 91
        3
 40
1.0
 10
0.0
 20
0.0
 30
2.000000000000000E+50
 75
     0
  1
AcDbOsnapPointRef
 72
     1
331
271
 73
     2
 91
        5
 40
1.0
 10
0.0
 20
0.0
 30
2.000000000000000E+50
 75
     0
  0
DIMASSOC
  5
298
102
{ACAD_REACTORS
330
297
102
}
330
297
100
AcDbDimAssoc
330
296
 90
        3
 70
     0
 71
     0
  1
AcDbOsnapPointRef
 72
     6
331
251
 73
     2
 91
        0
 40
0.4134724626556177
 10
0.0
 20
0.0
 30
0.0
332
294
 74
     2
 92
        0
 75
     0
  1
AcDbOsnapPointRef
 72
     6
331
252
 73
     2
 91
        0
 40
0.4213009132961056
 10
0.0
 20
0.0
 30
0.0
332
294
 74
     2
 92
        0
 75
     0
  0
LAYOUT
  5
22
102
{ACAD_REACTORS
330
1A
102
}
330
1A
100
AcDbPlotSettings
  1

  2
none_device
  4
ANSI_A_(8.50_x_11.00_Inches)
  6

 40
6.35
 41
19.05
 42
6.35
 43
19.05
 44
215.9
 45
279.4
 46
11.11250000000003
 47
0.0000000000000142
 48
0.0
 49
0.0
140
0.0
141
0.0
142
1.0
143
1.263157894736842
 70
 11444
 72
     0
 73
     1
 74
     1
  7
monochrome.ctb
 75
     0
 76
     0
 77
     2
 78
   300
147
0.7916666666666665
148
-702.8076765758875
149
-496.2830551296954
100
AcDbLayout
  1
Model
 70
     1
 71
     0
 10
0.0
 20
0.0
 11
12.0
 21
9.0
 12
0.0
 22
0.0
 32
0.0
 14
278.440920144187
 24
325.0347470279203
 34
0.0
 15
527.2693282426815
 25
530.507599021392
 35
0.0
146
0.0
 13
0.0
 23
0.0
 33
0.0
 16
1.0
 26
0.0
 36
0.0
 17
0.0
 27
1.0
 37
0.0
 76
     0
330
1F
331
94
  0
LAYOUT
  5
59
102
{ACAD_REACTORS
330
1A
102
}
330
1A
100
AcDbPlotSettings
  1

  2
None
  4

  6

 40
0.0
 41
0.0
 42
0.0
 43
0.0
 44
0.0
 45
0.0
 46
0.0
 47
0.0
 48
0.0
 49
0.0
140
0.0
141
0.0
142
1.0
143
1.0
 70
   688
 72
     0
 73
     0
 74
     5
  7

 75
    16
 76
     0
 77
     2
 78
   300
147
1.0
148
0.0
149
0.0
100
AcDbLayout
  1
Sheet1
 70
     1
 71
     1
 10
0.0
 20
0.0
 11
12.0
 21
9.0
 12
0.0
 22
0.0
 32
0.0
 14
0.0
 24
0.0
 34
0.0
 15
0.0
 25
0.0
 35
0.0
146
0.0
 13
0.0
 23
0.0
 33
0.0
 16
1.0
 26
0.0
 36
0.0
 17
0.0
 27
1.0
 37
0.0
 76
     0
330
58
  0
LAYOUT
  5
5E
102
{ACAD_REACTORS
330
1A
102
}
330
1A
100
AcDbPlotSettings
  1

  2
None
  4

  6

 40
0.0
 41
0.0
 42
0.0
 43
0.0
 44
0.0
 45
0.0
 46
0.0
 47
0.0
 48
0.0
 49
0.0
140
0.0
141
0.0
142
1.0
143
1.0
 70
   688
 72
     0
 73
     0
 74
     5
  7

 75
    16
 76
     0
 77
     2
 78
   300
147
1.0
148
0.0
149
0.0
100
AcDbLayout
  1
Sheet2
 70
     1
 71
     2
 10
0.0
 20
0.0
 11
12.0
 21
9.0
 12
0.0
 22
0.0
 32
0.0
 14
0.0
 24
0.0
 34
0.0
 15
0.0
 25
0.0
 35
0.0
146
0.0
 13
0.0
 23
0.0
 33
0.0
 16
1.0
 26
0.0
 36
0.0
 17
0.0
 27
1.0
 37
0.0
 76
     0
330
5D
  0
MATERIAL
  5
E2
102
{ACAD_REACTORS
330
72
102
}
330
72
100
AcDbMaterial
  1
ByBlock
 72
     1
 94
      127
  0
MATERIAL
  5
96
102
{ACAD_REACTORS
330
72
102
}
330
72
100
AcDbMaterial
  1
ByLayer
 72
     1
 94
       63
  0
MATERIAL
  5
98
102
{ACAD_REACTORS
330
72
102
}
330
72
100
AcDbMaterial
  1
Global
 72
     1
 94
       63
  0
MLINESTYLE
  5
18
102
{ACAD_REACTORS
330
17
102
}
330
17
100
AcDbMlineStyle
  2
STANDARD
 70
     0
  3

 62
   256
 51
90.0
 52
90.0
 71
     2
 49
0.5
 62
   256
  6
BYLAYER
 49
-0.5
 62
   256
  6
BYLAYER
  0
ACDBPLACEHOLDER
  5
F
102
{ACAD_REACTORS
330
E
102
}
330
E
  0
SCALE
  5
B7
102
{ACAD_REACTORS
330
B6
102
}
330
B6
100
AcDbScale
 70
     0
300
1:1
140
1.0
141
1.0
290
     1
  0
SCALE
  5
B8
102
{ACAD_REACTORS
330
B6
102
}
330
B6
100
AcDbScale
 70
     0
300
1:2
140
1.0
141
2.0
290
     0
  0
SCALE
  5
B9
102
{ACAD_REACTORS
330
B6
102
}
330
B6
100
AcDbScale
 70
     0
300
1:4
140
1.0
141
4.0
290
     0
  0
SCALE
  5
BA
102
{ACAD_REACTORS
330
B6
102
}
330
B6
100
AcDbScale
 70
     0
300
1:5
140
1.0
141
5.0
290
     0
  0
SCALE
  5
BB
102
{ACAD_REACTORS
330
B6
102
}
330
B6
100
AcDbScale
 70
     0
300
1:8
140
1.0
141
8.0
290
     0
  0
SCALE
  5
BC
102
{ACAD_REACTORS
330
B6
102
}
330
B6
100
AcDbScale
 70
     0
300
1:10
140
1.0
141
10.0
290
     0
  0
SCALE
  5
BD
102
{ACAD_REACTORS
330
B6
102
}
330
B6
100
AcDbScale
 70
     0
300
1:16
140
1.0
141
16.0
290
     0
  0
SCALE
  5
BE
102
{ACAD_REACTORS
330
B6
102
}
330
B6
100
AcDbScale
 70
     0
300
1:20
140
1.0
141
20.0
290
     0
  0
SCALE
  5
BF
102
{ACAD_REACTORS
330
B6
102
}
330
B6
100
AcDbScale
 70
     0
300
1:30
140
1.0
141
30.0
290
     0
  0
SCALE
  5
C0
102
{ACAD_REACTORS
330
B6
102
}
330
B6
100
AcDbScale
 70
     0
300
1:40
140
1.0
141
40.0
290
     0
  0
SCALE
  5
C1
102
{ACAD_REACTORS
330
B6
102
}
330
B6
100
AcDbScale
 70
     0
300
1:50
140
1.0
141
50.0
290
     0
  0
SCALE
  5
C2
102
{ACAD_REACTORS
330
B6
102
}
330
B6
100
AcDbScale
 70
     0
300
1:100
140
1.0
141
100.0
290
     0
  0
SCALE
  5
C3
102
{ACAD_REACTORS
330
B6
102
}
330
B6
100
AcDbScale
 70
     0
300
2:1
140
2.0
141
1.0
290
     0
  0
SCALE
  5
C4
102
{ACAD_REACTORS
330
B6
102
}
330
B6
100
AcDbScale
 70
     0
300
4:1
140
4.0
141
1.0
290
     0
  0
SCALE
  5
C5
102
{ACAD_REACTORS
330
B6
102
}
330
B6
100
AcDbScale
 70
     0
300
8:1
140
8.0
141
1.0
290
     0
  0
SCALE
  5
C6
102
{ACAD_REACTORS
330
B6
102
}
330
B6
100
AcDbScale
 70
     0
300
10:1
140
10.0
141
1.0
290
     0
  0
SCALE
  5
C7
102
{ACAD_REACTORS
330
B6
102
}
330
B6
100
AcDbScale
 70
     0
300
100:1
140
100.0
141
1.0
290
     0
  0
SCALE
  5
C8
102
{ACAD_REACTORS
330
B6
102
}
330
B6
100
AcDbScale
 70
     0
300
1/128" = 1'-0"
140
0.0078125
141
12.0
290
     0
  0
SCALE
  5
C9
102
{ACAD_REACTORS
330
B6
102
}
330
B6
100
AcDbScale
 70
     0
300
1/64" = 1'-0"
140
0.015625
141
12.0
290
     0
  0
SCALE
  5
CA
102
{ACAD_REACTORS
330
B6
102
}
330
B6
100
AcDbScale
 70
     0
300
1/32" = 1'-0"
140
0.03125
141
12.0
290
     0
  0
SCALE
  5
CB
102
{ACAD_REACTORS
330
B6
102
}
330
B6
100
AcDbScale
 70
     0
300
1/16" = 1'-0"
140
0.0625
141
12.0
290
     0
  0
SCALE
  5
CC
102
{ACAD_REACTORS
330
B6
102
}
330
B6
100
AcDbScale
 70
     0
300
3/32" = 1'-0"
140
0.09375
141
12.0
290
     0
  0
SCALE
  5
CD
102
{ACAD_REACTORS
330
B6
102
}
330
B6
100
AcDbScale
 70
     0
300
1/8" = 1'-0"
140
0.125
141
12.0
290
     0
  0
SCALE
  5
CE
102
{ACAD_REACTORS
330
B6
102
}
330
B6
100
AcDbScale
 70
     0
300
3/16" = 1'-0"
140
0.1875
141
12.0
290
     0
  0
SCALE
  5
CF
102
{ACAD_REACTORS
330
B6
102
}
330
B6
100
AcDbScale
 70
     0
300
1/4" = 1'-0"
140
0.25
141
12.0
290
     0
  0
SCALE
  5
D0
102
{ACAD_REACTORS
330
B6
102
}
330
B6
100
AcDbScale
 70
     0
300
3/8" = 1'-0"
140
0.375
141
12.0
290
     0
  0
SCALE
  5
D1
102
{ACAD_REACTORS
330
B6
102
}
330
B6
100
AcDbScale
 70
     0
300
1/2" = 1'-0"
140
0.5
141
12.0
290
     0
  0
SCALE
  5
D2
102
{ACAD_REACTORS
330
B6
102
}
330
B6
100
AcDbScale
 70
     0
300
3/4" = 1'-0"
140
0.75
141
12.0
290
     0
  0
SCALE
  5
D3
102
{ACAD_REACTORS
330
B6
102
}
330
B6
100
AcDbScale
 70
     0
300
1" = 1'-0"
140
1.0
141
12.0
290
     0
  0
SCALE
  5
D4
102
{ACAD_REACTORS
330
B6
102
}
330
B6
100
AcDbScale
 70
     0
300
1-1/2" = 1'-0"
140
1.5
141
12.0
290
     0
  0
SCALE
  5
D5
102
{ACAD_REACTORS
330
B6
102
}
330
B6
100
AcDbScale
 70
     0
300
3" = 1'-0"
140
3.0
141
12.0
290
     0
  0
SCALE
  5
D6
102
{ACAD_REACTORS
330
B6
102
}
330
B6
100
AcDbScale
 70
     0
300
6" = 1'-0"
140
6.0
141
12.0
290
     0
  0
SCALE
  5
D7
102
{ACAD_REACTORS
330
B6
102
}
330
B6
100
AcDbScale
 70
     0
300
1'-0" = 1'-0"
140
12.0
141
12.0
290
     0
  0
TABLESTYLE
  5
87
102
{ACAD_REACTORS
330
86
102
}
102
{ACAD_XDICTIONARY
360
3DB
102
}
330
86
100
AcDbTableStyle
  3
Standard
 70
     0
 71
     0
 40
0.06
 41
0.06
280
     0
281
     0
  7
Standard
140
0.18
170
     2
 62
     0
 63
   257
283
     0
 90
      512
 91
        0
  1

274
    -2
284
     1
 64
     0
275
    -2
285
     1
 65
     0
276
    -2
286
     1
 66
     0
277
    -2
287
     1
 67
     0
278
    -2
288
     1
 68
     0
279
    -2
289
     1
 69
     0
  7
Standard
140
0.25
170
     5
 62
     0
 63
   257
283
     0
 90
      512
 91
        0
  1

274
    -2
284
     1
 64
     0
275
    -2
285
     1
 65
     0
276
    -2
286
     1
 66
     0
277
    -2
287
     1
 67
     0
278
    -2
288
     1
 68
     0
279
    -2
289
     1
 69
     0
  7
Standard
140
0.18
170
     5
 62
     0
 63
   257
283
     0
 90
      512
 91
        0
  1

274
    -2
284
     1
 64
     0
275
    -2
285
     1
 65
     0
276
    -2
286
     1
 66
     0
277
    -2
287
     1
 67
     0
278
    -2
288
     1
 68
     0
279
    -2
289
     1
 69
     0
  0
VISUALSTYLE
  5
9F
102
{ACAD_REACTORS
330
99
102
}
330
99
100
AcDbVisualStyle
  2
2dWireframe
 70
     4
177
     3
291
     0
 70
    58
 90
        0
176
     1
 90
        2
176
     1
 90
        1
176
     1
 90
        0
176
     1
 40
-0.6
176
     1
 40
-30.0
176
     1
 62
     7
420
 16777215
176
     1
 90
        1
176
     1
 90
        4
176
     1
 62
     7
176
     1
 62
   257
176
     1
 90
        1
176
     1
 90
        1
176
     1
 40
1.0
176
     1
 90
        0
176
     1
 62
   257
176
     1
 40
1.0
176
     1
 90
        1
176
     1
 90
        6
176
     1
 90
        2
176
     1
 62
     7
176
     1
 90
        5
176
     1
 90
        0
176
     1
 90
        0
176
     1
290
     0
176
     1
 90
        1
176
     1
 40
0.0
176
     1
 90
        0
176
     1
290
     1
176
     1
290
     1
176
     1
290
     0
176
     1
290
     0
176
     1
290
     0
176
     1
290
     0
176
     1
290
     0
176
     1
290
     0
176
     1
290
     0
176
     1
 90
       50
176
     1
 40
0.0
176
     1
 40
1.0
176
     1
 90
        0
176
     1
 62
    18
420
        0
176
     1
 90
       50
176
     1
 90
        3
176
     1
 62
     5
420
      255
176
     1
290
     0
176
     1
 90
       50
176
     1
 90
       50
176
     1
 90
       50
176
     1
290
     0
176
     1
 90
       50
176
     1
 62
   256
176
     0
 40
1.0
176
     0
 90
        2
176
     1
  1
strokes_ogs.tif
176
     1
290
     0
176
     1
 40
1.0
176
     1
 40
1.0
176
     1
  0
VISUALSTYLE
  5
A1
102
{ACAD_REACTORS
330
99
102
}
330
99
100
AcDbVisualStyle
  2
3D Hidden
 70
     6
177
     3
291
     0
 70
    58
 90
        1
176
     1
 90
        2
176
     1
 90
        2
176
     1
 90
        0
176
     1
 40
-0.6
176
     1
 40
-30.0
176
     1
 62
     7
420
 16777215
176
     1
 90
        2
176
     1
 90
        2
176
     1
 62
     7
176
     1
 62
   257
176
     1
 90
        2
176
     1
 90
        1
176
     1
 40
40.0
176
     1
 90
        0
176
     1
 62
   257
176
     1
 40
1.0
176
     1
 90
        1
176
     1
 90
        6
176
     1
 90
        2
176
     1
 62
     7
176
     1
 90
        3
176
     1
 90
        0
176
     1
 90
        0
176
     1
290
     0
176
     1
 90
        1
176
     1
 40
0.0
176
     1
 90
        0
176
     1
290
     0
176
     1
290
     1
176
     1
290
     1
176
     1
290
     0
176
     1
290
     0
176
     1
290
     0
176
     1
290
     0
176
     1
290
     0
176
     1
290
     0
176
     1
 90
       50
176
     1
 40
0.0
176
     1
 40
1.0
176
     1
 90
        0
176
     1
 62
    18
420
        0
176
     1
 90
       50
176
     1
 90
        3
176
     1
 62
     5
420
      255
176
     1
290
     0
176
     1
 90
       50
176
     1
 90
       50
176
     1
 90
       50
176
     1
290
     0
176
     1
 90
       50
176
     1
 62
   256
176
     0
 40
1.0
176
     0
 90
        2
176
     1
  1
strokes_ogs.tif
176
     1
290
     0
176
     1
 40
1.0
176
     1
 40
1.0
176
     1
  0
VISUALSTYLE
  5
A0
102
{ACAD_REACTORS
330
99
102
}
330
99
100
AcDbVisualStyle
  2
3dWireframe
 70
     5
177
     3
291
     0
 70
    58
 90
        0
176
     1
 90
        2
176
     1
 90
        1
176
     1
 90
        0
176
     1
 40
-0.6
176
     1
 40
-30.0
176
     1
 62
     7
420
 16777215
176
     1
 90
        1
176
     1
 90
        4
176
     1
 62
     7
176
     1
 62
   257
176
     1
 90
        1
176
     1
 90
        1
176
     1
 40
1.0
176
     1
 90
        0
176
     1
 62
   257
176
     1
 40
1.0
176
     1
 90
        1
176
     1
 90
        6
176
     1
 90
        2
176
     1
 62
     7
176
     1
 90
        5
176
     1
 90
        0
176
     1
 90
        0
176
     1
290
     0
176
     1
 90
        1
176
     1
 40
0.0
176
     1
 90
        0
176
     1
290
     0
176
     1
290
     1
176
     1
290
     1
176
     1
290
     0
176
     1
290
     0
176
     1
290
     0
176
     1
290
     0
176
     1
290
     0
176
     1
290
     0
176
     1
 90
       50
176
     1
 40
0.0
176
     1
 40
1.0
176
     1
 90
        0
176
     1
 62
    18
420
        0
176
     1
 90
       50
176
     1
 90
        3
176
     1
 62
     5
420
      255
176
     1
290
     0
176
     1
 90
       50
176
     1
 90
       50
176
     1
 90
       50
176
     1
290
     0
176
     1
 90
       50
176
     1
 62
   256
176
     0
 40
1.0
176
     0
 90
        2
176
     1
  1
strokes_ogs.tif
176
     1
290
     0
176
     1
 40
1.0
176
     1
 40
1.0
176
     1
  0
VISUALSTYLE
  5
9E
102
{ACAD_REACTORS
330
99
102
}
330
99
100
AcDbVisualStyle
  2
Basic
 70
     7
177
     3
291
     1
 70
    58
 90
        1
176
     1
 90
        0
176
     1
 90
        1
176
     1
 90
        0
176
     1
 40
-0.6
176
     1
 40
-30.0
176
     1
 62
     7
420
 16777215
176
     1
 90
        0
176
     1
 90
        4
176
     1
 62
     7
176
     1
 62
   257
176
     1
 90
        1
176
     1
 90
        1
176
     1
 40
1.0
176
     1
 90
        8
176
     1
 62
     7
176
     1
 40
1.0
176
     1
 90
        1
176
     1
 90
        6
176
     1
 90
        2
176
     1
 62
     7
176
     1
 90
        5
176
     1
 90
        0
176
     1
 90
        0
176
     1
290
     0
176
     1
 90
        1
176
     1
 40
0.0
176
     1
 90
        0
176
     1
290
     0
176
     1
290
     1
176
     1
290
     1
176
     1
290
     0
176
     1
290
     0
176
     1
290
     0
176
     1
290
     0
176
     1
290
     0
176
     1
290
     0
176
     1
 90
       50
176
     1
 40
0.0
176
     1
 40
1.0
176
     1
 90
        0
176
     1
 62
    18
420
        0
176
     1
 90
       50
176
     1
 90
        3
176
     1
 62
     5
420
      255
176
     1
290
     0
176
     1
 90
       50
176
     1
 90
       50
176
     1
 90
       50
176
     1
290
     0
176
     1
 90
       50
176
     1
 62
   256
176
     0
 40
1.0
176
     0
 90
        2
176
     1
  1
strokes_ogs.tif
176
     1
290
     0
176
     1
 40
1.0
176
     1
 40
1.0
176
     1
  0
VISUALSTYLE
  5
A5
102
{ACAD_REACTORS
330
99
102
}
330
99
100
AcDbVisualStyle
  2
Brighten
 70
    12
177
     3
291
     1
 70
    58
 90
        2
176
     1
 90
        2
176
     1
 90
        1
176
     1
 90
        0
176
     1
 40
-0.6
176
     1
 40
-30.0
176
     1
 62
     7
420
 16777215
176
     1
 90
        1
176
     1
 90
        4
176
     1
 62
     7
176
     1
 62
   257
176
     1
 90
        1
176
     1
 90
        1
176
     1
 40
1.0
176
     1
 90
        8
176
     1
 62
     7
176
     1
 40
1.0
176
     1
 90
        1
176
     1
 90
        6
176
     1
 90
        2
176
     1
 62
     7
176
     1
 90
        5
176
     1
 90
        0
176
     1
 90
        0
176
     1
290
     0
176
     1
 90
        1
176
     1
 40
50.0
176
     1
 90
        0
176
     1
290
     0
176
     1
290
     1
176
     1
290
     1
176
     1
290
     0
176
     1
290
     0
176
     1
290
     0
176
     1
290
     0
176
     1
290
     0
176
     1
290
     0
176
     1
 90
       50
176
     1
 40
0.0
176
     1
 40
1.0
176
     1
 90
        0
176
     1
 62
    18
420
        0
176
     1
 90
       50
176
     1
 90
        3
176
     1
 62
     5
420
      255
176
     1
290
     0
176
     1
 90
       50
176
     1
 90
       50
176
     1
 90
       50
176
     1
290
     0
176
     1
 90
       50
176
     1
 62
   256
176
     0
 40
1.0
176
     0
 90
        2
176
     1
  1
strokes_ogs.tif
176
     1
290
     0
176
     1
 40
1.0
176
     1
 40
1.0
176
     1
  0
VISUALSTYLE
  5
A9
102
{ACAD_REACTORS
330
99
102
}
330
99
100
AcDbVisualStyle
  2
ColorChange
 70
    16
177
     3
291
     1
 70
    58
 90
        2
176
     1
 90
        2
176
     1
 90
        3
176
     1
 90
        0
176
     1
 40
-0.6
176
     1
 40
-30.0
176
     1
 62
     8
420
  8421504
176
     1
 90
        1
176
     1
 90
        4
176
     1
 62
     7
176
     1
 62
   257
176
     1
 90
        1
176
     1
 90
        1
176
     1
 40
1.0
176
     1
 90
        8
176
     1
 62
     8
420
  8421504
176
     1
 40
1.0
176
     1
 90
        1
176
     1
 90
        6
176
     1
 90
        2
176
     1
 62
     7
176
     1
 90
        5
176
     1
 90
        0
176
     1
 90
        0
176
     1
290
     0
176
     1
 90
        1
176
     1
 40
0.0
176
     1
 90
        0
176
     1
290
     0
176
     1
290
     1
176
     1
290
     1
176
     1
290
     0
176
     1
290
     0
176
     1
290
     0
176
     1
290
     0
176
     1
290
     0
176
     1
290
     0
176
     1
 90
       50
176
     1
 40
0.0
176
     1
 40
1.0
176
     1
 90
        0
176
     1
 62
    18
420
        0
176
     1
 90
       50
176
     1
 90
        3
176
     1
 62
     5
420
      255
176
     1
290
     0
176
     1
 90
       50
176
     1
 90
       50
176
     1
 90
       50
176
     1
290
     0
176
     1
 90
       50
176
     1
 62
   256
176
     0
 40
1.0
176
     0
 90
        2
176
     1
  1
strokes_ogs.tif
176
     1
290
     0
176
     1
 40
1.0
176
     1
 40
1.0
176
     1
  0
VISUALSTYLE
  5
A2
102
{ACAD_REACTORS
330
99
102
}
330
99
100
AcDbVisualStyle
  2
Conceptual
 70
     9
177
     3
291
     0
 70
    58
 90
        3
176
     1
 90
        2
176
     1
 90
        1
176
     1
 90
        0
176
     1
 40
-0.6
176
     1
 40
-30.0
176
     1
 62
     7
420
 16777215
176
     1
 90
        2
176
     1
 90
        2
176
     1
 62
     7
176
     1
 62
   257
176
     1
 90
        1
176
     1
 90
        1
176
     1
 40
40.0
176
     1
 90
        8
176
     1
 62
     7
176
     1
 40
1.0
176
     1
 90
        1
176
     1
 90
        6
176
     1
 90
        2
176
     1
 62
     7
176
     1
 90
        3
176
     1
 90
        0
176
     1
 90
        0
176
     1
290
     0
176
     1
 90
        1
176
     1
 40
0.0
176
     1
 90
        0
176
     1
290
     0
176
     1
290
     1
176
     1
290
     1
176
     1
290
     0
176
     1
290
     0
176
     1
290
     0
176
     1
290
     0
176
     1
290
     0
176
     1
290
     0
176
     1
 90
       50
176
     1
 40
0.0
176
     1
 40
1.0
176
     1
 90
        0
176
     1
 62
    18
420
        0
176
     1
 90
       50
176
     1
 90
        3
176
     1
 62
     5
420
      255
176
     1
290
     0
176
     1
 90
       50
176
     1
 90
       50
176
     1
 90
       50
176
     1
290
     0
176
     1
 90
       50
176
     1
 62
   256
176
     0
 40
1.0
176
     0
 90
        2
176
     1
  1
strokes_ogs.tif
176
     1
290
     0
176
     1
 40
1.0
176
     1
 40
1.0
176
     1
  0
VISUALSTYLE
  5
A4
102
{ACAD_REACTORS
330
99
102
}
330
99
100
AcDbVisualStyle
  2
Dim
 70
    11
177
     3
291
     1
 70
    58
 90
        2
176
     1
 90
        2
176
     1
 90
        1
176
     1
 90
        0
176
     1
 40
-0.6
176
     1
 40
-30.0
176
     1
 62
     7
420
 16777215
176
     1
 90
        1
176
     1
 90
        4
176
     1
 62
     7
176
     1
 62
   257
176
     1
 90
        1
176
     1
 90
        1
176
     1
 40
1.0
176
     1
 90
        8
176
     1
 62
     7
176
     1
 40
1.0
176
     1
 90
        1
176
     1
 90
        6
176
     1
 90
        2
176
     1
 62
     7
176
     1
 90
        5
176
     1
 90
        0
176
     1
 90
        0
176
     1
290
     0
176
     1
 90
        1
176
     1
 40
-50.0
176
     1
 90
        0
176
     1
290
     0
176
     1
290
     1
176
     1
290
     1
176
     1
290
     0
176
     1
290
     0
176
     1
290
     0
176
     1
290
     0
176
     1
290
     0
176
     1
290
     0
176
     1
 90
       50
176
     1
 40
0.0
176
     1
 40
1.0
176
     1
 90
        0
176
     1
 62
    18
420
        0
176
     1
 90
       50
176
     1
 90
        3
176
     1
 62
     5
420
      255
176
     1
290
     0
176
     1
 90
       50
176
     1
 90
       50
176
     1
 90
       50
176
     1
290
     0
176
     1
 90
       50
176
     1
 62
   256
176
     0
 40
1.0
176
     0
 90
        2
176
     1
  1
strokes_ogs.tif
176
     1
290
     0
176
     1
 40
1.0
176
     1
 40
1.0
176
     1
  0
VISUALSTYLE
  5
E7
102
{ACAD_REACTORS
330
99
102
}
330
99
100
AcDbVisualStyle
  2
EdgeColorOff
 70
    22
177
     3
291
     1
 70
    58
 90
        2
176
     0
 90
        2
176
     0
 90
        0
176
     0
 90
        0
176
     0
 40
0.6
176
     0
 40
30.0
176
     0
 62
     7
420
 16777215
176
     0
 90
        1
176
     0
 90
        4
176
     0
 62
     7
176
     0
 62
   257
176
     0
 90
        1
176
     0
 90
        1
176
     0
 40
1.0
176
     0
 90
        8
176
     2
 62
     7
176
     0
 40
1.0
176
     0
 90
        1
176
     0
 90
        6
176
     0
 90
        2
176
     0
 62
     7
176
     0
 90
        5
176
     0
 90
        0
176
     0
 90
        0
176
     0
290
     0
176
     0
 90
        1
176
     0
 40
0.0
176
     0
 90
        0
176
     0
290
     0
176
     0
290
     1
176
     0
290
     1
176
     0
290
     0
176
     0
290
     0
176
     0
290
     0
176
     0
290
     0
176
     0
290
     0
176
     0
290
     0
176
     0
 90
       50
176
     0
 40
0.0
176
     0
 40
1.0
176
     0
 90
        0
176
     0
 62
    18
420
        0
176
     0
 90
       50
176
     0
 90
        3
176
     0
 62
     5
420
      255
176
     0
290
     0
176
     0
 90
       50
176
     0
 90
       50
176
     0
 90
       50
176
     0
290
     0
176
     0
 90
       50
176
     0
 62
   256
176
     0
 40
1.0
176
     0
 90
        2
176
     0
  1
strokes_ogs.tif
176
     0
290
     0
176
     0
 40
1.0
176
     0
 40
1.0
176
     0
  0
VISUALSTYLE
  5
A8
102
{ACAD_REACTORS
330
99
102
}
330
99
100
AcDbVisualStyle
  2
Facepattern
 70
    15
177
     3
291
     1
 70
    58
 90
        2
176
     1
 90
        2
176
     1
 90
        1
176
     1
 90
        0
176
     1
 40
-0.6
176
     1
 40
-30.0
176
     1
 62
     7
420
 16777215
176
     1
 90
        1
176
     1
 90
        4
176
     1
 62
     7
176
     1
 62
   257
176
     1
 90
        1
176
     1
 90
        1
176
     1
 40
1.0
176
     1
 90
        8
176
     1
 62
     7
176
     1
 40
1.0
176
     1
 90
        1
176
     1
 90
        6
176
     1
 90
        2
176
     1
 62
     7
176
     1
 90
        5
176
     1
 90
        0
176
     1
 90
        0
176
     1
290
     0
176
     1
 90
        1
176
     1
 40
0.0
176
     1
 90
        0
176
     1
290
     0
176
     1
290
     1
176
     1
290
     1
176
     1
290
     0
176
     1
290
     0
176
     1
290
     0
176
     1
290
     0
176
     1
290
     0
176
     1
290
     0
176
     1
 90
       50
176
     1
 40
0.0
176
     1
 40
1.0
176
     1
 90
        0
176
     1
 62
    18
420
        0
176
     1
 90
       50
176
     1
 90
        3
176
     1
 62
     5
420
      255
176
     1
290
     0
176
     1
 90
       50
176
     1
 90
       50
176
     1
 90
       50
176
     1
290
     0
176
     1
 90
       50
176
     1
 62
   256
176
     0
 40
1.0
176
     0
 90
        2
176
     1
  1
strokes_ogs.tif
176
     1
290
     0
176
     1
 40
1.0
176
     1
 40
1.0
176
     1
  0
VISUALSTYLE
  5
9A
102
{ACAD_REACTORS
330
99
102
}
330
99
100
AcDbVisualStyle
  2
Flat
 70
     0
177
     3
291
     1
 70
    58
 90
        2
176
     1
 90
        1
176
     1
 90
        1
176
     1
 90
        2
176
     1
 40
-0.6
176
     1
 40
30.0
176
     1
 62
     7
420
 16777215
176
     1
 90
        0
176
     1
 90
        4
176
     1
 62
     7
176
     1
 62
   257
176
     1
 90
        1
176
     1
 90
        1
176
     1
 40
1.0
176
     1
 90
        8
176
     1
 62
     7
176
     1
 40
1.0
176
     1
 90
        1
176
     1
 90
        6
176
     1
 90
        2
176
     1
 62
     7
176
     1
 90
        5
176
     1
 90
        0
176
     1
 90
        0
176
     1
290
     0
176
     1
 90
        1
176
     1
 40
0.0
176
     1
 90
        0
176
     1
290
     0
176
     1
290
     1
176
     1
290
     1
176
     1
290
     0
176
     1
290
     0
176
     1
290
     0
176
     1
290
     0
176
     1
290
     0
176
     1
290
     0
176
     1
 90
       50
176
     1
 40
0.0
176
     1
 40
1.0
176
     1
 90
        0
176
     1
 62
    18
420
        0
176
     1
 90
       50
176
     1
 90
        3
176
     1
 62
     5
420
      255
176
     1
290
     0
176
     1
 90
       50
176
     1
 90
       50
176
     1
 90
       50
176
     1
290
     0
176
     1
 90
       50
176
     1
 62
   256
176
     0
 40
1.0
176
     0
 90
        2
176
     1
  1
strokes_ogs.tif
176
     1
290
     0
176
     1
 40
1.0
176
     1
 40
1.0
176
     1
  0
VISUALSTYLE
  5
9B
102
{ACAD_REACTORS
330
99
102
}
330
99
100
AcDbVisualStyle
  2
FlatWithEdges
 70
     1
177
     3
291
     1
 70
    58
 90
        2
176
     1
 90
        1
176
     1
 90
        1
176
     1
 90
        2
176
     1
 40
-0.6
176
     1
 40
30.0
176
     1
 62
     7
420
 16777215
176
     1
 90
        1
176
     1
 90
        4
176
     1
 62
     7
176
     1
 62
   257
176
     1
 90
        1
176
     1
 90
        1
176
     1
 40
1.0
176
     1
 90
        0
176
     1
 62
   257
176
     1
 40
1.0
176
     1
 90
        1
176
     1
 90
        6
176
     1
 90
        2
176
     1
 62
     7
176
     1
 90
        5
176
     1
 90
        0
176
     1
 90
        0
176
     1
290
     0
176
     1
 90
        1
176
     1
 40
0.0
176
     1
 90
        0
176
     1
290
     0
176
     1
290
     1
176
     1
290
     1
176
     1
290
     0
176
     1
290
     0
176
     1
290
     0
176
     1
290
     0
176
     1
290
     0
176
     1
290
     0
176
     1
 90
       50
176
     1
 40
0.0
176
     1
 40
1.0
176
     1
 90
        0
176
     1
 62
    18
420
        0
176
     1
 90
       50
176
     1
 90
        3
176
     1
 62
     5
420
      255
176
     1
290
     0
176
     1
 90
       50
176
     1
 90
       50
176
     1
 90
       50
176
     1
290
     0
176
     1
 90
       50
176
     1
 62
   256
176
     0
 40
1.0
176
     0
 90
        2
176
     1
  1
strokes_ogs.tif
176
     1
290
     0
176
     1
 40
1.0
176
     1
 40
1.0
176
     1
  0
VISUALSTYLE
  5
9C
102
{ACAD_REACTORS
330
99
102
}
330
99
100
AcDbVisualStyle
  2
Gouraud
 70
     2
177
     3
291
     1
 70
    58
 90
        2
176
     1
 90
        2
176
     1
 90
        1
176
     1
 90
        2
176
     1
 40
-0.6
176
     1
 40
30.0
176
     1
 62
     7
420
 16777215
176
     1
 90
        0
176
     1
 90
        4
176
     1
 62
     7
176
     1
 62
   257
176
     1
 90
        1
176
     1
 90
        1
176
     1
 40
1.0
176
     1
 90
        0
176
     1
 62
     7
176
     1
 40
1.0
176
     1
 90
        1
176
     1
 90
        6
176
     1
 90
        2
176
     1
 62
     7
176
     1
 90
        5
176
     1
 90
        0
176
     1
 90
        0
176
     1
290
     0
176
     1
 90
        1
176
     1
 40
0.0
176
     1
 90
        0
176
     1
290
     0
176
     1
290
     1
176
     1
290
     1
176
     1
290
     0
176
     1
290
     0
176
     1
290
     0
176
     1
290
     0
176
     1
290
     0
176
     1
290
     0
176
     1
 90
       50
176
     1
 40
0.0
176
     1
 40
1.0
176
     1
 90
        0
176
     1
 62
    18
420
        0
176
     1
 90
       50
176
     1
 90
        3
176
     1
 62
     5
420
      255
176
     1
290
     0
176
     1
 90
       50
176
     1
 90
       50
176
     1
 90
       50
176
     1
290
     0
176
     1
 90
       50
176
     1
 62
   256
176
     0
 40
1.0
176
     0
 90
        2
176
     1
  1
strokes_ogs.tif
176
     1
290
     0
176
     1
 40
1.0
176
     1
 40
1.0
176
     1
  0
VISUALSTYLE
  5
9D
102
{ACAD_REACTORS
330
99
102
}
330
99
100
AcDbVisualStyle
  2
GouraudWithEdges
 70
     3
177
     3
291
     1
 70
    58
 90
        2
176
     1
 90
        2
176
     1
 90
        1
176
     1
 90
        2
176
     1
 40
-0.6
176
     1
 40
30.0
176
     1
 62
     7
420
 16777215
176
     1
 90
        1
176
     1
 90
        4
176
     1
 62
     7
176
     1
 62
   257
176
     1
 90
        1
176
     1
 90
        1
176
     1
 40
1.0
176
     1
 90
        0
176
     1
 62
   257
176
     1
 40
1.0
176
     1
 90
        1
176
     1
 90
        6
176
     1
 90
        2
176
     1
 62
     7
176
     1
 90
        5
176
     1
 90
        0
176
     1
 90
        0
176
     1
290
     0
176
     1
 90
        1
176
     1
 40
0.0
176
     1
 90
        0
176
     1
290
     0
176
     1
290
     1
176
     1
290
     1
176
     1
290
     0
176
     1
290
     0
176
     1
290
     0
176
     1
290
     0
176
     1
290
     0
176
     1
290
     0
176
     1
 90
       50
176
     1
 40
0.0
176
     1
 40
1.0
176
     1
 90
        0
176
     1
 62
    18
420
        0
176
     1
 90
       50
176
     1
 90
        3
176
     1
 62
     5
420
      255
176
     1
290
     0
176
     1
 90
       50
176
     1
 90
       50
176
     1
 90
       50
176
     1
290
     0
176
     1
 90
       50
176
     1
 62
   256
176
     0
 40
1.0
176
     0
 90
        2
176
     1
  1
strokes_ogs.tif
176
     1
290
     0
176
     1
 40
1.0
176
     1
 40
1.0
176
     1
  0
VISUALSTYLE
  5
E4
102
{ACAD_REACTORS
330
99
102
}
330
99
100
AcDbVisualStyle
  2
Hidden
 70
     6
177
     3
291
     0
 70
    58
 90
        1
176
     1
 90
        2
176
     1
 90
        2
176
     1
 90
        0
176
     1
 40
0.6
176
     1
 40
30.0
176
     1
 62
     7
420
 16777215
176
     1
 90
        2
176
     1
 90
        2
176
     1
 62
     7
176
     1
 62
   257
176
     1
 90
        2
176
     1
 90
        1
176
     1
 40
40.0
176
     1
 90
        0
176
     1
 62
   257
176
     1
 40
1.0
176
     1
 90
        1
176
     1
 90
        6
176
     1
 90
        2
176
     1
 62
     7
176
     1
 90
        3
176
     1
 90
        0
176
     1
 90
        0
176
     1
290
     0
176
     1
 90
        1
176
     1
 40
0.0
176
     1
 90
        0
176
     1
290
     0
176
     1
290
     1
176
     1
290
     1
176
     1
290
     0
176
     1
290
     0
176
     1
290
     0
176
     1
290
     0
176
     1
290
     0
176
     1
290
     0
176
     1
 90
       50
176
     1
 40
0.0
176
     1
 40
1.0
176
     1
 90
        0
176
     1
 62
    18
420
        0
176
     1
 90
       50
176
     1
 90
        3
176
     1
 62
     5
420
      255
176
     1
290
     0
176
     1
 90
       50
176
     1
 90
       50
176
     1
 90
       50
176
     1
290
     0
176
     1
 90
       50
176
     1
 62
   256
176
     0
 40
1.0
176
     0
 90
        2
176
     1
  1
strokes_ogs.tif
176
     1
290
     0
176
     1
 40
1.0
176
     1
 40
1.0
176
     1
  0
VISUALSTYLE
  5
E5
102
{ACAD_REACTORS
330
99
102
}
330
99
100
AcDbVisualStyle
  2
JitterOff
 70
    20
177
     3
291
     1
 70
    58
 90
        2
176
     0
 90
        2
176
     0
 90
        0
176
     0
 90
        0
176
     0
 40
0.6
176
     0
 40
30.0
176
     0
 62
     7
420
 16777215
176
     0
 90
        1
176
     0
 90
        4
176
     0
 62
     7
176
     0
 62
   257
176
     0
 90
        1
176
     0
 90
        1
176
     0
 40
1.0
176
     0
 90
       10
176
     2
 62
     7
176
     0
 40
1.0
176
     0
 90
        1
176
     0
 90
        6
176
     0
 90
        2
176
     0
 62
     7
176
     0
 90
        5
176
     0
 90
        0
176
     0
 90
        0
176
     0
290
     0
176
     0
 90
        1
176
     0
 40
0.0
176
     0
 90
        0
176
     0
290
     0
176
     0
290
     1
176
     0
290
     1
176
     0
290
     0
176
     0
290
     0
176
     0
290
     0
176
     0
290
     0
176
     0
290
     0
176
     0
290
     0
176
     0
 90
       50
176
     0
 40
0.0
176
     0
 40
1.0
176
     0
 90
        0
176
     0
 62
    18
420
        0
176
     0
 90
       50
176
     0
 90
        3
176
     0
 62
     5
420
      255
176
     0
290
     0
176
     0
 90
       50
176
     0
 90
       50
176
     0
 90
       50
176
     0
290
     0
176
     0
 90
       50
176
     0
 62
   256
176
     0
 40
1.0
176
     0
 90
        2
176
     0
  1
strokes_ogs.tif
176
     0
290
     0
176
     0
 40
1.0
176
     0
 40
1.0
176
     0
  0
VISUALSTYLE
  5
A7
102
{ACAD_REACTORS
330
99
102
}
330
99
100
AcDbVisualStyle
  2
Linepattern
 70
    14
177
     3
291
     1
 70
    58
 90
        2
176
     1
 90
        2
176
     1
 90
        1
176
     1
 90
        0
176
     1
 40
-0.6
176
     1
 40
-30.0
176
     1
 62
     7
420
 16777215
176
     1
 90
        1
176
     1
 90
        4
176
     1
 62
     7
176
     1
 62
   257
176
     1
 90
        7
176
     1
 90
        7
176
     1
 40
1.0
176
     1
 90
        8
176
     1
 62
     7
176
     1
 40
1.0
176
     1
 90
        1
176
     1
 90
        6
176
     1
 90
        2
176
     1
 62
     7
176
     1
 90
        5
176
     1
 90
        0
176
     1
 90
        0
176
     1
290
     0
176
     1
 90
        1
176
     1
 40
0.0
176
     1
 90
        0
176
     1
290
     0
176
     1
290
     1
176
     1
290
     1
176
     1
290
     0
176
     1
290
     0
176
     1
290
     0
176
     1
290
     0
176
     1
290
     0
176
     1
290
     0
176
     1
 90
       50
176
     1
 40
0.0
176
     1
 40
1.0
176
     1
 90
        0
176
     1
 62
    18
420
        0
176
     1
 90
       50
176
     1
 90
        3
176
     1
 62
     5
420
      255
176
     1
290
     0
176
     1
 90
       50
176
     1
 90
       50
176
     1
 90
       50
176
     1
290
     0
176
     1
 90
       50
176
     1
 62
   256
176
     0
 40
1.0
176
     0
 90
        2
176
     1
  1
strokes_ogs.tif
176
     1
290
     0
176
     1
 40
1.0
176
     1
 40
1.0
176
     1
  0
VISUALSTYLE
  5
E6
102
{ACAD_REACTORS
330
99
102
}
330
99
100
AcDbVisualStyle
  2
OverhangOff
 70
    21
177
     3
291
     1
 70
    58
 90
        2
176
     0
 90
        2
176
     0
 90
        0
176
     0
 90
        0
176
     0
 40
0.6
176
     0
 40
30.0
176
     0
 62
     7
420
 16777215
176
     0
 90
        1
176
     0
 90
        4
176
     0
 62
     7
176
     0
 62
   257
176
     0
 90
        1
176
     0
 90
        1
176
     0
 40
1.0
176
     0
 90
        9
176
     2
 62
     7
176
     0
 40
1.0
176
     0
 90
        1
176
     0
 90
        6
176
     0
 90
        2
176
     0
 62
     7
176
     0
 90
        5
176
     0
 90
        0
176
     0
 90
        0
176
     0
290
     0
176
     0
 90
        1
176
     0
 40
0.0
176
     0
 90
        0
176
     0
290
     0
176
     0
290
     1
176
     0
290
     1
176
     0
290
     0
176
     0
290
     0
176
     0
290
     0
176
     0
290
     0
176
     0
290
     0
176
     0
290
     0
176
     0
 90
       50
176
     0
 40
0.0
176
     0
 40
1.0
176
     0
 90
        0
176
     0
 62
    18
420
        0
176
     0
 90
       50
176
     0
 90
        3
176
     0
 62
     5
420
      255
176
     0
290
     0
176
     0
 90
       50
176
     0
 90
       50
176
     0
 90
       50
176
     0
290
     0
176
     0
 90
       50
176
     0
 62
   256
176
     0
 40
1.0
176
     0
 90
        2
176
     0
  1
strokes_ogs.tif
176
     0
290
     0
176
     0
 40
1.0
176
     0
 40
1.0
176
     0
  0
VISUALSTYLE
  5
A3
102
{ACAD_REACTORS
330
99
102
}
330
99
100
AcDbVisualStyle
  2
Realistic
 70
     8
177
     3
291
     0
 70
    58
 90
        2
176
     1
 90
        2
176
     1
 90
        1
176
     1
 90
        0
176
     1
 40
-0.6
176
     1
 40
-30.0
176
     1
 62
     7
420
 16777215
176
     1
 90
        1
176
     1
 90
        0
176
     1
 62
     7
176
     1
 62
   257
176
     1
 90
        1
176
     1
 90
        1
176
     1
 40
1.0
176
     1
 90
        8
176
     1
 62
     8
420
  7895160
176
     1
 40
1.0
176
     1
 90
        1
176
     1
 90
        6
176
     1
 90
        2
176
     1
 62
     7
176
     1
 90
        5
176
     1
 90
        0
176
     1
 90
        0
176
     1
290
     0
176
     1
 90
       13
176
     1
 40
0.0
176
     1
 90
        0
176
     1
290
     0
176
     1
290
     1
176
     1
290
     1
176
     1
290
     0
176
     1
290
     0
176
     1
290
     0
176
     1
290
     0
176
     1
290
     0
176
     1
290
     0
176
     1
 90
       50
176
     1
 40
0.0
176
     1
 40
1.0
176
     1
 90
        0
176
     1
 62
    18
420
        0
176
     1
 90
       50
176
     1
 90
        3
176
     1
 62
     5
420
      255
176
     1
290
     0
176
     1
 90
       50
176
     1
 90
       50
176
     1
 90
       50
176
     1
290
     0
176
     1
 90
       50
176
     1
 62
   256
176
     0
 40
1.0
176
     0
 90
        2
176
     1
  1
strokes_ogs.tif
176
     1
290
     0
176
     1
 40
1.0
176
     1
 40
1.0
176
     1
  0
VISUALSTYLE
  5
EC
102
{ACAD_REACTORS
330
99
102
}
330
99
100
AcDbVisualStyle
  2
Shaded
 70
    27
177
     3
291
     0
 70
    58
 90
        2
176
     1
 90
        2
176
     1
 90
        1
176
     1
 90
        2
176
     1
 40
0.6
176
     1
 40
30.0
176
     1
 62
     7
420
 16777215
176
     1
 90
        0
176
     1
 90
        4
176
     1
 62
     7
176
     1
 62
   257
176
     1
 90
        1
176
     1
 90
        1
176
     1
 40
1.0
176
     1
 90
        8
176
     1
 62
   257
176
     1
 40
1.0
176
     1
 90
        1
176
     1
 90
        6
176
     1
 90
        2
176
     1
 62
     8
420
  7895160
176
     1
 90
        3
176
     1
 90
        0
176
     1
 90
        0
176
     1
290
     0
176
     1
 90
        5
176
     1
 40
0.0
176
     1
 90
        0
176
     1
290
     0
176
     1
290
     1
176
     1
290
     1
176
     1
290
     0
176
     1
290
     0
176
     1
290
     0
176
     1
290
     0
176
     1
290
     0
176
     1
290
     0
176
     1
 90
       50
176
     1
 40
0.0
176
     1
 40
1.0
176
     1
 90
        0
176
     1
 62
    18
420
        0
176
     1
 90
       50
176
     1
 90
        3
176
     1
 62
     5
420
      255
176
     1
290
     0
176
     1
 90
       50
176
     1
 90
       50
176
     1
 90
       50
176
     1
290
     0
176
     1
 90
       50
176
     1
 62
   256
176
     0
 40
1.0
176
     0
 90
        2
176
     1
  1
strokes_ogs.tif
176
     1
290
     0
176
     1
 40
1.0
176
     1
 40
1.0
176
     1
  0
VISUALSTYLE
  5
EB
102
{ACAD_REACTORS
330
99
102
}
330
99
100
AcDbVisualStyle
  2
Shaded with edges
 70
    26
177
     3
291
     0
 70
    58
 90
        2
176
     1
 90
        2
176
     1
 90
        1
176
     1
 90
        2
176
     1
 40
0.6
176
     1
 40
30.0
176
     1
 62
     7
420
 16777215
176
     1
 90
        1
176
     1
 90
       10
176
     1
 62
     7
176
     1
 62
   257
176
     1
 90
        2
176
     1
 90
        1
176
     1
 40
1.0
176
     1
 90
        8
176
     1
 62
   257
176
     1
 40
1.0
176
     1
 90
        1
176
     1
 90
        6
176
     1
 90
        2
176
     1
 62
     7
176
     1
 90
        3
176
     1
 90
        0
176
     1
 90
        0
176
     1
290
     0
176
     1
 90
        5
176
     1
 40
0.0
176
     1
 90
        0
176
     1
290
     0
176
     1
290
     1
176
     1
290
     1
176
     1
290
     0
176
     1
290
     0
176
     1
290
     0
176
     1
290
     0
176
     1
290
     0
176
     1
290
     0
176
     1
 90
       50
176
     1
 40
0.0
176
     1
 40
1.0
176
     1
 90
        0
176
     1
 62
    18
420
        0
176
     1
 90
       50
176
     1
 90
        3
176
     1
 62
     5
420
      255
176
     1
290
     0
176
     1
 90
       50
176
     1
 90
       50
176
     1
 90
       50
176
     1
290
     0
176
     1
 90
       50
176
     1
 62
   256
176
     0
 40
1.0
176
     0
 90
        2
176
     1
  1
strokes_ogs.tif
176
     1
290
     0
176
     1
 40
1.0
176
     1
 40
1.0
176
     1
  0
VISUALSTYLE
  5
E8
102
{ACAD_REACTORS
330
99
102
}
330
99
100
AcDbVisualStyle
  2
Shades of Gray
 70
    23
177
     3
291
     0
 70
    58
 90
        2
176
     1
 90
        2
176
     1
 90
        3
176
     1
 90
        0
176
     1
 40
0.6
176
     1
 40
30.0
176
     1
 62
     7
420
 16777215
176
     1
 90
        2
176
     1
 90
        2
176
     1
 62
     7
176
     1
 62
     7
176
     1
 90
        1
176
     1
 90
        1
176
     1
 40
40.0
176
     1
 90
        8
176
     1
 62
     7
176
     1
 40
1.0
176
     1
 90
        1
176
     1
 90
        6
176
     1
 90
        2
176
     1
 62
     7
176
     1
 90
        3
176
     1
 90
        0
176
     1
 90
        0
176
     1
290
     0
176
     1
 90
        1
176
     1
 40
0.0
176
     1
 90
        0
176
     1
290
     0
176
     1
290
     1
176
     1
290
     1
176
     1
290
     0
176
     1
290
     0
176
     1
290
     0
176
     1
290
     0
176
     1
290
     0
176
     1
290
     0
176
     1
 90
       50
176
     1
 40
0.0
176
     1
 40
1.0
176
     1
 90
        0
176
     1
 62
    18
420
        0
176
     1
 90
       50
176
     1
 90
        3
176
     1
 62
     5
420
      255
176
     1
290
     0
176
     1
 90
       50
176
     1
 90
       50
176
     1
 90
       50
176
     1
290
     0
176
     1
 90
       50
176
     1
 62
   256
176
     0
 40
1.0
176
     0
 90
        2
176
     1
  1
strokes_ogs.tif
176
     1
290
     0
176
     1
 40
1.0
176
     1
 40
1.0
176
     1
  0
VISUALSTYLE
  5
E9
102
{ACAD_REACTORS
330
99
102
}
330
99
100
AcDbVisualStyle
  2
Sketchy
 70
    24
177
     3
291
     0
 70
    58
 90
        1
176
     1
 90
        2
176
     1
 90
        2
176
     1
 90
        0
176
     1
 40
0.6
176
     1
 40
30.0
176
     1
 62
     7
420
 16777215
176
     1
 90
        2
176
     1
 90
        2
176
     1
 62
     7
176
     1
 62
     7
176
     1
 90
        1
176
     1
 90
        1
176
     1
 40
40.0
176
     1
 90
       11
176
     1
 62
     7
176
     1
 40
1.0
176
     1
 90
        1
176
     1
 90
        6
176
     1
 90
        2
176
     1
 62
     7
176
     1
 90
        6
176
     1
 90
        0
176
     1
 90
        0
176
     1
290
     0
176
     1
 90
        1
176
     1
 40
0.0
176
     1
 90
        0
176
     1
290
     0
176
     1
290
     1
176
     1
290
     1
176
     1
290
     0
176
     1
290
     0
176
     1
290
     0
176
     1
290
     0
176
     1
290
     0
176
     1
290
     0
176
     1
 90
       50
176
     1
 40
0.0
176
     1
 40
1.0
176
     1
 90
        0
176
     1
 62
    18
420
        0
176
     1
 90
       50
176
     1
 90
        3
176
     1
 62
     5
420
      255
176
     1
290
     0
176
     1
 90
       50
176
     1
 90
       50
176
     1
 90
       50
176
     1
290
     0
176
     1
 90
       50
176
     1
 62
   256
176
     0
 40
1.0
176
     0
 90
        2
176
     1
  1
strokes_ogs.tif
176
     1
290
     0
176
     1
 40
1.0
176
     1
 40
1.0
176
     1
  0
VISUALSTYLE
  5
A6
102
{ACAD_REACTORS
330
99
102
}
330
99
100
AcDbVisualStyle
  2
Thicken
 70
    13
177
     3
291
     1
 70
    58
 90
        2
176
     1
 90
        2
176
     1
 90
        1
176
     1
 90
        0
176
     1
 40
-0.6
176
     1
 40
-30.0
176
     1
 62
     7
420
 16777215
176
     1
 90
        1
176
     1
 90
        4
176
     1
 62
     7
176
     1
 62
   257
176
     1
 90
        1
176
     1
 90
        1
176
     1
 40
1.0
176
     1
 90
       12
176
     1
 62
     7
176
     1
 40
1.0
176
     1
 90
        1
176
     1
 90
        6
176
     1
 90
        2
176
     1
 62
     7
176
     1
 90
        5
176
     1
 90
        0
176
     1
 90
        0
176
     1
290
     0
176
     1
 90
        1
176
     1
 40
0.0
176
     1
 90
        0
176
     1
290
     0
176
     1
290
     1
176
     1
290
     1
176
     1
290
     0
176
     1
290
     0
176
     1
290
     0
176
     1
290
     0
176
     1
290
     0
176
     1
290
     0
176
     1
 90
       50
176
     1
 40
0.0
176
     1
 40
1.0
176
     1
 90
        0
176
     1
 62
    18
420
        0
176
     1
 90
       50
176
     1
 90
        3
176
     1
 62
     5
420
      255
176
     1
290
     0
176
     1
 90
       50
176
     1
 90
       50
176
     1
 90
       50
176
     1
290
     0
176
     1
 90
       50
176
     1
 62
   256
176
     0
 40
1.0
176
     0
 90
        2
176
     1
  1
strokes_ogs.tif
176
     1
290
     0
176
     1
 40
1.0
176
     1
 40
1.0
176
     1
  0
VISUALSTYLE
  5
E3
102
{ACAD_REACTORS
330
99
102
}
330
99
100
AcDbVisualStyle
  2
Wireframe
 70
     5
177
     3
291
     0
 70
    58
 90
        0
176
     1
 90
        2
176
     1
 90
        0
176
     1
 90
        0
176
     1
 40
0.6
176
     1
 40
30.0
176
     1
 62
     7
420
 16777215
176
     1
 90
        1
176
     1
 90
        4
176
     1
 62
     7
176
     1
 62
   257
176
     1
 90
        1
176
     1
 90
        1
176
     1
 40
1.0
176
     1
 90
        0
176
     1
 62
   257
176
     1
 40
1.0
176
     1
 90
        1
176
     1
 90
        6
176
     1
 90
        2
176
     1
 62
     7
176
     1
 90
        3
176
     1
 90
        0
176
     1
 90
        0
176
     1
290
     0
176
     1
 90
        1
176
     1
 40
0.0
176
     1
 90
        0
176
     1
290
     0
176
     1
290
     1
176
     1
290
     1
176
     1
290
     0
176
     1
290
     0
176
     1
290
     0
176
     1
290
     0
176
     1
290
     0
176
     1
290
     0
176
     1
 90
       50
176
     1
 40
0.0
176
     1
 40
1.0
176
     1
 90
        0
176
     1
 62
    18
420
        0
176
     1
 90
       50
176
     1
 90
        3
176
     1
 62
     5
420
      255
176
     1
290
     0
176
     1
 90
       50
176
     1
 90
       50
176
     1
 90
       50
176
     1
290
     0
176
     1
 90
       50
176
     1
 62
   256
176
     0
 40
1.0
176
     0
 90
        2
176
     1
  1
strokes_ogs.tif
176
     1
290
     0
176
     1
 40
1.0
176
     1
 40
1.0
176
     1
  0
VISUALSTYLE
  5
EA
102
{ACAD_REACTORS
330
99
102
}
330
99
100
AcDbVisualStyle
  2
X-Ray
 70
    25
177
     3
291
     0
 70
    58
 90
        2
176
     1
 90
        2
176
     1
 90
        1
176
     1
 90
        1
176
     1
 40
0.5
176
     1
 40
30.0
176
     1
 62
     7
420
 16777215
176
     1
 90
        1
176
     1
 90
        0
176
     1
 62
     7
176
     1
 62
   257
176
     1
 90
        1
176
     1
 90
        1
176
     1
 40
1.0
176
     1
 90
        8
176
     1
 62
     7
176
     1
 40
1.0
176
     1
 90
        1
176
     1
 90
        6
176
     1
 90
        2
176
     1
 62
     7
176
     1
 90
        3
176
     1
 90
        0
176
     1
 90
        0
176
     1
290
     0
176
     1
 90
       13
176
     1
 40
0.0
176
     1
 90
        0
176
     1
290
     0
176
     1
290
     1
176
     1
290
     1
176
     1
290
     0
176
     1
290
     0
176
     1
290
     0
176
     1
290
     0
176
     1
290
     0
176
     1
290
     0
176
     1
 90
       50
176
     1
 40
0.0
176
     1
 40
1.0
176
     1
 90
        0
176
     1
 62
    18
420
        0
176
     1
 90
       50
176
     1
 90
        3
176
     1
 62
     5
420
      255
176
     1
290
     0
176
     1
 90
       50
176
     1
 90
       50
176
     1
 90
       50
176
     1
290
     0
176
     1
 90
       50
176
     1
 62
   256
176
     0
 40
1.0
176
     0
 90
        2
176
     1
  1
strokes_ogs.tif
176
     1
290
     0
176
     1
 40
1.0
176
     1
 40
1.0
176
     1
  0
DICTIONARYVAR
  5
D8
102
{ACAD_REACTORS
330
66
102
}
330
66
100
DictionaryVariables
280
     0
  1
1:1
  0
DICTIONARYVAR
  5
89
102
{ACAD_REACTORS
330
66
102
}
330
66
100
DictionaryVariables
280
     0
  1
Standard
  0
DICTIONARYVAR
  5
67
102
{ACAD_REACTORS
330
66
102
}
330
66
100
DictionaryVariables
280
     0
  1
2
  0
DICTIONARYVAR
  5
6B
102
{ACAD_REACTORS
330
66
102
}
330
66
100
DictionaryVariables
280
     0
  1
1
  0
DICTIONARYVAR
  5
DF
102
{ACAD_REACTORS
330
66
102
}
330
66
100
DictionaryVariables
280
     0
  1
0
  0
DICTIONARYVAR
  5
E0
102
{ACAD_REACTORS
330
66
102
}
330
66
100
DictionaryVariables
280
     0
  1
0
  0
DICTIONARY
  5
3DB
330
87
100
AcDbDictionary
280
     1
281
     1
  3
ACAD_ROUNDTRIP_2008_TABLESTYLE_CELLSTYLEMAP
360
3DC
  0
CELLSTYLEMAP
  5
3DC
102
{ACAD_REACTORS
330
3DB
102
}
330
3DB
100
AcDbCellStyleMap
 90
        3
300
CELLSTYLE
  1
TABLEFORMAT_BEGIN
 90
        5
170
     1
 91
        0
 92
    32768
 62
   257
 93
        1
300
CONTENTFORMAT
  1
CONTENTFORMAT_BEGIN
 90
        0
 91
        0
 92
      512
 93
        0
300

 40
0.0
140
1.0
 94
        5
 62
     0
340
11
144
0.25
309
CONTENTFORMAT_END
171
     0
 94
        6
 95
        1
302
GRIDFORMAT
  1
GRIDFORMAT_BEGIN
 90
        0
 91
        1
 62
     0
 92
       -2
340
0
 93
        0
 40
0.045
309
GRIDFORMAT_END
 95
        2
302
GRIDFORMAT
  1
GRIDFORMAT_BEGIN
 90
        0
 91
        1
 62
     0
 92
       -2
340
0
 93
        0
 40
0.045
309
GRIDFORMAT_END
 95
        4
302
GRIDFORMAT
  1
GRIDFORMAT_BEGIN
 90
        0
 91
        1
 62
     0
 92
       -2
340
0
 93
        0
 40
0.045
309
GRIDFORMAT_END
 95
        8
302
GRIDFORMAT
  1
GRIDFORMAT_BEGIN
 90
        0
 91
        1
 62
     0
 92
       -2
340
0
 93
        0
 40
0.045
309
GRIDFORMAT_END
 95
       16
302
GRIDFORMAT
  1
GRIDFORMAT_BEGIN
 90
        0
 91
        1
 62
     0
 92
       -2
340
0
 93
        0
 40
0.045
309
GRIDFORMAT_END
 95
       32
302
GRIDFORMAT
  1
GRIDFORMAT_BEGIN
 90
        0
 91
        1
 62
     0
 92
       -2
340
0
 93
        0
 40
0.045
309
GRIDFORMAT_END
309
TABLEFORMAT_END
  1
CELLSTYLE_BEGIN
 90
        1
 91
        1
300
_TITLE
309
CELLSTYLE_END
300
CELLSTYLE
  1
TABLEFORMAT_BEGIN
 90
        5
170
     1
 91
        0
 92
        0
 62
   257
 93
        1
300
CONTENTFORMAT
  1
CONTENTFORMAT_BEGIN
 90
        0
 91
        0
 92
      512
 93
        0
300

 40
0.0
140
1.0
 94
        5
 62
     0
340
11
144
0.18
309
CONTENTFORMAT_END
171
     0
 94
        6
 95
        1
302
GRIDFORMAT
  1
GRIDFORMAT_BEGIN
 90
        0
 91
        1
 62
     0
 92
       -2
340
0
 93
        0
 40
0.045
309
GRIDFORMAT_END
 95
        2
302
GRIDFORMAT
  1
GRIDFORMAT_BEGIN
 90
        0
 91
        1
 62
     0
 92
       -2
340
0
 93
        0
 40
0.045
309
GRIDFORMAT_END
 95
        4
302
GRIDFORMAT
  1
GRIDFORMAT_BEGIN
 90
        0
 91
        1
 62
     0
 92
       -2
340
0
 93
        0
 40
0.045
309
GRIDFORMAT_END
 95
        8
302
GRIDFORMAT
  1
GRIDFORMAT_BEGIN
 90
        0
 91
        1
 62
     0
 92
       -2
340
0
 93
        0
 40
0.045
309
GRIDFORMAT_END
 95
       16
302
GRIDFORMAT
  1
GRIDFORMAT_BEGIN
 90
        0
 91
        1
 62
     0
 92
       -2
340
0
 93
        0
 40
0.045
309
GRIDFORMAT_END
 95
       32
302
GRIDFORMAT
  1
GRIDFORMAT_BEGIN
 90
        0
 91
        1
 62
     0
 92
       -2
340
0
 93
        0
 40
0.045
309
GRIDFORMAT_END
309
TABLEFORMAT_END
  1
CELLSTYLE_BEGIN
 90
        2
 91
        1
300
_HEADER
309
CELLSTYLE_END
300
CELLSTYLE
  1
TABLEFORMAT_BEGIN
 90
        5
170
     1
 91
        0
 92
        0
 62
   257
 93
        1
300
CONTENTFORMAT
  1
CONTENTFORMAT_BEGIN
 90
        0
 91
        0
 92
      512
 93
        0
300

 40
0.0
140
1.0
 94
        2
 62
     0
340
11
144
0.18
309
CONTENTFORMAT_END
171
     0
 94
        6
 95
        1
302
GRIDFORMAT
  1
GRIDFORMAT_BEGIN
 90
        0
 91
        1
 62
     0
 92
       -2
340
0
 93
        0
 40
0.045
309
GRIDFORMAT_END
 95
        2
302
GRIDFORMAT
  1
GRIDFORMAT_BEGIN
 90
        0
 91
        1
 62
     0
 92
       -2
340
0
 93
        0
 40
0.045
309
GRIDFORMAT_END
 95
        4
302
GRIDFORMAT
  1
GRIDFORMAT_BEGIN
 90
        0
 91
        1
 62
     0
 92
       -2
340
0
 93
        0
 40
0.045
309
GRIDFORMAT_END
 95
        8
302
GRIDFORMAT
  1
GRIDFORMAT_BEGIN
 90
        0
 91
        1
 62
     0
 92
       -2
340
0
 93
        0
 40
0.045
309
GRIDFORMAT_END
 95
       16
302
GRIDFORMAT
  1
GRIDFORMAT_BEGIN
 90
        0
 91
        1
 62
     0
 92
       -2
340
0
 93
        0
 40
0.045
309
GRIDFORMAT_END
 95
       32
302
GRIDFORMAT
  1
GRIDFORMAT_BEGIN
 90
        0
 91
        1
 62
     0
 92
       -2
340
0
 93
        0
 40
0.045
309
GRIDFORMAT_END
309
TABLEFORMAT_END
  1
CELLSTYLE_BEGIN
 90
        3
 91
        2
300
_DATA
309
CELLSTYLE_END
  0
ENDSEC
  0
EOF
