  0
SECTION
  2
HEADER
  9
$ACADVER
  1
AC1027
  9
$ACADMAINTVER
 70
     8
  9
$DWGCODEPAGE
  3
ANSI_932
  9
$REQUIREDVERSIONS
160
                 0
  9
$LASTSAVEDBY
  1
Yasu
  9
$INSBASE
 10
0.0
 20
0.0
 30
0.0
  9
$EXTMIN
 10
38.42319117525541
 20
44.7000762225467
 30
0.0
  9
$EXTMAX
 10
195.1685662381319
 20
189.7063209998256
 30
0.0
  9
$LIMMIN
 10
0.0
 20
0.0
  9
$LIMMAX
 10
420.0
 20
297.0
  9
$ORTHOMODE
 70
     0
  9
$REGENMODE
 70
     1
  9
$FILLMODE
 70
     1
  9
$QTEXTMODE
 70
     0
  9
$MIRRTEXT
 70
     0
  9
$LTSCALE
 40
0.2
  9
$ATTMODE
 70
     1
  9
$TEXTSIZE
 40
3.0
  9
$TRACEWID
 40
1.0
  9
$TEXTSTYLE
  7
Standard
  9
$CLAYER
  8
実線
  9
$CELTYPE
  6
ByLayer
  9
$CECOLOR
 62
   256
  9
$CELTSCALE
 40
1.0
  9
$DISPSILH
 70
     0
  9
$DIMSCALE
 40
1.0
  9
$DIMASZ
 40
2.5
  9
$DIMEXO
 40
0.625
  9
$DIMDLI
 40
3.75
  9
$DIMRND
 40
0.0
  9
$DIMDLE
 40
0.0
  9
$DIMEXE
 40
1.25
  9
$DIMTP
 40
0.0
  9
$DIMTM
 40
0.0
  9
$DIMTXT
 40
2.5
  9
$DIMCEN
 40
2.5
  9
$DIMTSZ
 40
0.0
  9
$DIMTOL
 70
     0
  9
$DIMLIM
 70
     0
  9
$DIMTIH
 70
     0
  9
$DIMTOH
 70
     0
  9
$DIMSE1
 70
     0
  9
$DIMSE2
 70
     0
  9
$DIMTAD
 70
     1
  9
$DIMZIN
 70
     8
  9
$DIMBLK
  1

  9
$DIMASO
 70
     1
  9
$DIMSHO
 70
     1
  9
$DIMPOST
  1

  9
$DIMAPOST
  1

  9
$DIMALT
 70
     0
  9
$DIMALTD
 70
     3
  9
$DIMALTF
 40
0.03937007874016
  9
$DIMLFAC
 40
1.0
  9
$DIMTOFL
 70
     1
  9
$DIMTVP
 40
0.0
  9
$DIMTIX
 70
     0
  9
$DIMSOXD
 70
     0
  9
$DIMSAH
 70
     0
  9
$DIMBLK1
  1

  9
$DIMBLK2
  1

  9
$DIMSTYLE
  2
ISO-25
  9
$DIMCLRD
 70
     0
  9
$DIMCLRE
 70
     0
  9
$DIMCLRT
 70
     0
  9
$DIMTFAC
 40
1.0
  9
$DIMGAP
 40
0.625
  9
$DIMJUST
 70
     0
  9
$DIMSD1
 70
     0
  9
$DIMSD2
 70
     0
  9
$DIMTOLJ
 70
     0
  9
$DIMTZIN
 70
     8
  9
$DIMALTZ
 70
     0
  9
$DIMALTTZ
 70
     0
  9
$DIMUPT
 70
     0
  9
$DIMDEC
 70
     2
  9
$DIMTDEC
 70
     2
  9
$DIMALTU
 70
     2
  9
$DIMALTTD
 70
     3
  9
$DIMTXSTY
  7
Standard
  9
$DIMAUNIT
 70
     0
  9
$DIMADEC
 70
     0
  9
$DIMALTRND
 40
0.0
  9
$DIMAZIN
 70
     0
  9
$DIMDSEP
 70
    46
  9
$DIMATFIT
 70
     3
  9
$DIMFRAC
 70
     0
  9
$DIMLDRBLK
  1

  9
$DIMLUNIT
 70
     2
  9
$DIMLWD
 70
    -2
  9
$DIMLWE
 70
    -2
  9
$DIMTMOVE
 70
     0
  9
$DIMFXL
 40
1.0
  9
$DIMFXLON
 70
     0
  9
$DIMJOGANG
 40
0.7853981633974483
  9
$DIMTFILL
 70
     0
  9
$DIMTFILLCLR
 70
     0
  9
$DIMARCSYM
 70
     0
  9
$DIMLTYPE
  6

  9
$DIMLTEX1
  6

  9
$DIMLTEX2
  6

  9
$DIMTXTDIRECTION
 70
     0
  9
$LUNITS
 70
     2
  9
$LUPREC
 70
     4
  9
$SKETCHINC
 40
1.0
  9
$FILLETRAD
 40
2.0
  9
$AUNITS
 70
     0
  9
$AUPREC
 70
     0
  9
$MENU
  1
.
  9
$ELEVATION
 40
0.0
  9
$PELEVATION
 40
0.0
  9
$THICKNESS
 40
0.0
  9
$LIMCHECK
 70
     0
  9
$CHAMFERA
 40
1.0
  9
$CHAMFERB
 40
1.0
  9
$CHAMFERC
 40
0.0
  9
$CHAMFERD
 40
0.0
  9
$SKPOLY
 70
     0
  9
$TDCREATE
 40
2452936.788310359
  9
$TDUCREATE
 40
2452936.413310359
  9
$TDUPDATE
 40
2456739.896631169
  9
$TDUUPDATE
 40
2456739.521631169
  9
$TDINDWG
 40
0.6216361921
  9
$TDUSRTIMER
 40
2456739.521353495
  9
$USRTIMER
 70
     1
  9
$ANGBASE
 50
0.0
  9
$ANGDIR
 70
     0
  9
$PDMODE
 70
     0
  9
$PDSIZE
 40
0.0
  9
$PLINEWID
 40
0.0
  9
$SPLFRAME
 70
     0
  9
$SPLINETYPE
 70
     6
  9
$SPLINESEGS
 70
     8
  9
$HANDSEED
  5
11B9
  9
$SURFTAB1
 70
     6
  9
$SURFTAB2
 70
     6
  9
$SURFTYPE
 70
     6
  9
$SURFU
 70
     6
  9
$SURFV
 70
     6
  9
$UCSBASE
  2

  9
$UCSNAME
  2

  9
$UCSORG
 10
0.0
 20
0.0
 30
0.0
  9
$UCSXDIR
 10
1.0
 20
0.0
 30
0.0
  9
$UCSYDIR
 10
0.0
 20
1.0
 30
0.0
  9
$UCSORTHOREF
  2

  9
$UCSORTHOVIEW
 70
     0
  9
$UCSORGTOP
 10
0.0
 20
0.0
 30
0.0
  9
$UCSORGBOTTOM
 10
0.0
 20
0.0
 30
0.0
  9
$UCSORGLEFT
 10
0.0
 20
0.0
 30
0.0
  9
$UCSORGRIGHT
 10
0.0
 20
0.0
 30
0.0
  9
$UCSORGFRONT
 10
0.0
 20
0.0
 30
0.0
  9
$UCSORGBACK
 10
0.0
 20
0.0
 30
0.0
  9
$PUCSBASE
  2

  9
$PUCSNAME
  2

  9
$PUCSORG
 10
0.0
 20
0.0
 30
0.0
  9
$PUCSXDIR
 10
1.0
 20
0.0
 30
0.0
  9
$PUCSYDIR
 10
0.0
 20
1.0
 30
0.0
  9
$PUCSORTHOREF
  2

  9
$PUCSORTHOVIEW
 70
     0
  9
$PUCSORGTOP
 10
0.0
 20
0.0
 30
0.0
  9
$PUCSORGBOTTOM
 10
0.0
 20
0.0
 30
0.0
  9
$PUCSORGLEFT
 10
0.0
 20
0.0
 30
0.0
  9
$PUCSORGRIGHT
 10
0.0
 20
0.0
 30
0.0
  9
$PUCSORGFRONT
 10
0.0
 20
0.0
 30
0.0
  9
$PUCSORGBACK
 10
0.0
 20
0.0
 30
0.0
  9
$USERI1
 70
     0
  9
$USERI2
 70
     0
  9
$USERI3
 70
     0
  9
$USERI4
 70
     0
  9
$USERI5
 70
     0
  9
$USERR1
 40
0.0
  9
$USERR2
 40
0.0
  9
$USERR3
 40
0.0
  9
$USERR4
 40
0.0
  9
$USERR5
 40
0.0
  9
$WORLDVIEW
 70
     1
  9
$SHADEDGE
 70
     3
  9
$SHADEDIF
 70
    70
  9
$TILEMODE
 70
     1
  9
$MAXACTVP
 70
    64
  9
$PINSBASE
 10
0.0
 20
0.0
 30
0.0
  9
$PLIMCHECK
 70
     0
  9
$PEXTMIN
 10
0.0
 20
0.0
 30
0.0
  9
$PEXTMAX
 10
0.0
 20
0.0
 30
0.0
  9
$PLIMMIN
 10
-6.35
 20
-6.35
  9
$PLIMMAX
 10
413.8083333333333
 20
290.6888888888888
  9
$UNITMODE
 70
     0
  9
$VISRETAIN
 70
     1
  9
$PLINEGEN
 70
     0
  9
$PSLTSCALE
 70
     1
  9
$TREEDEPTH
 70
  3020
  9
$CMLSTYLE
  2
Standard
  9
$CMLJUST
 70
     0
  9
$CMLSCALE
 40
20.0
  9
$PROXYGRAPHICS
 70
     1
  9
$MEASUREMENT
 70
     1
  9
$CELWEIGHT
370
    -1
  9
$ENDCAPS
280
     0
  9
$JOINSTYLE
280
     0
  9
$LWDISPLAY
290
     0
  9
$INSUNITS
 70
     4
  9
$HYPERLINKBASE
  1

  9
$STYLESHEET
  1

  9
$XEDIT
290
     1
  9
$CEPSNTYPE
380
     0
  9
$PSTYLEMODE
290
     1
  9
$FINGERPRINTGUID
  2
{86E58535-AB5B-4AFE-AB1B-6758AAB7EA7D}
  9
$VERSIONGUID
  2
{583A6A43-36F4-4280-AB3A-AE3852ECCCA0}
  9
$EXTNAMES
290
     1
  9
$PSVPSCALE
 40
0.0
  9
$OLESTARTUP
290
     0
  9
$SORTENTS
280
   127
  9
$INDEXCTL
280
     0
  9
$HIDETEXT
280
     1
  9
$XCLIPFRAME
280
     0
  9
$HALOGAP
280
     0
  9
$OBSCOLOR
 70
   257
  9
$OBSLTYPE
280
     0
  9
$INTERSECTIONDISPLAY
280
     0
  9
$INTERSECTIONCOLOR
 70
   257
  9
$DIMASSOC
280
     2
  9
$PROJECTNAME
  1

  9
$CAMERADISPLAY
290
     0
  9
$LENSLENGTH
 40
50.0
  9
$CAMERAHEIGHT
 40
0.0
  9
$STEPSPERSEC
 40
2.0
  9
$STEPSIZE
 40
6.0
  9
$3DDWFPREC
 40
2.0
  9
$PSOLWIDTH
 40
0.25
  9
$PSOLHEIGHT
 40
4.0
  9
$LOFTANG1
 40
1.570796326794897
  9
$LOFTANG2
 40
1.570796326794897
  9
$LOFTMAG1
 40
0.0
  9
$LOFTMAG2
 40
0.0
  9
$LOFTPARAM
 70
     7
  9
$LOFTNORMALS
280
     1
  9
$LATITUDE
 40
37.795
  9
$LONGITUDE
 40
-122.394
  9
$NORTHDIRECTION
 40
0.0
  9
$TIMEZONE
 70
 -8000
  9
$LIGHTGLYPHDISPLAY
280
     1
  9
$TILEMODELIGHTSYNCH
280
     1
  9
$SOLIDHIST
280
     1
  9
$SHOWHIST
280
     1
  9
$DWFFRAME
280
     2
  9
$DGNFRAME
280
     2
  9
$REALWORLDSCALE
290
     1
  9
$INTERFERECOLOR
 62
   256
  9
$CSHADOW
280
     0
  9
$SHADOWPLANELOCATION
 40
0.0
  0
ENDSEC
  0
SECTION
  2
CLASSES
  0
CLASS
  1
ACDBDICTIONARYWDFLT
  2
AcDbDictionaryWithDefault
  3
ObjectDBX Classes
 90
        0
 91
        5
280
     0
281
     0
  0
CLASS
  1
DIMASSOC
  2
AcDbDimAssoc
  3
"AcDbDimAssoc|Product Desc:     AcDim ARX App For Dimension|Company:          Autodesk, Inc.|WEB Address:      www.autodesk.com"
 90
        0
 91
        4
280
     0
281
     0
  0
CLASS
  1
VISUALSTYLE
  2
AcDbVisualStyle
  3
ObjectDBX Classes
 90
     4095
 91
        5
280
     0
281
     0
  0
CLASS
  1
SCALE
  2
AcDbScale
  3
ObjectDBX Classes
 90
     1153
 91
        5
280
     0
281
     0
  0
CLASS
  1
MATERIAL
  2
AcDbMaterial
  3
ObjectDBX Classes
 90
     1153
 91
        5
280
     0
281
     0
  0
CLASS
  1
TABLESTYLE
  2
AcDbTableStyle
  3
ObjectDBX Classes
 90
     4095
 91
        5
280
     0
281
     0
  0
CLASS
  1
SUN
  2
AcDbSun
  3
SCENEOE
 90
     1153
 91
        5
280
     0
281
     0
  0
CLASS
  1
RASTERVARIABLES
  2
AcDbRasterVariables
  3
ISM
 90
        0
 91
        5
280
     0
281
     0
  0
CLASS
  1
DICTIONARYVAR
  2
AcDbDictionaryVar
  3
ObjectDBX Classes
 90
        0
 91
        4
280
     0
281
     0
  0
CLASS
  1
CELLSTYLEMAP
  2
AcDbCellStyleMap
  3
ObjectDBX Classes
 90
     1152
 91
        4
280
     0
281
     0
  0
ENDSEC
  0
SECTION
  2
TABLES
  0
TABLE
  2
VPORT
  5
8
330
0
100
AcDbSymbolTable
 70
     1
  0
VPORT
  5
FF2
330
8
100
AcDbSymbolTableRecord
100
AcDbViewportTableRecord
  2
*Active
 70
     0
 10
0.0
 20
0.0
 11
1.0
 21
1.0
 12
116.7958787066937
 22
117.2031986111861
 13
0.0
 23
0.0
 14
10.0
 24
10.0
 15
10.0
 25
10.0
 16
0.0
 26
0.0
 36
1.0
 17
0.0
 27
0.0
 37
0.0
 40
147.9063696728244
 41
1.102362204724409
 42
50.0
 43
0.0
 44
0.0
 50
0.0
 51
0.0
 71
    16
 72
  1000
 73
     1
 74
     3
 75
     0
 76
     0
 77
     0
 78
     0
281
     0
 65
     1
110
0.0
120
0.0
130
0.0
111
1.0
121
0.0
131
0.0
112
0.0
122
1.0
132
0.0
 79
     0
146
0.0
348
FF8
 60
     3
 61
     5
292
     1
282
     1
141
0.0
142
0.0
 63
   256
361
1034
  0
ENDTAB
  0
TABLE
  2
LTYPE
  5
5
330
0
100
AcDbSymbolTable
 70
     6
  0
LTYPE
  5
14
330
5
100
AcDbSymbolTableRecord
100
AcDbLinetypeTableRecord
  2
ByBlock
 70
     0
  3

 72
    65
 73
     0
 40
0.0
  0
LTYPE
  5
15
330
5
100
AcDbSymbolTableRecord
100
AcDbLinetypeTableRecord
  2
ByLayer
 70
     0
  3

 72
    65
 73
     0
 40
0.0
  0
LTYPE
  5
16
330
5
100
AcDbSymbolTableRecord
100
AcDbLinetypeTableRecord
  2
Continuous
 70
     0
  3
Solid line
 72
    65
 73
     0
 40
0.0
  0
LTYPE
  5
35
330
5
100
AcDbSymbolTableRecord
100
AcDbLinetypeTableRecord
  2
ACAD_ISO08W100
 70
     0
  3
ISO long-dash short-dash ____ __ ____ __ ____ _
 72
    65
 73
     4
 40
36.0
 49
24.0
 74
     0
 49
-3.0
 74
     0
 49
6.0
 74
     0
 49
-3.0
 74
     0
  0
LTYPE
  5
127
330
5
100
AcDbSymbolTableRecord
100
AcDbLinetypeTableRecord
  2
HIDDENX2
 70
     0
  3
Hidden (2x) ____ ____ ____ ____ ____ ____ ____
 72
    65
 73
     2
 40
19.05
 49
12.7
 74
     0
 49
-6.35
 74
     0
  0
LTYPE
  5
5EC
330
5
100
AcDbSymbolTableRecord
100
AcDbLinetypeTableRecord
  2
CENTER
 70
     0
  3
Center ____ _ ____ _ ____ _ ____ _ ____ _ ____
 72
    65
 73
     4
 40
50.8
 49
31.75
 74
     0
 49
-6.35
 74
     0
 49
6.35
 74
     0
 49
-6.35
 74
     0
  0
LTYPE
  5
5ED
330
5
100
AcDbSymbolTableRecord
100
AcDbLinetypeTableRecord
  2
ACAD_ISO02W100
 70
     0
  3
ISO dash __ __ __ __ __ __ __ __ __ __ __ __ __
 72
    65
 73
     2
 40
15.0
 49
12.0
 74
     0
 49
-3.0
 74
     0
  0
LTYPE
  5
605
330
5
100
AcDbSymbolTableRecord
100
AcDbLinetypeTableRecord
  2
DASHED
 70
     0
  3
Dashed __ __ __ __ __ __ __ __ __ __ __ __ __ _
 72
    65
 73
     2
 40
19.05
 49
12.7
 74
     0
 49
-6.35
 74
     0
  0
ENDTAB
  0
TABLE
  2
LAYER
  5
2
330
0
100
AcDbSymbolTable
 70
     9
  0
LAYER
  5
10
330
2
100
AcDbSymbolTableRecord
100
AcDbLayerTableRecord
  2
0
 70
     0
 62
     7
  6
Continuous
370
    -3
390
F
347
1030
348
0
  0
LAYER
  5
2E
330
2
100
AcDbSymbolTableRecord
100
AcDbLayerTableRecord
  2
枠
 70
     0
 62
     1
  6
Continuous
370
    30
390
F
347
1030
348
0
  0
LAYER
  5
2F
330
2
100
AcDbSymbolTableRecord
100
AcDbLayerTableRecord
  2
文字
 70
     0
 62
     7
  6
Continuous
370
    25
390
F
347
1030
348
0
  0
LAYER
  5
36
330
2
100
AcDbSymbolTableRecord
100
AcDbLayerTableRecord
  2
中心線
 70
     0
 62
     7
  6
CENTER
370
    30
390
F
347
1030
348
0
  0
LAYER
  5
52
330
2
100
AcDbSymbolTableRecord
100
AcDbLayerTableRecord
  2
隠れ線
 70
     0
 62
     2
  6
Continuous
290
     0
370
    -3
390
F
347
1030
348
0
  0
LAYER
  5
128
330
2
100
AcDbSymbolTableRecord
100
AcDbLayerTableRecord
  2
実線
 70
     0
 62
     7
  6
Continuous
370
    50
390
F
347
1030
348
0
  0
LAYER
  5
129
330
2
100
AcDbSymbolTableRecord
100
AcDbLayerTableRecord
  2
破線
 70
     0
 62
     7
  6
DASHED
370
    20
390
F
347
1030
348
0
  0
LAYER
  5
69A
330
2
100
AcDbSymbolTableRecord
100
AcDbLayerTableRecord
  2
Defpoints
 70
     0
 62
     7
  6
Continuous
290
     0
370
    -3
390
F
347
1030
348
0
  0
LAYER
  5
1122
330
2
100
AcDbSymbolTableRecord
100
AcDbLayerTableRecord
  2
文字・寸法線
 70
     0
 62
     7
  6
Continuous
370
    -3
390
F
347
1030
348
0
  0
ENDTAB
  0
TABLE
  2
STYLE
  5
3
330
0
100
AcDbSymbolTable
 70
     2
  0
STYLE
  5
11
330
3
100
AcDbSymbolTableRecord
100
AcDbTextStyleTableRecord
  2
Standard
 70
     0
 40
0.0
 41
1.0
 50
0.0
 71
     0
 42
3.0
  3
txt.shx
  4
bigfont.shx
  0
STYLE
  5
34
330
3
100
AcDbSymbolTableRecord
100
AcDbTextStyleTableRecord
  2

 70
     1
 40
0.0
 41
1.0
 50
0.0
 71
     0
 42
2.5
  3
ltypeshp.shx
  4

  0
ENDTAB
  0
TABLE
  2
VIEW
  5
6
330
0
100
AcDbSymbolTable
 70
     0
  0
ENDTAB
  0
TABLE
  2
UCS
  5
7
330
0
100
AcDbSymbolTable
 70
     0
  0
ENDTAB
  0
TABLE
  2
APPID
  5
9
330
0
100
AcDbSymbolTable
 70
     1
  0
APPID
  5
12
330
9
100
AcDbSymbolTableRecord
100
AcDbRegAppTableRecord
  2
ACAD
 70
     0
  0
ENDTAB
  0
TABLE
  2
DIMSTYLE
  5
A
330
0
100
AcDbSymbolTable
 70
     2
100
AcDbDimStyleTable
  0
DIMSTYLE
105
29
102
{ACAD_REACTORS
330
795
330
DA9
330
D9F
330
DA6
330
1081
330
1184
330
1186
330
1189
102
}
330
A
100
AcDbSymbolTableRecord
100
AcDbDimStyleTableRecord
  2
ISO-25
 70
     0
 41
2.5
 42
0.625
 43
3.75
 44
1.25
 73
     0
 74
     0
 77
     1
 78
     8
140
2.5
141
2.5
143
0.03937007874016
147
0.625
171
     3
172
     1
178
     0
271
     2
272
     2
274
     3
283
     0
284
     8
340
11
  0
DIMSTYLE
105
1128
330
A
100
AcDbSymbolTableRecord
100
AcDbDimStyleTableRecord
  2
Standard
 70
     0
178
     0
340
11
  0
ENDTAB
  0
TABLE
  2
BLOCK_RECORD
  5
1
330
0
100
AcDbSymbolTable
 70
    15
  0
BLOCK_RECORD
  5
21
330
1
100
AcDbSymbolTableRecord
100
AcDbBlockTableRecord
  2
*Model_Space
340
24
 70
     0
280
     1
281
     0
  0
BLOCK_RECORD
  5
103C
330
1
100
AcDbSymbolTableRecord
100
AcDbBlockTableRecord
  2
*Paper_Space
340
103D
 70
     0
280
     1
281
     0
  0
BLOCK_RECORD
  5
796
330
1
100
AcDbSymbolTableRecord
100
AcDbBlockTableRecord
  2
*D0
340
0
 70
     0
280
     1
281
     0
  0
BLOCK_RECORD
  5
BF9
330
1
100
AcDbSymbolTableRecord
100
AcDbBlockTableRecord
  2
*D1
340
0
 70
     0
280
     1
281
     0
  0
BLOCK_RECORD
  5
C72
330
1
100
AcDbSymbolTableRecord
100
AcDbBlockTableRecord
  2
*D2
340
0
 70
     0
280
     1
281
     0
  0
BLOCK_RECORD
  5
C8E
330
1
100
AcDbSymbolTableRecord
100
AcDbBlockTableRecord
  2
*D3
340
0
 70
     0
280
     1
281
     0
  0
BLOCK_RECORD
  5
DB3
330
1
100
AcDbSymbolTableRecord
100
AcDbBlockTableRecord
  2
*D4
340
0
 70
     0
280
     1
281
     0
  0
BLOCK_RECORD
  5
DBF
330
1
100
AcDbSymbolTableRecord
100
AcDbBlockTableRecord
  2
*D5
340
0
 70
     0
280
     1
281
     0
  0
BLOCK_RECORD
  5
DCB
330
1
100
AcDbSymbolTableRecord
100
AcDbBlockTableRecord
  2
*D6
340
0
 70
     0
280
     1
281
     0
  0
BLOCK_RECORD
  5
1072
330
1
100
AcDbSymbolTableRecord
100
AcDbBlockTableRecord
  2
*D7
340
0
 70
     0
280
     1
281
     0
  0
BLOCK_RECORD
  5
1083
330
1
100
AcDbSymbolTableRecord
100
AcDbBlockTableRecord
  2
*D8
340
0
 70
     0
280
     1
281
     0
  0
BLOCK_RECORD
  5
114F
330
1
100
AcDbSymbolTableRecord
100
AcDbBlockTableRecord
  2
*D9
340
0
 70
     0
280
     1
281
     0
  0
BLOCK_RECORD
  5
115E
330
1
100
AcDbSymbolTableRecord
100
AcDbBlockTableRecord
  2
*D10
340
0
 70
     0
280
     1
281
     0
  0
BLOCK_RECORD
  5
116F
330
1
100
AcDbSymbolTableRecord
100
AcDbBlockTableRecord
  2
*D11
340
0
 70
     0
280
     1
281
     0
  0
BLOCK_RECORD
  5
118D
330
1
100
AcDbSymbolTableRecord
100
AcDbBlockTableRecord
  2
*D12
340
0
 70
     0
280
     1
281
     0
  0
BLOCK_RECORD
  5
1199
330
1
100
AcDbSymbolTableRecord
100
AcDbBlockTableRecord
  2
*D13
340
0
 70
     0
280
     1
281
     0
  0
BLOCK_RECORD
  5
11A7
330
1
100
AcDbSymbolTableRecord
100
AcDbBlockTableRecord
  2
*D14
340
0
 70
     0
280
     1
281
     0
  0
ENDTAB
  0
ENDSEC
  0
SECTION
  2
BLOCKS
  0
BLOCK
  5
22
330
21
100
AcDbEntity
  8
0
100
AcDbBlockBegin
  2
*Model_Space
 70
     0
 10
0.0
 20
0.0
 30
0.0
  3
*Model_Space
  1
*Model_Space
  0
ENDBLK
  5
23
330
21
100
AcDbEntity
  8
0
100
AcDbBlockEnd
  0
BLOCK
  5
103E
330
103C
100
AcDbEntity
 67
     1
  8
0
100
AcDbBlockBegin
  2
*Paper_Space
 70
     0
 10
0.0
 20
0.0
 30
0.0
  3
*Paper_Space
  1
*Paper_Space
  0
ENDBLK
  5
103F
330
103C
100
AcDbEntity
 67
     1
  8
0
100
AcDbBlockEnd
  0
BLOCK
  5
7A0
330
796
100
AcDbEntity
  8
0
370
    30
100
AcDbBlockBegin
  2
*D0
 70
     1
 10
0.0
 20
0.0
 30
0.0
  3
*D0
  1
*D1
  0
LINE
  5
BCB
330
796
100
AcDbEntity
  8
文字
 62
     0
370
    -2
100
AcDbLine
 10
158.4434069460967
 20
107.0447782054244
 30
0.0
 11
158.4434069460967
 21
74.17988531346788
 31
0.0
  0
LINE
  5
BCC
330
796
100
AcDbEntity
  8
文字
 62
     0
370
    -2
100
AcDbLine
 10
171.4337880028633
 20
107.0447782054244
 30
0.0
 11
171.4337880028633
 21
74.17988531346788
 31
0.0
  0
LINE
  5
BCD
330
796
100
AcDbEntity
  8
文字
 62
     0
370
    -2
100
AcDbLine
 10
160.9434069460967
 20
75.42988531346788
 30
0.0
 11
168.9337880028633
 21
75.42988531346788
 31
0.0
  0
SOLID
  5
BCE
330
796
100
AcDbEntity
  8
文字
 62
     0
100
AcDbTrace
 10
160.9434069460967
 20
75.84655198013455
 30
0.0
 11
160.9434069460967
 21
75.0132186468012
 31
0.0
 12
158.4434069460967
 22
75.42988531346788
 32
0.0
 13
158.4434069460967
 23
75.42988531346788
 33
0.0
  0
SOLID
  5
BCF
330
796
100
AcDbEntity
  8
文字
 62
     0
100
AcDbTrace
 10
168.9337880028633
 20
75.0132186468012
 30
0.0
 11
168.9337880028633
 21
75.84655198013455
 31
0.0
 12
171.4337880028633
 22
75.42988531346788
 32
0.0
 13
171.4337880028633
 23
75.42988531346788
 33
0.0
  0
MTEXT
  5
BD0
330
796
100
AcDbEntity
  8
文字
 62
     0
100
AcDbMText
 10
165.1213207141837
 20
77.30488531346788
 30
0.0
 40
2.5
 41
0.0
 46
0.0
 71
     5
 72
     1
  1
13
 73
     1
 44
1.0
  0
POINT
  5
BD1
330
796
100
AcDbEntity
  8
Defpoints
 62
     0
100
AcDbPoint
 10
158.4434069460967
 20
107.6697782054244
 30
0.0
  0
POINT
  5
BD2
330
796
100
AcDbEntity
  8
Defpoints
 62
     0
100
AcDbPoint
 10
171.4337880028633
 20
107.6697782054244
 30
0.0
  0
POINT
  5
BD3
330
796
100
AcDbEntity
  8
Defpoints
 62
     0
100
AcDbPoint
 10
171.4337880028633
 20
75.42988531346788
 30
0.0
  0
ENDBLK
  5
7A1
330
796
100
AcDbEntity
  8
0
370
    30
100
AcDbBlockEnd
  0
BLOCK
  5
C03
330
BF9
100
AcDbEntity
  8
0
100
AcDbBlockBegin
  2
*D1
 70
     1
 10
0.0
 20
0.0
 30
0.0
  3
*D1
  1
*D2
  0
LINE
  5
ED3
330
BF9
100
AcDbEntity
  8
文字
 62
     0
370
    -2
100
AcDbLine
 10
100.8786331332147
 20
65.76535448782661
 30
0.0
 11
115.1103424120724
 21
65.76535448782661
 31
0.0
  0
LINE
  5
ED4
330
BF9
100
AcDbEntity
  8
文字
 62
     0
370
    -2
100
AcDbLine
 10
86.51986402559154
 20
80.34882055485835
 30
0.0
 11
115.1103424120724
 21
80.34882055485834
 31
0.0
  0
LINE
  5
ED5
330
BF9
100
AcDbEntity
  8
文字
 62
     0
370
    -2
100
AcDbLine
 10
113.8603424120724
 20
68.26535448782661
 30
0.0
 11
113.8603424120724
 21
77.84882055485834
 31
0.0
  0
SOLID
  5
ED6
330
BF9
100
AcDbEntity
  8
文字
 62
     0
100
AcDbTrace
 10
113.4436757454058
 20
68.26535448782661
 30
0.0
 11
114.2770090787391
 21
68.26535448782661
 31
0.0
 12
113.8603424120724
 22
65.76535448782661
 32
0.0
 13
113.8603424120724
 23
65.76535448782661
 33
0.0
  0
SOLID
  5
ED7
330
BF9
100
AcDbEntity
  8
文字
 62
     0
100
AcDbTrace
 10
113.4436757454058
 20
77.84882055485834
 30
0.0
 11
114.2770090787391
 21
77.84882055485834
 31
0.0
 12
113.8603424120724
 22
80.34882055485834
 32
0.0
 13
113.8603424120724
 23
80.34882055485834
 33
0.0
  0
MTEXT
  5
ED8
330
BF9
100
AcDbEntity
  8
文字
 62
     0
100
AcDbMText
 10
111.9853424120724
 20
73.05708752134251
 30
0.0
 40
2.5
 41
0.0
 46
0.0
 71
     5
 72
     1
  1
15
 11
6.123031769111886E-17
 21
1.0
 31
0.0
 73
     1
 44
1.0
  0
POINT
  5
ED9
330
BF9
100
AcDbEntity
  8
Defpoints
 62
     0
100
AcDbPoint
 10
100.2536331332147
 20
65.76535448782661
 30
0.0
  0
POINT
  5
EDA
330
BF9
100
AcDbEntity
  8
Defpoints
 62
     0
100
AcDbPoint
 10
85.89486402559154
 20
80.34882055485835
 30
0.0
  0
POINT
  5
EDB
330
BF9
100
AcDbEntity
  8
Defpoints
 62
     0
100
AcDbPoint
 10
113.8603424120724
 20
80.34882055485834
 30
0.0
  0
ENDBLK
  5
C04
330
BF9
100
AcDbEntity
  8
0
100
AcDbBlockEnd
  0
BLOCK
  5
C7E
330
C72
100
AcDbEntity
  8
0
100
AcDbBlockBegin
  2
*D2
 70
     1
 10
0.0
 20
0.0
 30
0.0
  3
*D2
  1
*D3
  0
LINE
  5
EC8
330
C72
100
AcDbEntity
  8
文字
 62
     0
370
    -2
100
AcDbLine
 10
57.12863313321469
 20
71.76535448782661
 30
0.0
 11
45.77482128540374
 21
71.76535448782661
 31
0.0
  0
LINE
  5
EC9
330
C72
100
AcDbEntity
  8
文字
 62
     0
370
    -2
100
AcDbLine
 10
57.12863313321469
 20
65.76535448782661
 30
0.0
 11
45.77482128540374
 21
65.76535448782661
 31
0.0
  0
LINE
  5
ECA
330
C72
100
AcDbEntity
  8
文字
 62
     0
370
    -2
100
AcDbLine
 10
47.02482128540374
 20
74.26535448782661
 30
0.0
 11
47.02482128540374
 21
76.76535448782661
 31
0.0
  0
LINE
  5
ECB
330
C72
100
AcDbEntity
  8
文字
 62
     0
370
    -2
100
AcDbLine
 10
47.02482128540374
 20
63.26535448782662
 30
0.0
 11
47.02482128540374
 21
60.76535448782662
 31
0.0
  0
LINE
  5
ECC
330
C72
100
AcDbEntity
  8
文字
 62
     0
370
    -2
100
AcDbLine
 10
47.02482128540374
 20
71.76535448782661
 30
0.0
 11
47.02482128540374
 21
65.76535448782661
 31
0.0
  0
SOLID
  5
ECD
330
C72
100
AcDbEntity
  8
文字
 62
     0
100
AcDbTrace
 10
46.60815461873707
 20
74.26535448782661
 30
0.0
 11
47.4414879520704
 21
74.26535448782661
 31
0.0
 12
47.02482128540374
 22
71.76535448782661
 32
0.0
 13
47.02482128540374
 23
71.76535448782661
 33
0.0
  0
SOLID
  5
ECE
330
C72
100
AcDbEntity
  8
文字
 62
     0
100
AcDbTrace
 10
46.60815461873707
 20
63.26535448782662
 30
0.0
 11
47.4414879520704
 21
63.26535448782662
 31
0.0
 12
47.02482128540374
 22
65.76535448782661
 32
0.0
 13
47.02482128540374
 23
65.76535448782661
 33
0.0
  0
MTEXT
  5
ECF
330
C72
100
AcDbEntity
  8
文字
 62
     0
100
AcDbMText
 10
45.14982128540373
 20
68.76535448782663
 30
0.0
 40
2.5
 41
0.0
 46
0.0
 71
     5
 72
     1
  1
6
 11
6.123031769111886E-17
 21
1.0
 31
0.0
 73
     1
 44
1.0
  0
POINT
  5
ED0
330
C72
100
AcDbEntity
  8
Defpoints
 62
     0
100
AcDbPoint
 10
57.75363313321469
 20
71.76535448782661
 30
0.0
  0
POINT
  5
ED1
330
C72
100
AcDbEntity
  8
Defpoints
 62
     0
100
AcDbPoint
 10
57.75363313321469
 20
65.76535448782661
 30
0.0
  0
POINT
  5
ED2
330
C72
100
AcDbEntity
  8
Defpoints
 62
     0
100
AcDbPoint
 10
47.02482128540374
 20
65.76535448782661
 30
0.0
  0
ENDBLK
  5
C7F
330
C72
100
AcDbEntity
  8
0
100
AcDbBlockEnd
  0
BLOCK
  5
C98
330
C8E
100
AcDbEntity
  8
0
100
AcDbBlockBegin
  2
*D3
 70
     1
 10
0.0
 20
0.0
 30
0.0
  3
*D3
  1
*D4
  0
LINE
  5
EBF
330
C8E
100
AcDbEntity
  8
文字
 62
     0
370
    -2
100
AcDbLine
 10
57.75363313321469
 20
65.14035448782661
 30
0.0
 11
57.75363313321469
 21
46.89204969077133
 31
0.0
  0
LINE
  5
EC0
330
C8E
100
AcDbEntity
  8
文字
 62
     0
370
    -2
100
AcDbLine
 10
102.7536331332147
 20
65.14035448782661
 30
0.0
 11
102.7536331332147
 21
46.89204969077133
 31
0.0
  0
LINE
  5
EC1
330
C8E
100
AcDbEntity
  8
文字
 62
     0
370
    -2
100
AcDbLine
 10
60.25363313321469
 20
48.14204969077133
 30
0.0
 11
100.2536331332147
 21
48.14204969077133
 31
0.0
  0
SOLID
  5
EC2
330
C8E
100
AcDbEntity
  8
文字
 62
     0
100
AcDbTrace
 10
60.25363313321469
 20
48.55871635743799
 30
0.0
 11
60.25363313321469
 21
47.72538302410467
 31
0.0
 12
57.75363313321469
 22
48.14204969077133
 32
0.0
 13
57.75363313321469
 23
48.14204969077133
 33
0.0
  0
SOLID
  5
EC3
330
C8E
100
AcDbEntity
  8
文字
 62
     0
100
AcDbTrace
 10
100.2536331332147
 20
48.55871635743799
 30
0.0
 11
100.2536331332147
 21
47.72538302410467
 31
0.0
 12
102.7536331332147
 22
48.14204969077133
 32
0.0
 13
102.7536331332147
 23
48.14204969077133
 33
0.0
  0
MTEXT
  5
EC4
330
C8E
100
AcDbEntity
  8
文字
 62
     0
100
AcDbMText
 10
80.25363313321469
 20
50.01704969077133
 30
0.0
 40
2.5
 41
0.0
 46
0.0
 71
     5
 72
     1
  1
%%c45
 73
     1
 44
1.0
  0
POINT
  5
EC5
330
C8E
100
AcDbEntity
  8
Defpoints
 62
     0
100
AcDbPoint
 10
57.75363313321469
 20
65.76535448782661
 30
0.0
  0
POINT
  5
EC6
330
C8E
100
AcDbEntity
  8
Defpoints
 62
     0
100
AcDbPoint
 10
102.7536331332147
 20
65.76535448782661
 30
0.0
  0
POINT
  5
EC7
330
C8E
100
AcDbEntity
  8
Defpoints
 62
     0
100
AcDbPoint
 10
102.7536331332147
 20
48.14204969077133
 30
0.0
  0
ENDBLK
  5
C99
330
C8E
100
AcDbEntity
  8
0
100
AcDbBlockEnd
  0
BLOCK
  5
DBD
330
DB3
100
AcDbEntity
  8
0
100
AcDbBlockBegin
  2
*D4
 70
     1
 10
0.0
 20
0.0
 30
0.0
  3
*D4
  1
*D5
  0
LINE
  5
E9F
330
DB3
100
AcDbEntity
  8
文字
 62
     0
370
    -2
100
AcDbLine
 10
76.12909965507052
 20
159.8485866536841
 30
0.0
 11
76.12909965507052
 21
172.6931061540682
 31
0.0
  0
LINE
  5
EA0
330
DB3
100
AcDbEntity
  8
文字
 62
     0
370
    -2
100
AcDbLine
 10
84.12909965507053
 20
159.8485866536841
 30
0.0
 11
84.12909965507053
 21
172.6931061540682
 31
0.0
  0
LINE
  5
EA1
330
DB3
100
AcDbEntity
  8
文字
 62
     0
370
    -2
100
AcDbLine
 10
78.62909965507052
 20
171.4431061540682
 30
0.0
 11
81.62909965507053
 21
171.4431061540682
 31
0.0
  0
SOLID
  5
EA2
330
DB3
100
AcDbEntity
  8
文字
 62
     0
100
AcDbTrace
 10
78.62909965507052
 20
171.8597728207349
 30
0.0
 11
78.62909965507052
 21
171.0264394874016
 31
0.0
 12
76.12909965507052
 22
171.4431061540682
 32
0.0
 13
76.12909965507052
 23
171.4431061540682
 33
0.0
  0
SOLID
  5
EA3
330
DB3
100
AcDbEntity
  8
文字
 62
     0
100
AcDbTrace
 10
81.62909965507053
 20
171.8597728207349
 30
0.0
 11
81.62909965507053
 21
171.0264394874016
 31
0.0
 12
84.12909965507053
 22
171.4431061540682
 32
0.0
 13
84.12909965507053
 23
171.4431061540682
 33
0.0
  0
MTEXT
  5
EA4
330
DB3
100
AcDbEntity
  8
文字
 62
     0
100
AcDbMText
 10
80.12909965507052
 20
173.3181061540682
 30
0.0
 40
2.5
 41
0.0
 46
0.0
 71
     5
 72
     1
  1
{\fArial|b0|i0|c0|p32;M}8
 73
     1
 44
1.0
  0
POINT
  5
EA5
330
DB3
100
AcDbEntity
  8
Defpoints
 62
     0
100
AcDbPoint
 10
76.12909965507052
 20
159.2235866536841
 30
0.0
  0
POINT
  5
EA6
330
DB3
100
AcDbEntity
  8
Defpoints
 62
     0
100
AcDbPoint
 10
84.12909965507053
 20
159.2235866536841
 30
0.0
  0
POINT
  5
EA7
330
DB3
100
AcDbEntity
  8
Defpoints
 62
     0
100
AcDbPoint
 10
84.12909965507053
 20
171.4431061540682
 30
0.0
  0
ENDBLK
  5
DBE
330
DB3
100
AcDbEntity
  8
0
100
AcDbBlockEnd
  0
BLOCK
  5
DC9
330
DBF
100
AcDbEntity
  8
0
100
AcDbBlockBegin
  2
*D5
 70
     1
 10
0.0
 20
0.0
 30
0.0
  3
*D5
  1
*D6
  0
LINE
  5
EB6
330
DBF
100
AcDbEntity
  8
文字
 62
     0
370
    -2
100
AcDbLine
 10
83.75409965507049
 20
160.8485866536841
 30
0.0
 11
114.9858089339283
 21
160.8485866536841
 31
0.0
  0
LINE
  5
EB7
330
DBF
100
AcDbEntity
  8
文字
 62
     0
370
    -2
100
AcDbLine
 10
88.2864827580973
 20
85.84858665368407
 30
0.0
 11
114.9858089339283
 21
85.84858665368405
 31
0.0
  0
LINE
  5
EB8
330
DBF
100
AcDbEntity
  8
文字
 62
     0
370
    -2
100
AcDbLine
 10
113.7358089339283
 20
158.3485866536841
 30
0.0
 11
113.7358089339283
 21
88.34858665368405
 31
0.0
  0
SOLID
  5
EB9
330
DBF
100
AcDbEntity
  8
文字
 62
     0
100
AcDbTrace
 10
113.3191422672616
 20
158.3485866536841
 30
0.0
 11
114.152475600595
 21
158.3485866536841
 31
0.0
 12
113.7358089339283
 22
160.8485866536841
 32
0.0
 13
113.7358089339283
 23
160.8485866536841
 33
0.0
  0
SOLID
  5
EBA
330
DBF
100
AcDbEntity
  8
文字
 62
     0
100
AcDbTrace
 10
113.3191422672616
 20
88.34858665368405
 30
0.0
 11
114.1524756005949
 21
88.34858665368405
 31
0.0
 12
113.7358089339283
 22
85.84858665368405
 32
0.0
 13
113.7358089339283
 23
85.84858665368405
 33
0.0
  0
MTEXT
  5
EBB
330
DBF
100
AcDbEntity
  8
文字
 62
     0
100
AcDbMText
 10
111.8608089339283
 20
123.3485866536841
 30
0.0
 40
2.5
 41
0.0
 46
0.0
 71
     5
 72
     1
  1
75
 11
6.123031769111886E-17
 21
1.0
 31
0.0
 73
     1
 44
1.0
  0
POINT
  5
EBC
330
DBF
100
AcDbEntity
  8
Defpoints
 62
     0
100
AcDbPoint
 10
83.12909965507049
 20
160.8485866536841
 30
0.0
  0
POINT
  5
EBD
330
DBF
100
AcDbEntity
  8
Defpoints
 62
     0
100
AcDbPoint
 10
87.6614827580973
 20
85.84858665368407
 30
0.0
  0
POINT
  5
EBE
330
DBF
100
AcDbEntity
  8
Defpoints
 62
     0
100
AcDbPoint
 10
113.7358089339283
 20
85.84858665368405
 30
0.0
  0
ENDBLK
  5
DCA
330
DBF
100
AcDbEntity
  8
0
100
AcDbBlockEnd
  0
BLOCK
  5
DDA
330
DCB
100
AcDbEntity
  8
0
100
AcDbBlockBegin
  2
*D6
 70
     1
 10
0.0
 20
0.0
 30
0.0
  3
*D6
  1
*D7
  0
LINE
  5
EA8
330
DCB
100
AcDbEntity
  8
文字
 62
     0
370
    -2
100
AcDbLine
 10
85.77033054744734
 20
80.34882055485835
 30
0.0
 11
114.9858089339283
 21
80.34882055485834
 31
0.0
  0
LINE
  5
EA9
330
DCB
100
AcDbEntity
  8
文字
 62
     0
370
    -2
100
AcDbLine
 10
88.28648275809729
 20
85.84858665368407
 30
0.0
 11
114.9858089339283
 21
85.84858665368405
 31
0.0
  0
LINE
  5
EAA
330
DCB
100
AcDbEntity
  8
文字
 62
     0
370
    -2
100
AcDbLine
 10
113.7358089339283
 20
77.84882055485834
 30
0.0
 11
113.7358089339283
 21
75.34882055485834
 31
0.0
  0
LINE
  5
EAB
330
DCB
100
AcDbEntity
  8
文字
 62
     0
370
    -2
100
AcDbLine
 10
113.7358089339283
 20
88.34858665368405
 30
0.0
 11
113.7358089339283
 21
90.84858665368405
 31
0.0
  0
LINE
  5
EAC
330
DCB
100
AcDbEntity
  8
文字
 62
     0
370
    -2
100
AcDbLine
 10
113.7358089339283
 20
83.0987036042712
 30
0.0
 11
119.6733089339283
 21
84.8799536042712
 31
0.0
  0
LINE
  5
EAD
330
DCB
100
AcDbEntity
  8
文字
 62
     0
370
    -2
100
AcDbLine
 10
119.6733089339283
 20
84.8799536042712
 30
0.0
 11
119.6733089339283
 21
91.1299536042712
 31
0.0
  0
MTEXT
  5
EAE
330
DCB
100
AcDbEntity
  8
文字
 62
     0
100
AcDbMText
 10
117.7983089339282
 20
88.00495360427121
 30
0.0
 40
2.5
 41
0.0
 46
0.0
 71
     5
 72
     1
  1
5.5
 11
6.123031769111886E-17
 21
1.0
 31
0.0
 73
     1
 44
1.0
  0
LINE
  5
EAF
330
DCB
100
AcDbEntity
  8
文字
 62
     0
370
    -2
100
AcDbLine
 10
113.7358089339283
 20
80.34882055485834
 30
0.0
 11
113.7358089339283
 21
85.84858665368405
 31
0.0
  0
LINE
  5
EB0
330
DCB
100
AcDbEntity
  8
文字
 62
     0
370
    -2
100
AcDbLine
 10
113.7358089339283
 20
80.34882055485834
 30
0.0
 11
113.7358089339283
 21
85.84858665368405
 31
0.0
  0
SOLID
  5
EB1
330
DCB
100
AcDbEntity
  8
文字
 62
     0
100
AcDbTrace
 10
113.3191422672616
 20
77.84882055485834
 30
0.0
 11
114.1524756005949
 21
77.84882055485834
 31
0.0
 12
113.7358089339283
 22
80.34882055485834
 32
0.0
 13
113.7358089339283
 23
80.34882055485834
 33
0.0
  0
SOLID
  5
EB2
330
DCB
100
AcDbEntity
  8
文字
 62
     0
100
AcDbTrace
 10
113.3191422672616
 20
88.34858665368405
 30
0.0
 11
114.1524756005949
 21
88.34858665368405
 31
0.0
 12
113.7358089339283
 22
85.84858665368405
 32
0.0
 13
113.7358089339283
 23
85.84858665368405
 33
0.0
  0
POINT
  5
EB3
330
DCB
100
AcDbEntity
  8
Defpoints
 62
     0
100
AcDbPoint
 10
85.14533054744734
 20
80.34882055485835
 30
0.0
  0
POINT
  5
EB4
330
DCB
100
AcDbEntity
  8
Defpoints
 62
     0
100
AcDbPoint
 10
87.66148275809729
 20
85.84858665368407
 30
0.0
  0
POINT
  5
EB5
330
DCB
100
AcDbEntity
  8
Defpoints
 62
     0
100
AcDbPoint
 10
113.7358089339283
 20
85.84858665368405
 30
0.0
  0
ENDBLK
  5
DDB
330
DCB
100
AcDbEntity
  8
0
100
AcDbBlockEnd
  0
BLOCK
  5
1073
330
1072
100
AcDbEntity
  8
0
100
AcDbBlockBegin
  2
*D7
 70
     1
 10
0.0
 20
0.0
 30
0.0
  3
*D7
  1
*D15
  0
LINE
  5
1074
330
1072
100
AcDbEntity
  8
文字
 62
     0
370
    -2
100
AcDbLine
 10
0.0
 20
42.26614347604425
 30
0.0
 11
0.0
 21
0.0
 31
0.0
  0
LINE
  5
1075
330
1072
100
AcDbEntity
  8
文字
 62
     0
370
    -2
100
AcDbLine
 10
28.00364289724251
 20
42.43311905786445
 30
0.0
 11
28.00364289724251
 21
0.0
 31
0.0
  0
LINE
  5
1076
330
1072
100
AcDbEntity
  8
文字
 62
     0
370
    -2
100
AcDbLine
 10
2.5
 20
1.25
 30
0.0
 11
25.50364289724251
 21
1.25
 31
0.0
  0
SOLID
  5
1077
330
1072
100
AcDbEntity
  8
文字
 62
     0
100
AcDbTrace
 10
2.5
 20
1.666666666666667
 30
0.0
 11
2.5
 21
0.8333333333333333
 31
0.0
 12
0.0
 22
1.25
 32
0.0
 13
0.0
 23
1.25
 33
0.0
  0
SOLID
  5
1078
330
1072
100
AcDbEntity
  8
文字
 62
     0
100
AcDbTrace
 10
25.50364289724251
 20
0.8333333333333333
 30
0.0
 11
25.50364289724251
 21
1.666666666666667
 31
0.0
 12
28.00364289724251
 22
1.25
 32
0.0
 13
28.00364289724251
 23
1.25
 33
0.0
  0
MTEXT
  5
1079
330
1072
100
AcDbEntity
  8
文字
 62
     0
100
AcDbMText
 10
14.00182144862126
 20
3.125
 30
0.0
 40
2.5
 41
0.0
 46
0.0
 71
     5
 72
     1
  1
%%c28
 73
     1
 44
1.0
  0
POINT
  5
107A
330
1072
100
AcDbEntity
  8
Defpoints
 62
     0
100
AcDbPoint
 10
0.0
 20
42.89114347604425
 30
0.0
  0
POINT
  5
107B
330
1072
100
AcDbEntity
  8
Defpoints
 62
     0
100
AcDbPoint
 10
28.00364289724251
 20
43.05811905786445
 30
0.0
  0
POINT
  5
107C
330
1072
100
AcDbEntity
  8
Defpoints
 62
     0
100
AcDbPoint
 10
28.00364289724251
 20
1.25
 30
0.0
  0
ENDBLK
  5
107D
330
1072
100
AcDbEntity
  8
0
100
AcDbBlockEnd
  0
BLOCK
  5
1084
330
1083
100
AcDbEntity
  8
0
100
AcDbBlockBegin
  2
*D8
 70
     1
 10
0.0
 20
0.0
 30
0.0
  3
*D8
  1
*D9
  0
LINE
  5
1086
330
1083
100
AcDbEntity
  8
文字
 62
     0
370
    -2
100
AcDbLine
 10
151.1256962511811
 20
106.8196705222547
 30
0.0
 11
151.1256962511811
 21
64.55352704621043
 31
0.0
  0
LINE
  5
1087
330
1083
100
AcDbEntity
  8
文字
 62
     0
370
    -2
100
AcDbLine
 10
179.1293391484236
 20
106.9866461040749
 30
0.0
 11
179.1293391484236
 21
64.55352704621043
 31
0.0
  0
LINE
  5
1088
330
1083
100
AcDbEntity
  8
文字
 62
     0
370
    -2
100
AcDbLine
 10
153.6256962511811
 20
65.80352704621043
 30
0.0
 11
176.6293391484236
 21
65.80352704621043
 31
0.0
  0
SOLID
  5
1089
330
1083
100
AcDbEntity
  8
文字
 62
     0
100
AcDbTrace
 10
153.6256962511811
 20
66.2201937128771
 30
0.0
 11
153.6256962511811
 21
65.38686037954376
 31
0.0
 12
151.1256962511811
 22
65.80352704621043
 32
0.0
 13
151.1256962511811
 23
65.80352704621043
 33
0.0
  0
SOLID
  5
108A
330
1083
100
AcDbEntity
  8
文字
 62
     0
100
AcDbTrace
 10
176.6293391484236
 20
65.38686037954376
 30
0.0
 11
176.6293391484236
 21
66.2201937128771
 31
0.0
 12
179.1293391484236
 22
65.80352704621043
 32
0.0
 13
179.1293391484236
 23
65.80352704621043
 33
0.0
  0
MTEXT
  5
108B
330
1083
100
AcDbEntity
  8
文字
 62
     0
100
AcDbMText
 10
165.1275176998024
 20
67.67852704621043
 30
0.0
 40
2.5
 41
0.0
 46
0.0
 71
     5
 72
     1
  1
%%c28
 73
     1
 44
1.0
  0
POINT
  5
108C
330
1083
100
AcDbEntity
  8
Defpoints
 62
     0
100
AcDbPoint
 10
151.1256962511811
 20
107.4446705222547
 30
0.0
  0
POINT
  5
108D
330
1083
100
AcDbEntity
  8
Defpoints
 62
     0
100
AcDbPoint
 10
179.1293391484236
 20
107.6116461040749
 30
0.0
  0
POINT
  5
108E
330
1083
100
AcDbEntity
  8
Defpoints
 62
     0
100
AcDbPoint
 10
179.1293391484236
 20
65.80352704621043
 30
0.0
  0
ENDBLK
  5
1085
330
1083
100
AcDbEntity
  8
0
100
AcDbBlockEnd
  0
BLOCK
  5
1150
330
114F
100
AcDbEntity
  8
0
100
AcDbBlockBegin
  2
*D9
 70
     1
 10
0.0
 20
0.0
 30
0.0
  3
*D9
  1
*D11
  0
LINE
  5
1151
330
114F
100
AcDbEntity
  8
文字
 62
     0
370
    -2
100
AcDbLine
 10
53.36095590124977
 20
35.71017274872139
 30
0.0
 11
88.90049629705811
 21
35.71017274872139
 31
0.0
  0
LINE
  5
1152
330
114F
100
AcDbEntity
  8
文字
 62
     0
370
    -2
100
AcDbLine
 10
65.53050507032981
 20
19.70665082841047
 30
0.0
 11
88.90049629705811
 21
19.70665082841047
 31
0.0
  0
LINE
  5
1153
330
114F
100
AcDbEntity
  8
文字
 62
     0
370
    -2
100
AcDbLine
 10
87.65049629705811
 20
33.21017274872139
 30
0.0
 11
87.65049629705811
 21
22.20665082841047
 31
0.0
  0
SOLID
  5
1154
330
114F
100
AcDbEntity
  8
文字
 62
     0
100
AcDbTrace
 10
88.06716296372478
 20
33.21017274872139
 30
0.0
 11
87.23382963039144
 21
33.21017274872139
 31
0.0
 12
87.65049629705811
 22
35.71017274872139
 32
0.0
 13
87.65049629705811
 23
35.71017274872139
 33
0.0
  0
SOLID
  5
1155
330
114F
100
AcDbEntity
  8
文字
 62
     0
100
AcDbTrace
 10
87.23382963039144
 20
22.20665082841047
 30
0.0
 11
88.06716296372478
 21
22.20665082841047
 31
0.0
 12
87.65049629705811
 22
19.70665082841047
 32
0.0
 13
87.65049629705811
 23
19.70665082841047
 33
0.0
  0
MTEXT
  5
1156
330
114F
100
AcDbEntity
  8
文字
 62
     0
100
AcDbMText
 10
85.77549629705811
 20
27.70841178856593
 30
0.0
 40
2.5
 41
0.0
 46
0.0
 71
     5
 72
     1
  1
16
 11
0.0
 21
1.0
 31
0.0
 73
     1
 44
1.0
  0
POINT
  5
1157
330
114F
100
AcDbEntity
  8
Defpoints
 62
     0
100
AcDbPoint
 10
52.73595590124977
 20
35.71017274872139
 30
0.0
  0
POINT
  5
1158
330
114F
100
AcDbEntity
  8
Defpoints
 62
     0
100
AcDbPoint
 10
64.90550507032981
 20
19.70665082841047
 30
0.0
  0
POINT
  5
1159
330
114F
100
AcDbEntity
  8
Defpoints
 62
     0
100
AcDbPoint
 10
87.65049629705811
 20
19.70665082841047
 30
0.0
  0
ENDBLK
  5
115A
330
114F
100
AcDbEntity
  8
0
100
AcDbBlockEnd
  0
BLOCK
  5
115F
330
115E
100
AcDbEntity
  8
0
100
AcDbBlockBegin
  2
*D10
 70
     1
 10
0.0
 20
0.0
 30
0.0
  3
*D10
  1
*D12
  0
LINE
  5
1160
330
115E
100
AcDbEntity
  8
文字
 62
     0
370
    -2
100
AcDbLine
 10
19.18642710541309
 20
25.54327003021389
 30
0.0
 11
2.437999999999982
 21
25.54327003021389
 31
0.0
  0
LINE
  5
1161
330
115E
100
AcDbEntity
  8
文字
 62
     0
370
    -2
100
AcDbLine
 10
19.18642710541309
 20
19.54327003021389
 30
0.0
 11
2.437999999999981
 21
19.54327003021389
 31
0.0
  0
LINE
  5
1162
330
115E
100
AcDbEntity
  8
文字
 62
     0
370
    -2
100
AcDbLine
 10
3.687999999999982
 20
25.54327003021389
 30
0.0
 11
3.687999999999981
 21
19.54327003021389
 31
0.0
  0
LINE
  5
1163
330
115E
100
AcDbEntity
  8
文字
 62
     0
370
    -2
100
AcDbLine
 10
3.687999999999982
 20
28.04327003021389
 30
0.0
 11
3.687999999999982
 21
30.54327003021389
 31
0.0
  0
LINE
  5
1164
330
115E
100
AcDbEntity
  8
文字
 62
     0
370
    -2
100
AcDbLine
 10
3.687999999999981
 20
17.04327003021389
 30
0.0
 11
3.687999999999981
 21
14.54327003021389
 31
0.0
  0
SOLID
  5
1165
330
115E
100
AcDbEntity
  8
文字
 62
     0
100
AcDbTrace
 10
3.271333333333315
 20
28.04327003021389
 30
0.0
 11
4.104666666666648
 21
28.04327003021389
 31
0.0
 12
3.687999999999982
 22
25.54327003021389
 32
0.0
 13
3.687999999999982
 23
25.54327003021389
 33
0.0
  0
SOLID
  5
1166
330
115E
100
AcDbEntity
  8
文字
 62
     0
100
AcDbTrace
 10
4.104666666666648
 20
17.04327003021389
 30
0.0
 11
3.271333333333315
 21
17.04327003021389
 31
0.0
 12
3.687999999999981
 22
19.54327003021389
 32
0.0
 13
3.687999999999981
 23
19.54327003021389
 33
0.0
  0
MTEXT
  5
1167
330
115E
100
AcDbEntity
  8
文字
 62
     0
100
AcDbMText
 10
1.812999999999981
 20
22.54327003021389
 30
0.0
 40
2.5
 41
0.0
 46
0.0
 71
     5
 72
     1
  1
6
 11
7.401486830834377E-17
 21
1.0
 31
0.0
 73
     1
 44
1.0
  0
POINT
  5
1168
330
115E
100
AcDbEntity
  8
Defpoints
 62
     0
100
AcDbPoint
 10
19.81142710541309
 20
25.54327003021389
 30
0.0
  0
POINT
  5
1169
330
115E
100
AcDbEntity
  8
Defpoints
 62
     0
100
AcDbPoint
 10
19.81142710541309
 20
19.54327003021389
 30
0.0
  0
POINT
  5
116A
330
115E
100
AcDbEntity
  8
Defpoints
 62
     0
100
AcDbPoint
 10
3.687999999999981
 20
19.54327003021389
 30
0.0
  0
ENDBLK
  5
116B
330
115E
100
AcDbEntity
  8
0
100
AcDbBlockEnd
  0
BLOCK
  5
1170
330
116F
100
AcDbEntity
  8
0
100
AcDbBlockBegin
  2
*D11
 70
     1
 10
0.0
 20
0.0
 30
0.0
  3
*D11
  1
*D13
  0
LINE
  5
1171
330
116F
100
AcDbEntity
  8
文字
 62
     0
370
    -2
100
AcDbLine
 10
19.81142710541309
 20
18.91827003021389
 30
0.0
 11
19.81142710541309
 21
0.0
 31
0.0
  0
LINE
  5
1172
330
116F
100
AcDbEntity
  8
文字
 62
     0
370
    -2
100
AcDbLine
 10
64.81142710541313
 20
18.91827003021389
 30
0.0
 11
64.81142710541313
 21
0.0
 31
0.0
  0
LINE
  5
1173
330
116F
100
AcDbEntity
  8
文字
 62
     0
370
    -2
100
AcDbLine
 10
22.31142710541309
 20
1.25
 30
0.0
 11
62.31142710541313
 21
1.25
 31
0.0
  0
SOLID
  5
1174
330
116F
100
AcDbEntity
  8
文字
 62
     0
100
AcDbTrace
 10
22.31142710541309
 20
1.666666666666667
 30
0.0
 11
22.31142710541309
 21
0.8333333333333333
 31
0.0
 12
19.81142710541309
 22
1.25
 32
0.0
 13
19.81142710541309
 23
1.25
 33
0.0
  0
SOLID
  5
1175
330
116F
100
AcDbEntity
  8
文字
 62
     0
100
AcDbTrace
 10
62.31142710541313
 20
0.8333333333333333
 30
0.0
 11
62.31142710541313
 21
1.666666666666667
 31
0.0
 12
64.81142710541313
 22
1.25
 32
0.0
 13
64.81142710541313
 23
1.25
 33
0.0
  0
MTEXT
  5
1176
330
116F
100
AcDbEntity
  8
文字
 62
     0
100
AcDbMText
 10
42.31142710541311
 20
3.125
 30
0.0
 40
2.5
 41
0.0
 46
0.0
 71
     5
 72
     1
  1
%%c45
 73
     1
 44
1.0
  0
POINT
  5
1177
330
116F
100
AcDbEntity
  8
Defpoints
 62
     0
100
AcDbPoint
 10
19.81142710541309
 20
19.54327003021389
 30
0.0
  0
POINT
  5
1178
330
116F
100
AcDbEntity
  8
Defpoints
 62
     0
100
AcDbPoint
 10
64.81142710541313
 20
19.54327003021389
 30
0.0
  0
POINT
  5
1179
330
116F
100
AcDbEntity
  8
Defpoints
 62
     0
100
AcDbPoint
 10
64.81142710541313
 20
1.25
 30
0.0
  0
ENDBLK
  5
117A
330
116F
100
AcDbEntity
  8
0
100
AcDbBlockEnd
  0
BLOCK
  5
118E
330
118D
100
AcDbEntity
  8
0
100
AcDbBlockBegin
  2
*D12
 70
     1
 10
0.0
 20
0.0
 30
0.0
  3
*D12
  1
*D14
  0
LINE
  5
1190
330
118D
100
AcDbEntity
  8
文字
 62
     0
370
    -2
100
AcDbLine
 10
91.2211470765052
 20
80.41024897126809
 30
0.0
 11
114.9858089339283
 21
80.41024897126809
 31
0.0
  0
LINE
  5
1191
330
118D
100
AcDbEntity
  8
文字
 62
     0
370
    -2
100
AcDbLine
 10
103.3906962455852
 20
64.40672705095717
 30
0.0
 11
114.9858089339283
 21
64.40672705095717
 31
0.0
  0
LINE
  5
1192
330
118D
100
AcDbEntity
  8
文字
 62
     0
370
    -2
100
AcDbLine
 10
113.7358089339283
 20
77.91024897126809
 30
0.0
 11
113.7358089339283
 21
66.90672705095717
 31
0.0
  0
SOLID
  5
1193
330
118D
100
AcDbEntity
  8
文字
 62
     0
100
AcDbTrace
 10
114.152475600595
 20
77.91024897126809
 30
0.0
 11
113.3191422672616
 21
77.91024897126809
 31
0.0
 12
113.7358089339283
 22
80.41024897126809
 32
0.0
 13
113.7358089339283
 23
80.41024897126809
 33
0.0
  0
SOLID
  5
1194
330
118D
100
AcDbEntity
  8
文字
 62
     0
100
AcDbTrace
 10
113.3191422672616
 20
66.90672705095717
 30
0.0
 11
114.152475600595
 21
66.90672705095717
 31
0.0
 12
113.7358089339283
 22
64.40672705095717
 32
0.0
 13
113.7358089339283
 23
64.40672705095717
 33
0.0
  0
MTEXT
  5
1195
330
118D
100
AcDbEntity
  8
文字
 62
     0
100
AcDbMText
 10
111.8608089339283
 20
72.40848801111264
 30
0.0
 40
2.5
 41
0.0
 46
0.0
 71
     5
 72
     1
  1
16
 11
0.0
 21
1.0
 31
0.0
 73
     1
 44
1.0
  0
POINT
  5
1196
330
118D
100
AcDbEntity
  8
Defpoints
 62
     0
100
AcDbPoint
 10
90.5961470765052
 20
80.41024897126809
 30
0.0
  0
POINT
  5
1197
330
118D
100
AcDbEntity
  8
Defpoints
 62
     0
100
AcDbPoint
 10
102.7656962455852
 20
64.40672705095717
 30
0.0
  0
POINT
  5
1198
330
118D
100
AcDbEntity
  8
Defpoints
 62
     0
100
AcDbPoint
 10
113.7358089339283
 20
64.40672705095717
 30
0.0
  0
ENDBLK
  5
118F
330
118D
100
AcDbEntity
  8
0
100
AcDbBlockEnd
  0
BLOCK
  5
119A
330
1199
100
AcDbEntity
  8
0
100
AcDbBlockBegin
  2
*D13
 70
     1
 10
0.0
 20
0.0
 30
0.0
  3
*D13
  1
*D15
  0
LINE
  5
119C
330
1199
100
AcDbEntity
  8
文字
 62
     0
370
    -2
100
AcDbLine
 10
57.04661828066853
 20
70.24334625276059
 30
0.0
 11
40.29819117525542
 21
70.24334625276059
 31
0.0
  0
LINE
  5
119D
330
1199
100
AcDbEntity
  8
文字
 62
     0
370
    -2
100
AcDbLine
 10
57.04661828066853
 20
64.24334625276059
 30
0.0
 11
40.29819117525542
 21
64.24334625276059
 31
0.0
  0
LINE
  5
119E
330
1199
100
AcDbEntity
  8
文字
 62
     0
370
    -2
100
AcDbLine
 10
41.54819117525542
 20
70.24334625276059
 30
0.0
 11
41.54819117525542
 21
64.24334625276059
 31
0.0
  0
LINE
  5
119F
330
1199
100
AcDbEntity
  8
文字
 62
     0
370
    -2
100
AcDbLine
 10
41.54819117525542
 20
72.74334625276059
 30
0.0
 11
41.54819117525542
 21
75.24334625276059
 31
0.0
  0
LINE
  5
11A0
330
1199
100
AcDbEntity
  8
文字
 62
     0
370
    -2
100
AcDbLine
 10
41.54819117525542
 20
61.74334625276059
 30
0.0
 11
41.54819117525542
 21
59.24334625276059
 31
0.0
  0
SOLID
  5
11A1
330
1199
100
AcDbEntity
  8
文字
 62
     0
100
AcDbTrace
 10
41.13152450858875
 20
72.74334625276059
 30
0.0
 11
41.96485784192208
 21
72.74334625276059
 31
0.0
 12
41.54819117525542
 22
70.24334625276059
 32
0.0
 13
41.54819117525542
 23
70.24334625276059
 33
0.0
  0
SOLID
  5
11A2
330
1199
100
AcDbEntity
  8
文字
 62
     0
100
AcDbTrace
 10
41.96485784192208
 20
61.74334625276059
 30
0.0
 11
41.13152450858875
 21
61.74334625276059
 31
0.0
 12
41.54819117525542
 22
64.24334625276059
 32
0.0
 13
41.54819117525542
 23
64.24334625276059
 33
0.0
  0
MTEXT
  5
11A3
330
1199
100
AcDbEntity
  8
文字
 62
     0
100
AcDbMText
 10
39.67319117525542
 20
67.24334625276059
 30
0.0
 40
2.5
 41
0.0
 46
0.0
 71
     5
 72
     1
  1
6
 11
0.0
 21
1.0
 31
0.0
 73
     1
 44
1.0
  0
POINT
  5
11A4
330
1199
100
AcDbEntity
  8
Defpoints
 62
     0
100
AcDbPoint
 10
57.67161828066853
 20
70.24334625276059
 30
0.0
  0
POINT
  5
11A5
330
1199
100
AcDbEntity
  8
Defpoints
 62
     0
100
AcDbPoint
 10
57.67161828066853
 20
64.24334625276059
 30
0.0
  0
POINT
  5
11A6
330
1199
100
AcDbEntity
  8
Defpoints
 62
     0
100
AcDbPoint
 10
41.54819117525542
 20
64.24334625276059
 30
0.0
  0
ENDBLK
  5
119B
330
1199
100
AcDbEntity
  8
0
100
AcDbBlockEnd
  0
BLOCK
  5
11A8
330
11A7
100
AcDbEntity
  8
0
100
AcDbBlockBegin
  2
*D14
 70
     1
 10
0.0
 20
0.0
 30
0.0
  3
*D14
  1
*D16
  0
LINE
  5
11AA
330
11A7
100
AcDbEntity
  8
文字
 62
     0
370
    -2
100
AcDbLine
 10
57.67161828066853
 20
63.61834625276059
 30
0.0
 11
57.67161828066853
 21
44.7000762225467
 31
0.0
  0
LINE
  5
11AB
330
11A7
100
AcDbEntity
  8
文字
 62
     0
370
    -2
100
AcDbLine
 10
102.6716182806686
 20
63.61834625276059
 30
0.0
 11
102.6716182806686
 21
44.7000762225467
 31
0.0
  0
LINE
  5
11AC
330
11A7
100
AcDbEntity
  8
文字
 62
     0
370
    -2
100
AcDbLine
 10
60.17161828066853
 20
45.9500762225467
 30
0.0
 11
100.1716182806686
 21
45.9500762225467
 31
0.0
  0
SOLID
  5
11AD
330
11A7
100
AcDbEntity
  8
文字
 62
     0
100
AcDbTrace
 10
60.17161828066853
 20
46.36674288921336
 30
0.0
 11
60.17161828066853
 21
45.53340955588003
 31
0.0
 12
57.67161828066853
 22
45.9500762225467
 32
0.0
 13
57.67161828066853
 23
45.9500762225467
 33
0.0
  0
SOLID
  5
11AE
330
11A7
100
AcDbEntity
  8
文字
 62
     0
100
AcDbTrace
 10
100.1716182806686
 20
45.53340955588003
 30
0.0
 11
100.1716182806686
 21
46.36674288921336
 31
0.0
 12
102.6716182806686
 22
45.9500762225467
 32
0.0
 13
102.6716182806686
 23
45.9500762225467
 33
0.0
  0
MTEXT
  5
11AF
330
11A7
100
AcDbEntity
  8
文字
 62
     0
100
AcDbMText
 10
80.17161828066855
 20
47.8250762225467
 30
0.0
 40
2.5
 41
0.0
 46
0.0
 71
     5
 72
     1
  1
%%c45
 73
     1
 44
1.0
  0
POINT
  5
11B0
330
11A7
100
AcDbEntity
  8
Defpoints
 62
     0
100
AcDbPoint
 10
57.67161828066853
 20
64.24334625276059
 30
0.0
  0
POINT
  5
11B1
330
11A7
100
AcDbEntity
  8
Defpoints
 62
     0
100
AcDbPoint
 10
102.6716182806686
 20
64.24334625276059
 30
0.0
  0
POINT
  5
11B2
330
11A7
100
AcDbEntity
  8
Defpoints
 62
     0
100
AcDbPoint
 10
102.6716182806686
 20
45.9500762225467
 30
0.0
  0
ENDBLK
  5
11A9
330
11A7
100
AcDbEntity
  8
0
100
AcDbBlockEnd
  0
ENDSEC
  0
SECTION
  2
ENTITIES
  0
CIRCLE
  5
65D
330
21
100
AcDbEntity
  8
実線
370
    50
100
AcDbCircle
 10
164.93859747448
 20
107.6697782054244
 30
0.0
 40
14.0
  0
LINE
  5
65F
330
21
100
AcDbEntity
  8
中心線
100
AcDbLine
 10
174.5262680206246
 20
107.6697782054244
 30
0.0
 11
195.1685662381319
 21
107.6697782054244
 31
0.0
  0
LINE
  5
672
102
{ACAD_REACTORS
330
7AC
102
}
330
21
100
AcDbEntity
  8
中心線
100
AcDbLine
 10
134.5238368701825
 20
107.6697782054244
 30
0.0
 11
174.5262680206246
 21
107.6697782054244
 31
0.0
  0
LINE
  5
682
330
21
100
AcDbEntity
  8
実線
370
    50
100
AcDbLine
 10
80.25363313321469
 20
80.34882055485835
 30
0.0
 11
75.23740224083788
 21
80.34882055485835
 31
0.0
  0
LINE
  5
683
330
21
100
AcDbEntity
  8
実線
370
    50
100
AcDbLine
 10
80.25363313321442
 20
80.34882055485835
 30
0.0
 11
85.26986402559153
 21
80.34882055485835
 31
0.0
  0
LWPOLYLINE
  5
6FE
102
{ACAD_REACTORS
330
7AC
102
}
330
21
100
AcDbEntity
  8
実線
370
    50
100
AcDbPolyline
 90
        6
 70
     1
 43
0.0
 10
171.4337880028633
 20
111.4197782054244
 10
164.93859747448
 20
115.1697782054244
 10
158.4434069460967
 20
111.4197782054244
 10
158.4434069460967
 20
103.9197782054244
 10
164.93859747448
 20
100.1697782054244
 10
171.4337880028633
 20
103.9197782054244
  0
CIRCLE
  5
6FF
330
21
100
AcDbEntity
  8
実線
370
    50
100
AcDbCircle
 10
164.93859747448
 20
107.6697782054244
 30
0.0
 40
4.0
  0
CIRCLE
  5
700
330
21
100
AcDbEntity
  8
実線
370
    20
100
AcDbCircle
 10
164.93859747448
 20
107.6697782054244
 30
0.0
 40
3.4
  0
DIMENSION
  5
795
102
{ACAD_REACTORS
330
7AC
102
}
102
{ACAD_XDICTIONARY
360
7A2
102
}
330
21
100
AcDbEntity
  8
文字
100
AcDbDimension
280
     0
  2
*D0
 10
171.4337880028633
 20
75.42988531346788
 30
0.0
 11
165.1213207141837
 21
75.42988531346788
 31
0.0
 70
   160
  1
13
 71
     5
 42
12.99038105676658
 73
     0
 74
     0
 75
     0
  3
ISO-25
100
AcDbAlignedDimension
 13
158.4434069460967
 23
107.6697782054244
 33
0.0
 14
171.4337880028633
 24
107.6697782054244
 34
0.0
100
AcDbRotatedDimension
  0
LINE
  5
B55
330
21
100
AcDbEntity
  8
中心線
100
AcDbLine
 10
164.93859747448
 20
107.6697782054244
 30
0.0
 11
164.93859747448
 21
133.3651895201221
 31
0.0
  0
LINE
  5
B68
330
21
100
AcDbEntity
  8
中心線
100
AcDbLine
 10
164.93859747448
 20
107.6697782054244
 30
0.0
 11
164.93859747448
 21
83.74467432048817
 31
0.0
  0
LINE
  5
D02
330
21
100
AcDbEntity
  8
実線
370
    50
100
AcDbLine
 10
80.25363313321442
 20
80.34882055485835
 30
0.0
 11
85.26986402559153
 21
80.34882055485835
 31
0.0
  0
LINE
  5
D03
330
21
100
AcDbEntity
  8
実線
370
    50
100
AcDbLine
 10
80.25363313321469
 20
80.34882055485835
 30
0.0
 11
75.23740224083788
 21
80.34882055485835
 31
0.0
  0
DIMENSION
  5
D9F
102
{ACAD_REACTORS
330
DA1
102
}
102
{ACAD_XDICTIONARY
360
DA0
102
}
330
21
100
AcDbEntity
  8
文字
100
AcDbDimension
280
     0
  2
*D5
 10
113.7358089339283
 20
85.84858665368405
 30
0.0
 11
111.8608089339283
 21
123.3485866536841
 31
0.0
 70
    32
 71
     5
 42
75.00000000000001
 73
     0
 74
     0
 75
     0
  3
ISO-25
100
AcDbAlignedDimension
 13
83.12909965507049
 23
160.8485866536841
 33
0.0
 14
87.6614827580973
 24
85.84858665368407
 34
0.0
 50
90.0
100
AcDbRotatedDimension
  0
LINE
  5
DA2
102
{ACAD_REACTORS
330
DA1
102
}
330
21
100
AcDbEntity
  8
実線
370
    20
100
AcDbLine
 10
83.12909965507049
 20
160.8485866536841
 30
0.0
 11
83.12909965507048
 21
85.84858665368407
 31
0.0
  0
LINE
  5
DA3
330
21
100
AcDbEntity
  8
実線
370
    20
100
AcDbLine
 10
77.12909965507052
 20
160.8485866536841
 30
0.0
 11
77.1290996550705
 21
85.84858665368407
 31
0.0
  0
LINE
  5
DA4
330
21
100
AcDbEntity
  8
実線
370
    20
100
AcDbLine
 10
76.12909965507052
 20
159.8485866536841
 30
0.0
 11
84.12909965507049
 21
159.8485866536841
 31
0.0
  0
LWPOLYLINE
  5
DA5
330
21
100
AcDbEntity
  8
実線
100
AcDbPolyline
 90
        6
 70
     1
 43
0.0
 10
76.1290996550705
 20
85.84858665368407
 10
84.1290996550705
 20
85.84858665368407
 10
84.12909965507049
 20
159.8485866536841
 10
83.12909965507049
 20
160.8485866536841
 10
77.12909965507052
 20
160.8485866536841
 10
76.12909965507052
 20
159.8485866536841
  0
DIMENSION
  5
DA6
102
{ACAD_REACTORS
330
DA8
102
}
102
{ACAD_XDICTIONARY
360
DA7
102
}
330
21
100
AcDbEntity
  8
文字
100
AcDbDimension
280
     0
  2
*D6
 10
113.7358089339283
 20
85.84858665368405
 30
0.0
 11
117.7983089339282
 21
85.50495360427121
 31
0.0
 70
    32
 71
     5
 42
5.499766098825717
 73
     0
 74
     0
 75
     0
  3
ISO-25
100
AcDbAlignedDimension
 13
85.14533054744734
 23
80.34882055485835
 33
0.0
 14
87.66148275809729
 24
85.84858665368407
 34
0.0
 50
90.0
100
AcDbRotatedDimension
1001
ACAD
1000
DSTYLE
1002
{
1070
   279
1070
     1
1002
}
  0
DIMENSION
  5
DA9
330
21
100
AcDbEntity
  8
文字
100
AcDbDimension
280
     0
  2
*D4
 10
84.12909965507053
 20
171.4431061540682
 30
0.0
 11
80.12909965507052
 21
173.3181061540682
 31
0.0
 70
    32
  1
{\fArial|b0|i0|c0|p32;M}<>
 71
     5
 42
8.000000000000014
 73
     0
 74
     0
 75
     0
  3
ISO-25
100
AcDbAlignedDimension
 13
76.12909965507052
 23
159.2235866536841
 33
0.0
 14
84.12909965507053
 24
159.2235866536841
 34
0.0
100
AcDbRotatedDimension
  0
LINE
  5
DAA
330
21
100
AcDbEntity
  8
実線
370
    50
100
AcDbLine
 10
80.12909965507023
 20
80.34882055485835
 30
0.0
 11
85.14533054744734
 21
80.34882055485835
 31
0.0
  0
LINE
  5
DAB
330
21
100
AcDbEntity
  8
実線
370
    50
100
AcDbLine
 10
80.1290996550705
 20
80.34882055485835
 30
0.0
 11
75.1128687626937
 21
80.34882055485835
 31
0.0
  0
ARC
  5
DAC
330
21
100
AcDbEntity
  8
実線
370
    50
100
AcDbCircle
 10
85.6410049656417
 20
82.88859267337182
 30
0.0
 40
2.540462369428222
100
AcDbArc
 50
217.3146110078783
 51
322.6853889921218
  0
ARC
  5
DAD
330
21
100
AcDbEntity
  8
実線
370
    50
100
AcDbCircle
 10
80.19136639414278
 20
86.7277119620968
 30
0.0
 40
6.379195304435764
100
AcDbArc
 50
237.4827287485462
 51
302.5172712514527
  0
ARC
  5
DAE
330
21
100
AcDbEntity
  8
実線
370
    50
100
AcDbCircle
 10
74.7118441865984
 20
82.9489847733814
 30
0.0
 40
2.601010597636193
100
AcDbArc
 50
217.9736186349943
 51
322.0263813650057
  0
LINE
  5
DAF
330
21
100
AcDbEntity
  8
実線
370
    50
100
AcDbLine
 10
83.62052717318605
 20
85.84858665368407
 30
0.0
 11
83.62052717318605
 21
81.34858665368407
 31
0.0
  0
LINE
  5
DB0
330
21
100
AcDbEntity
  8
実線
370
    50
100
AcDbLine
 10
76.76220561509948
 20
85.84858665368407
 30
0.0
 11
76.76220561509948
 21
81.34858665368407
 31
0.0
  0
LWPOLYLINE
  5
DB1
102
{ACAD_REACTORS
330
DA8
330
DA1
102
}
330
21
100
AcDbEntity
  8
実線
370
    50
100
AcDbPolyline
 90
        4
 70
     0
 43
0.0
 10
87.6614827580973
 20
81.34858665368405
 10
87.6614827580973
 20
85.84858665368407
 10
72.6614827580973
 20
85.84858665368407
 10
72.6614827580973
 20
81.34858665368407
  0
CIRCLE
  5
FE9
330
21
100
AcDbEntity
  8
実線
100
AcDbCircle
 10
164.93859747448
 20
107.6697782054244
 30
0.0
 40
22.5
  0
DIMENSION
  5
1081
102
{ACAD_XDICTIONARY
360
1082
102
}
330
21
100
AcDbEntity
  8
文字
 62
     0
100
AcDbDimension
280
     0
  2
*D8
 10
179.1293391484236
 20
65.80352704621043
 30
0.0
 11
165.1275176998024
 21
67.67852704621043
 31
0.0
 70
    32
  1
%%c<>
 71
     5
 42
28.00364289724251
 73
     0
 74
     0
 75
     0
  3
ISO-25
100
AcDbAlignedDimension
 13
151.1256962511811
 23
107.4446705222547
 33
0.0
 14
179.1293391484236
 24
107.6116461040749
 34
0.0
100
AcDbRotatedDimension
1001
ACAD
1000
DSTYLE
1002
{
1070
    77
1070
     1
1002
}
  0
ARC
  5
1180
330
21
100
AcDbEntity
  8
実線
370
    50
100
AcDbCircle
 10
79.62555309025873
 20
67.94450148563573
 30
0.0
 40
13.24316634049441
100
AcDbArc
 50
109.7295435093523
 51
170.0035449917054
  0
ARC
  5
1181
330
21
100
AcDbEntity
  8
実線
370
    50
100
AcDbCircle
 10
80.71674106275168
 20
67.94450148563568
 30
0.0
 40
13.24316634049445
100
AcDbArc
 50
9.99645500829481
 51
70.27045649064762
  0
LINE
  5
1182
330
21
100
AcDbEntity
  8
中心線
100
AcDbLine
 10
80.1711470765052
 20
56.91001507009379
 30
0.0
 11
80.17114707650519
 21
165.5290421676535
 31
0.0
  0
LWPOLYLINE
  5
1183
102
{ACAD_REACTORS
330
1188
330
118B
102
}
330
21
100
AcDbEntity
  8
実線
100
AcDbPolyline
 90
        4
 70
     1
 43
0.0
 10
57.67161828066853
 20
64.24334625276059
 10
102.6716182806686
 20
64.24334625276059
 10
102.6716182806686
 20
70.24334625276059
 10
57.67161828066853
 20
70.24334625276059
  0
DIMENSION
  5
1184
102
{ACAD_XDICTIONARY
360
1185
102
}
330
21
100
AcDbEntity
  8
文字
100
AcDbDimension
280
     0
  2
*D12
 10
113.7358089339283
 20
64.40672705095717
 30
0.0
 11
111.8608089339283
 21
72.40848801111264
 31
0.0
 70
    32
 71
     5
 42
16.00352192031092
 73
     0
 74
     0
 75
     0
  3
ISO-25
100
AcDbAlignedDimension
 13
90.5961470765052
 23
80.41024897126809
 33
0.0
 14
102.7656962455852
 24
64.40672705095717
 34
0.0
 50
90.0
100
AcDbRotatedDimension
  0
DIMENSION
  5
1186
102
{ACAD_REACTORS
330
1188
102
}
102
{ACAD_XDICTIONARY
360
1187
102
}
330
21
100
AcDbEntity
  8
文字
100
AcDbDimension
280
     0
  2
*D13
 10
41.54819117525542
 20
64.24334625276059
 30
0.0
 11
39.67319117525542
 21
67.24334625276059
 31
0.0
 70
    32
 71
     5
 42
6.0
 73
     0
 74
     0
 75
     0
  3
ISO-25
100
AcDbAlignedDimension
 13
57.67161828066853
 23
70.24334625276059
 33
0.0
 14
57.67161828066853
 24
64.24334625276059
 34
0.0
 50
90.0
100
AcDbRotatedDimension
  0
DIMENSION
  5
1189
102
{ACAD_REACTORS
330
118B
102
}
102
{ACAD_XDICTIONARY
360
118A
102
}
330
21
100
AcDbEntity
  8
文字
100
AcDbDimension
280
     0
  2
*D14
 10
102.6716182806686
 20
45.9500762225467
 30
0.0
 11
80.17161828066855
 21
47.8250762225467
 31
0.0
 70
    32
  1
%%c<>
 71
     5
 42
45.00000000000004
 73
     0
 74
     0
 75
     0
  3
ISO-25
100
AcDbAlignedDimension
 13
57.67161828066853
 23
64.24334625276059
 33
0.0
 14
102.6716182806686
 24
64.24334625276059
 34
0.0
100
AcDbRotatedDimension
  0
MTEXT
  5
118C
330
21
100
AcDbEntity
  8
文字・寸法線
 62
     0
100
AcDbMText
 10
84.104192103961
 20
183.7063209998256
 30
0.0
 40
6.0
 41
0.0
 46
6.0
 71
     9
 72
     1
  1
{\fＭＳ ゴシック|b0|i0|c0|p0;S-M2 M8X75}
 73
     1
 44
1.0
1001
ACAD
1000
ACAD_MTEXT_DEFINED_HEIGHT_BEGIN
1070
    46
1040
6.0
1000
ACAD_MTEXT_DEFINED_HEIGHT_END
  0
VIEWPORT
  5
1040
330
103C
100
AcDbEntity
 67
     1
  8
0
100
AcDbViewport
 10
203.7291666666666
 20
142.1694444444444
 30
0.0
 40
488.9499999999999
 41
341.2066666666665
 68
     1
 69
     1
 12
203.7291666666666
 22
142.1694444444444
 13
0.0
 23
0.0
 14
0.5
 24
0.5
 15
0.0
 25
0.0
 16
0.0
 26
0.0
 36
1.0
 17
0.0
 27
0.0
 37
0.0
 42
50.0
 43
0.0
 44
0.0
 45
341.2066666666665
 50
0.0
 51
0.0
 72
   100
 90
   557152
  1

281
     0
 71
     1
 74
     0
110
0.0
120
0.0
130
0.0
111
1.0
121
0.0
131
0.0
112
0.0
122
1.0
132
0.0
 79
     0
146
0.0
170
     0
 61
     5
348
FF8
292
     1
282
     1
141
0.0
142
0.0
 63
   256
361
1042
  0
VIEWPORT
  5
1041
330
103C
100
AcDbEntity
 67
     1
  8
0
100
AcDbViewport
 10
203.7291666666666
 20
142.1694444444444
 30
0.0
 40
325.9666666666666
 41
227.471111111111
 68
     2
 69
     2
 12
148.5000001180429
 22
105.0
 13
0.0
 23
0.0
 14
0.5
 24
0.5
 15
0.0
 25
0.0
 16
0.0
 26
0.0
 36
1.0
 17
0.0
 27
0.0
 37
0.0
 42
50.0
 43
0.0
 44
0.0
 45
214.2
 50
0.0
 51
0.0
 72
   100
 90
   557152
  1

281
     0
 71
     1
 74
     0
110
0.0
120
0.0
130
0.0
111
1.0
121
0.0
131
0.0
112
0.0
122
1.0
132
0.0
 79
     0
146
0.0
170
     0
 61
     5
348
FF8
292
     1
282
     1
141
0.0
142
0.0
 63
   256
  0
ENDSEC
  0
SECTION
  2
OBJECTS
  0
DICTIONARY
  5
C
330
0
100
AcDbDictionary
281
     1
  3
ACAD_COLOR
350
1C
  3
ACAD_DETAILVIEWSTYLE
350
104C
  3
ACAD_GROUP
350
D
  3
ACAD_IMAGE_VARS
350
1035
  3
ACAD_LAYOUT
350
1A
  3
ACAD_MATERIAL
350
1B
  3
ACAD_MLEADERSTYLE
350
1049
  3
ACAD_MLINESTYLE
350
17
  3
ACAD_PLOTSETTINGS
350
19
  3
ACAD_PLOTSTYLENAME
350
E
  3
ACAD_SCALELIST
350
100C
  3
ACAD_SECTIONVIEWSTYLE
350
104D
  3
ACAD_TABLESTYLE
350
1031
  3
ACAD_VISUALSTYLE
350
FF3
  3
AcadDim
350
7AD
  3
ACDB_RECOMPOSE_DATA
350
11B8
  3
AcDbVariableDictionary
350
1043
  3
APPDATA
350
1033
  0
SUN
  5
1034
330
FF2
100
AcDbSun
 90
        1
290
     0
 63
     7
421
 16777215
 40
1.0
291
     1
 91
  2455826
 92
 54000000
292
     0
 70
     2
 71
   256
280
     1
  0
DICTIONARY
  5
7A2
330
795
100
AcDbDictionary
280
     1
281
     1
  3
ACAD_DIMASSOC
360
7AC
  0
DICTIONARY
  5
DA0
330
D9F
100
AcDbDictionary
280
     1
281
     1
  3
ACAD_DIMASSOC
360
DA1
  0
DICTIONARY
  5
DA7
330
DA6
100
AcDbDictionary
280
     1
281
     1
  3
ACAD_DIMASSOC
360
DA8
  0
DICTIONARY
  5
1082
330
1081
100
AcDbDictionary
280
     1
281
     1
  0
DICTIONARY
  5
1185
330
1184
100
AcDbDictionary
280
     1
281
     1
  0
DICTIONARY
  5
1187
330
1186
100
AcDbDictionary
280
     1
281
     1
  3
ACAD_DIMASSOC
360
1188
  0
DICTIONARY
  5
118A
330
1189
100
AcDbDictionary
280
     1
281
     1
  3
ACAD_DIMASSOC
360
118B
  0
SUN
  5
1042
330
1040
100
AcDbSun
 90
        1
290
     0
 63
     7
421
 16777215
 40
1.0
291
     1
 91
  2455826
 92
 54000000
292
     0
 70
     2
 71
   256
280
     1
  0
DICTIONARY
  5
1C
102
{ACAD_REACTORS
330
C
102
}
330
C
100
AcDbDictionary
281
     1
  0
DICTIONARY
  5
104C
102
{ACAD_REACTORS
330
C
102
}
330
C
100
AcDbDictionary
281
     1
  0
DICTIONARY
  5
D
102
{ACAD_REACTORS
330
C
102
}
330
C
100
AcDbDictionary
281
     1
  0
RASTERVARIABLES
  5
1035
102
{ACAD_REACTORS
330
C
102
}
330
C
100
AcDbRasterVariables
 90
        0
 70
     1
 71
     1
 72
     1
  0
DICTIONARY
  5
1A
102
{ACAD_REACTORS
330
C
102
}
330
C
100
AcDbDictionary
281
     1
  3
Model
350
24
  3
Sheet1
350
103D
  0
DICTIONARY
  5
1B
102
{ACAD_REACTORS
330
C
102
}
330
C
100
AcDbDictionary
281
     1
  3
ByBlock
350
102F
  3
ByLayer
350
102E
  3
Global
350
1030
  0
DICTIONARY
  5
1049
102
{ACAD_REACTORS
330
C
102
}
330
C
100
AcDbDictionary
281
     1
  0
DICTIONARY
  5
17
102
{ACAD_REACTORS
330
C
102
}
330
C
100
AcDbDictionary
281
     1
  3
Standard
350
18
  0
DICTIONARY
  5
19
102
{ACAD_REACTORS
330
C
102
}
330
C
100
AcDbDictionary
281
     1
  0
ACDBDICTIONARYWDFLT
  5
E
102
{ACAD_REACTORS
330
C
102
}
330
C
100
AcDbDictionary
281
     1
  3
Normal
350
F
100
AcDbDictionaryWithDefault
340
F
  0
DICTIONARY
  5
100C
102
{ACAD_REACTORS
330
C
102
}
330
C
100
AcDbDictionary
281
     1
  3
A0
350
100D
  3
A1
350
100E
  3
A2
350
100F
  3
A3
350
1010
  3
A4
350
1011
  3
A5
350
1012
  3
A6
350
1013
  3
A7
350
1014
  3
A8
350
1015
  3
A9
350
1016
  3
B0
350
1017
  3
B1
350
1018
  3
B2
350
1019
  3
B3
350
101A
  3
B4
350
101B
  3
B5
350
101C
  3
B6
350
101D
  3
B7
350
101E
  3
B8
350
101F
  3
B9
350
1020
  3
C0
350
1021
  3
C1
350
1022
  3
C2
350
1023
  3
C3
350
1024
  3
C4
350
1025
  3
C5
350
1026
  3
C6
350
1027
  3
C7
350
1028
  3
C8
350
1029
  3
C9
350
102A
  3
D0
350
102B
  3
D1
350
102C
  3
D2
350
102D
  0
DICTIONARY
  5
104D
102
{ACAD_REACTORS
330
C
102
}
330
C
100
AcDbDictionary
281
     1
  0
DICTIONARY
  5
1031
102
{ACAD_REACTORS
330
C
102
}
330
C
100
AcDbDictionary
281
     1
  3
Standard
350
1032
  0
DICTIONARY
  5
FF3
102
{ACAD_REACTORS
330
C
102
}
330
C
100
AcDbDictionary
281
     1
  3
2dWireframe
350
FF8
  3
Basic
350
FFB
  3
Brighten
350
FFF
  3
ColorChange
350
1003
  3
Conceptual
350
FFD
  3
Dim
350
FFE
  3
EdgeColorOff
350
1006
  3
Facepattern
350
1002
  3
Flat
350
FF4
  3
FlatWithEdges
350
FF5
  3
Gouraud
350
FF6
  3
GouraudWithEdges
350
FF7
  3
Hidden
350
FFA
  3
JitterOff
350
1004
  3
Linepattern
350
1001
  3
OverhangOff
350
1005
  3
Realistic
350
FFC
  3
Shaded
350
100B
  3
Shaded with edges
350
100A
  3
Shades of Gray
350
1007
  3
Sketchy
350
1008
  3
Thicken
350
1000
  3
Wireframe
350
FF9
  3
X-Ray
350
1009
  0
XRECORD
  5
7AD
102
{ACAD_REACTORS
330
C
102
}
330
C
100
AcDbXrecord
280
     1
 90
   990106
  3

 60
     0
 61
     0
 62
     4
 63
     4
 64
     1
 65
     0
 66
     0
 67
     3
 68
     1
 69
     0
 70
     0
 71
     0
 72
     0
 40
0.0
170
     2
340
0
  0
XRECORD
  5
11B8
102
{ACAD_REACTORS
330
C
102
}
330
C
100
AcDbXrecord
280
     1
 90
        1
330
1032
  0
DICTIONARY
  5
1043
102
{ACAD_REACTORS
330
C
102
}
330
C
100
AcDbDictionary
281
     1
  3
CANNOSCALE
350
1044
  3
CTABLESTYLE
350
1048
  3
MSLTSCALE
350
104A
  3
XCLIPFRAME
350
104B
  0
DICTIONARY
  5
1033
102
{ACAD_REACTORS
330
C
102
}
330
C
100
AcDbDictionary
281
     1
  0
DIMASSOC
  5
7AC
102
{ACAD_REACTORS
330
7A2
102
}
330
7A2
100
AcDbDimAssoc
330
795
 90
        3
 70
     0
 71
     0
  1
AcDbOsnapPointRef
 72
     2
331
6FE
 73
     2
 91
        3
 40
0.5
 10
0.0
 20
0.0
 30
0.0
 75
     0
  1
AcDbOsnapPointRef
 72
     6
331
6FE
 73
     2
 91
        6
 40
0.5000000000000038
 10
0.0
 20
0.0
 30
0.0
332
672
 74
     2
 92
        0
 75
     0
  0
DIMASSOC
  5
DA1
102
{ACAD_REACTORS
330
DA0
102
}
330
DA0
100
AcDbDimAssoc
330
D9F
 90
        3
 70
     0
 71
     0
  1
AcDbOsnapPointRef
 72
    13
331
DA2
 73
     2
 91
        0
 40
0.0
 10
0.0
 20
0.0
 30
2.000000000000000E+50
 75
     0
  1
AcDbOsnapPointRef
 72
     1
331
DB1
 73
     2
 91
        1
 40
1.0
 10
0.0
 20
0.0
 30
2.000000000000000E+50
 75
     0
  0
DIMASSOC
  5
DA8
102
{ACAD_REACTORS
330
DA7
102
}
330
DA7
100
AcDbDimAssoc
330
DA6
 90
        2
 70
     0
 71
     0
  1
AcDbOsnapPointRef
 72
     1
331
DB1
 73
     2
 91
        1
 40
1.0
 10
0.0
 20
0.0
 30
2.000000000000000E+50
 75
     0
  0
DIMASSOC
  5
1188
102
{ACAD_REACTORS
330
1187
102
}
330
1187
100
AcDbDimAssoc
330
1186
 90
        3
 70
     0
 71
     0
  1
AcDbOsnapPointRef
 72
     1
331
1183
 73
     2
 91
        3
 40
1.0
 10
0.0
 20
0.0
 30
2.000000000000000E+50
 75
     0
  1
AcDbOsnapPointRef
 72
    13
331
1183
 73
     2
 91
        1
 40
0.0
 10
0.0
 20
0.0
 30
2.000000000000000E+50
 75
     0
  0
DIMASSOC
  5
118B
102
{ACAD_REACTORS
330
118A
102
}
330
118A
100
AcDbDimAssoc
330
1189
 90
        3
 70
     0
 71
     0
  1
AcDbOsnapPointRef
 72
    13
331
1183
 73
     2
 91
        1
 40
0.0
 10
0.0
 20
0.0
 30
2.000000000000000E+50
 75
     0
  1
AcDbOsnapPointRef
 72
     1
331
1183
 73
     2
 91
        1
 40
1.0
 10
0.0
 20
0.0
 30
2.000000000000000E+50
 75
     0
  0
LAYOUT
  5
24
102
{ACAD_REACTORS
330
1A
102
}
330
1A
100
AcDbPlotSettings
  1

  2
\\SF05\Brother HL-1440 series
  4
A4
  6

 40
6.72041654586792
 41
5.027085304260254
 42
6.889755249023438
 43
5.027069091796875
 44
209.9733276367188
 45
296.9259948730469
 46
3.18
 47
4.94
 48
10.0
 49
10.00000018588798
140
287.0000002360858
141
200.000000185888
142
1.0
143
1.0
 70
 11956
 72
     1
 73
     1
 74
     4
  7

 75
    16
 76
     0
 77
     2
 78
   300
147
1.0
148
-10.0
149
-10.00000018588798
100
AcDbLayout
  1
Model
 70
     1
 71
     0
 10
0.0
 20
0.0
 11
12.0
 21
9.0
 12
0.0
 22
0.0
 32
0.0
 14
38.42319117525541
 24
44.7000762225467
 34
0.0
 15
195.1685662381319
 25
189.7063209998256
 35
0.0
146
0.0
 13
0.0
 23
0.0
 33
0.0
 16
1.0
 26
0.0
 36
0.0
 17
0.0
 27
1.0
 37
0.0
 76
     0
330
21
331
FF2
  0
LAYOUT
  5
103D
102
{ACAD_REACTORS
330
1A
102
}
330
1A
100
AcDbPlotSettings
  1

  2
none_device
  4
iso-a3
  6

 40
6.35
 41
6.35
 42
6.35
 43
6.35
 44
297.0388888888888
 45
420.1583333333333
 46
0.0
 47
0.0
 48
0.0
 49
0.0
140
0.0
141
0.0
142
1.0
143
1.0
 70
   688
 72
     1
 73
     1
 74
     5
  7

 75
    16
 76
     0
 77
     2
 78
   300
147
1.0
148
0.0
149
0.0
100
AcDbLayout
  1
Sheet1
 70
     1
 71
     1
 10
0.0
 20
0.0
 11
0.0
 21
0.0
 12
0.0
 22
0.0
 32
0.0
 14
0.0
 24
0.0
 34
0.0
 15
0.0
 25
0.0
 35
0.0
146
0.0
 13
0.0
 23
0.0
 33
0.0
 16
1.0
 26
0.0
 36
0.0
 17
0.0
 27
1.0
 37
0.0
 76
     0
330
103C
331
1040
  0
MATERIAL
  5
102F
102
{ACAD_REACTORS
330
1B
102
}
330
1B
100
AcDbMaterial
  1
ByBlock
 72
     1
 94
      127
  0
MATERIAL
  5
102E
102
{ACAD_REACTORS
330
1B
102
}
330
1B
100
AcDbMaterial
  1
ByLayer
 72
     1
 94
      127
  0
MATERIAL
  5
1030
102
{ACAD_REACTORS
330
1B
102
}
330
1B
100
AcDbMaterial
  1
Global
 72
     1
 94
      127
  0
MLINESTYLE
  5
18
102
{ACAD_REACTORS
330
17
102
}
330
17
100
AcDbMlineStyle
  2
STANDARD
 70
     0
  3

 62
   256
 51
90.0
 52
90.0
 71
     2
 49
0.5
 62
   256
  6
BYLAYER
 49
-0.5
 62
   256
  6
BYLAYER
  0
ACDBPLACEHOLDER
  5
F
102
{ACAD_REACTORS
330
E
102
}
330
E
  0
SCALE
  5
100D
102
{ACAD_REACTORS
330
100C
102
}
330
100C
100
AcDbScale
 70
     0
300
1:1
140
1.0
141
1.0
290
     1
  0
SCALE
  5
100E
102
{ACAD_REACTORS
330
100C
102
}
330
100C
100
AcDbScale
 70
     0
300
1:2
140
1.0
141
2.0
290
     0
  0
SCALE
  5
100F
102
{ACAD_REACTORS
330
100C
102
}
330
100C
100
AcDbScale
 70
     0
300
1:4
140
1.0
141
4.0
290
     0
  0
SCALE
  5
1010
102
{ACAD_REACTORS
330
100C
102
}
330
100C
100
AcDbScale
 70
     0
300
1:5
140
1.0
141
5.0
290
     0
  0
SCALE
  5
1011
102
{ACAD_REACTORS
330
100C
102
}
330
100C
100
AcDbScale
 70
     0
300
1:8
140
1.0
141
8.0
290
     0
  0
SCALE
  5
1012
102
{ACAD_REACTORS
330
100C
102
}
330
100C
100
AcDbScale
 70
     0
300
1:10
140
1.0
141
10.0
290
     0
  0
SCALE
  5
1013
102
{ACAD_REACTORS
330
100C
102
}
330
100C
100
AcDbScale
 70
     0
300
1:16
140
1.0
141
16.0
290
     0
  0
SCALE
  5
1014
102
{ACAD_REACTORS
330
100C
102
}
330
100C
100
AcDbScale
 70
     0
300
1:20
140
1.0
141
20.0
290
     0
  0
SCALE
  5
1015
102
{ACAD_REACTORS
330
100C
102
}
330
100C
100
AcDbScale
 70
     0
300
1:30
140
1.0
141
30.0
290
     0
  0
SCALE
  5
1016
102
{ACAD_REACTORS
330
100C
102
}
330
100C
100
AcDbScale
 70
     0
300
1:40
140
1.0
141
40.0
290
     0
  0
SCALE
  5
1017
102
{ACAD_REACTORS
330
100C
102
}
330
100C
100
AcDbScale
 70
     0
300
1:50
140
1.0
141
50.0
290
     0
  0
SCALE
  5
1018
102
{ACAD_REACTORS
330
100C
102
}
330
100C
100
AcDbScale
 70
     0
300
1:100
140
1.0
141
100.0
290
     0
  0
SCALE
  5
1019
102
{ACAD_REACTORS
330
100C
102
}
330
100C
100
AcDbScale
 70
     0
300
2:1
140
2.0
141
1.0
290
     0
  0
SCALE
  5
101A
102
{ACAD_REACTORS
330
100C
102
}
330
100C
100
AcDbScale
 70
     0
300
4:1
140
4.0
141
1.0
290
     0
  0
SCALE
  5
101B
102
{ACAD_REACTORS
330
100C
102
}
330
100C
100
AcDbScale
 70
     0
300
8:1
140
8.0
141
1.0
290
     0
  0
SCALE
  5
101C
102
{ACAD_REACTORS
330
100C
102
}
330
100C
100
AcDbScale
 70
     0
300
10:1
140
10.0
141
1.0
290
     0
  0
SCALE
  5
101D
102
{ACAD_REACTORS
330
100C
102
}
330
100C
100
AcDbScale
 70
     0
300
100:1
140
100.0
141
1.0
290
     0
  0
SCALE
  5
101E
102
{ACAD_REACTORS
330
100C
102
}
330
100C
100
AcDbScale
 70
     0
300
1/128" = 1'-0"
140
0.0078125
141
12.0
290
     0
  0
SCALE
  5
101F
102
{ACAD_REACTORS
330
100C
102
}
330
100C
100
AcDbScale
 70
     0
300
1/64" = 1'-0"
140
0.015625
141
12.0
290
     0
  0
SCALE
  5
1020
102
{ACAD_REACTORS
330
100C
102
}
330
100C
100
AcDbScale
 70
     0
300
1/32" = 1'-0"
140
0.03125
141
12.0
290
     0
  0
SCALE
  5
1021
102
{ACAD_REACTORS
330
100C
102
}
330
100C
100
AcDbScale
 70
     0
300
1/16" = 1'-0"
140
0.0625
141
12.0
290
     0
  0
SCALE
  5
1022
102
{ACAD_REACTORS
330
100C
102
}
330
100C
100
AcDbScale
 70
     0
300
3/32" = 1'-0"
140
0.09375
141
12.0
290
     0
  0
SCALE
  5
1023
102
{ACAD_REACTORS
330
100C
102
}
330
100C
100
AcDbScale
 70
     0
300
1/8" = 1'-0"
140
0.125
141
12.0
290
     0
  0
SCALE
  5
1024
102
{ACAD_REACTORS
330
100C
102
}
330
100C
100
AcDbScale
 70
     0
300
3/16" = 1'-0"
140
0.1875
141
12.0
290
     0
  0
SCALE
  5
1025
102
{ACAD_REACTORS
330
100C
102
}
330
100C
100
AcDbScale
 70
     0
300
1/4" = 1'-0"
140
0.25
141
12.0
290
     0
  0
SCALE
  5
1026
102
{ACAD_REACTORS
330
100C
102
}
330
100C
100
AcDbScale
 70
     0
300
3/8" = 1'-0"
140
0.375
141
12.0
290
     0
  0
SCALE
  5
1027
102
{ACAD_REACTORS
330
100C
102
}
330
100C
100
AcDbScale
 70
     0
300
1/2" = 1'-0"
140
0.5
141
12.0
290
     0
  0
SCALE
  5
1028
102
{ACAD_REACTORS
330
100C
102
}
330
100C
100
AcDbScale
 70
     0
300
3/4" = 1'-0"
140
0.75
141
12.0
290
     0
  0
SCALE
  5
1029
102
{ACAD_REACTORS
330
100C
102
}
330
100C
100
AcDbScale
 70
     0
300
1" = 1'-0"
140
1.0
141
12.0
290
     0
  0
SCALE
  5
102A
102
{ACAD_REACTORS
330
100C
102
}
330
100C
100
AcDbScale
 70
     0
300
1-1/2" = 1'-0"
140
1.5
141
12.0
290
     0
  0
SCALE
  5
102B
102
{ACAD_REACTORS
330
100C
102
}
330
100C
100
AcDbScale
 70
     0
300
3" = 1'-0"
140
3.0
141
12.0
290
     0
  0
SCALE
  5
102C
102
{ACAD_REACTORS
330
100C
102
}
330
100C
100
AcDbScale
 70
     0
300
6" = 1'-0"
140
6.0
141
12.0
290
     0
  0
SCALE
  5
102D
102
{ACAD_REACTORS
330
100C
102
}
330
100C
100
AcDbScale
 70
     0
300
1'-0" = 1'-0"
140
12.0
141
12.0
290
     0
  0
TABLESTYLE
  5
1032
102
{ACAD_REACTORS
330
1031
102
}
102
{ACAD_XDICTIONARY
360
11B6
102
}
330
1031
100
AcDbTableStyle
  3
Standard
 70
     0
 71
     0
 40
0.06
 41
0.06
280
     0
281
     0
  7
Standard
140
4.5
170
     2
 62
     0
 63
   257
283
     0
 90
        4
 91
        0
  1

274
    -2
284
     1
 64
     0
275
    -2
285
     1
 65
     0
276
    -2
286
     1
 66
     0
277
    -2
287
     1
 67
     0
278
    -2
288
     1
 68
     0
279
    -2
289
     1
 69
     0
  7
Standard
140
6.0
170
     5
 62
     0
 63
   257
283
     0
 90
        4
 91
        0
  1

274
    -2
284
     1
 64
     0
275
    -2
285
     1
 65
     0
276
    -2
286
     1
 66
     0
277
    -2
287
     1
 67
     0
278
    -2
288
     1
 68
     0
279
    -2
289
     1
 69
     0
  7
Standard
140
4.5
170
     5
 62
     0
 63
   257
283
     0
 90
        4
 91
        0
  1

274
    -2
284
     1
 64
     0
275
    -2
285
     1
 65
     0
276
    -2
286
     1
 66
     0
277
    -2
287
     1
 67
     0
278
    -2
288
     1
 68
     0
279
    -2
289
     1
 69
     0
  0
VISUALSTYLE
  5
FF8
102
{ACAD_REACTORS
330
FF3
102
}
330
FF3
100
AcDbVisualStyle
  2
2dWireframe
 70
     4
177
     3
291
     0
 70
    58
 90
        0
176
     1
 90
        2
176
     1
 90
        0
176
     1
 90
        0
176
     1
 40
0.6
176
     1
 40
30.0
176
     1
 62
     7
420
 16777215
176
     1
 90
        1
176
     1
 90
        4
176
     1
 62
     7
176
     1
 62
   257
176
     1
 90
        1
176
     1
 90
        1
176
     1
 40
1.0
176
     1
 90
        0
176
     1
 62
   257
176
     1
 40
1.0
176
     1
 90
        1
176
     1
 90
        6
176
     1
 90
        2
176
     1
 62
     7
176
     1
 90
        5
176
     1
 90
        0
176
     1
 90
        0
176
     1
290
     0
176
     1
 90
        1
176
     1
 40
0.0
176
     1
 90
        0
176
     1
290
     1
176
     1
290
     1
176
     1
290
     0
176
     1
290
     0
176
     1
290
     0
176
     1
290
     0
176
     1
290
     0
176
     1
290
     0
176
     1
290
     0
176
     1
 90
       50
176
     1
 40
0.0
176
     1
 40
1.0
176
     1
 90
        0
176
     1
 62
    18
420
        0
176
     1
 90
       50
176
     1
 90
        3
176
     1
 62
     5
420
      255
176
     1
290
     0
176
     1
 90
       50
176
     1
 90
       50
176
     1
 90
       50
176
     1
290
     0
176
     1
 90
       50
176
     1
 62
   256
176
     0
 40
1.0
176
     0
 90
        2
176
     1
  1
strokes_ogs.tif
176
     1
290
     0
176
     1
 40
1.0
176
     1
 40
1.0
176
     1
  0
VISUALSTYLE
  5
FFB
102
{ACAD_REACTORS
330
FF3
102
}
330
FF3
100
AcDbVisualStyle
  2
Basic
 70
     7
177
     3
291
     1
 70
    58
 90
        1
176
     1
 90
        0
176
     1
 90
        1
176
     1
 90
        0
176
     1
 40
0.6
176
     1
 40
30.0
176
     1
 62
     7
420
 16777215
176
     1
 90
        0
176
     1
 90
        4
176
     1
 62
     7
176
     1
 62
   257
176
     1
 90
        1
176
     1
 90
        1
176
     1
 40
1.0
176
     1
 90
        8
176
     1
 62
     7
176
     1
 40
1.0
176
     1
 90
        1
176
     1
 90
        6
176
     1
 90
        2
176
     1
 62
     7
176
     1
 90
        5
176
     1
 90
        0
176
     1
 90
        0
176
     1
290
     0
176
     1
 90
        1
176
     1
 40
0.0
176
     1
 90
        0
176
     1
290
     0
176
     1
290
     1
176
     1
290
     1
176
     1
290
     0
176
     1
290
     0
176
     1
290
     0
176
     1
290
     0
176
     1
290
     0
176
     1
290
     0
176
     1
 90
       50
176
     1
 40
0.0
176
     1
 40
1.0
176
     1
 90
        0
176
     1
 62
    18
420
        0
176
     1
 90
       50
176
     1
 90
        3
176
     1
 62
     5
420
      255
176
     1
290
     0
176
     1
 90
       50
176
     1
 90
       50
176
     1
 90
       50
176
     1
290
     0
176
     1
 90
       50
176
     1
 62
   256
176
     0
 40
1.0
176
     0
 90
        2
176
     1
  1
strokes_ogs.tif
176
     1
290
     0
176
     1
 40
1.0
176
     1
 40
1.0
176
     1
  0
VISUALSTYLE
  5
FFF
102
{ACAD_REACTORS
330
FF3
102
}
330
FF3
100
AcDbVisualStyle
  2
Brighten
 70
    12
177
     3
291
     1
 70
    58
 90
        2
176
     1
 90
        2
176
     1
 90
        0
176
     1
 90
        0
176
     1
 40
0.6
176
     1
 40
30.0
176
     1
 62
     7
420
 16777215
176
     1
 90
        1
176
     1
 90
        4
176
     1
 62
     7
176
     1
 62
   257
176
     1
 90
        1
176
     1
 90
        1
176
     1
 40
1.0
176
     1
 90
        8
176
     1
 62
     7
176
     1
 40
1.0
176
     1
 90
        1
176
     1
 90
        6
176
     1
 90
        2
176
     1
 62
     7
176
     1
 90
        5
176
     1
 90
        0
176
     1
 90
        0
176
     1
290
     0
176
     1
 90
        1
176
     1
 40
50.0
176
     1
 90
        0
176
     1
290
     0
176
     1
290
     1
176
     1
290
     1
176
     1
290
     0
176
     1
290
     0
176
     1
290
     0
176
     1
290
     0
176
     1
290
     0
176
     1
290
     0
176
     1
 90
       50
176
     1
 40
0.0
176
     1
 40
1.0
176
     1
 90
        0
176
     1
 62
    18
420
        0
176
     1
 90
       50
176
     1
 90
        3
176
     1
 62
     5
420
      255
176
     1
290
     0
176
     1
 90
       50
176
     1
 90
       50
176
     1
 90
       50
176
     1
290
     0
176
     1
 90
       50
176
     1
 62
   256
176
     0
 40
1.0
176
     0
 90
        2
176
     1
  1
strokes_ogs.tif
176
     1
290
     0
176
     1
 40
1.0
176
     1
 40
1.0
176
     1
  0
VISUALSTYLE
  5
1003
102
{ACAD_REACTORS
330
FF3
102
}
330
FF3
100
AcDbVisualStyle
  2
ColorChange
 70
    16
177
     3
291
     1
 70
    58
 90
        2
176
     1
 90
        2
176
     1
 90
        3
176
     1
 90
        0
176
     1
 40
0.6
176
     1
 40
30.0
176
     1
 62
     8
420
  8421504
176
     1
 90
        1
176
     1
 90
        4
176
     1
 62
     7
176
     1
 62
   257
176
     1
 90
        1
176
     1
 90
        1
176
     1
 40
1.0
176
     1
 90
        8
176
     1
 62
     8
420
  8421504
176
     1
 40
1.0
176
     1
 90
        1
176
     1
 90
        6
176
     1
 90
        2
176
     1
 62
     7
176
     1
 90
        5
176
     1
 90
        0
176
     1
 90
        0
176
     1
290
     0
176
     1
 90
        1
176
     1
 40
0.0
176
     1
 90
        0
176
     1
290
     0
176
     1
290
     1
176
     1
290
     1
176
     1
290
     0
176
     1
290
     0
176
     1
290
     0
176
     1
290
     0
176
     1
290
     0
176
     1
290
     0
176
     1
 90
       50
176
     1
 40
0.0
176
     1
 40
1.0
176
     1
 90
        0
176
     1
 62
    18
420
        0
176
     1
 90
       50
176
     1
 90
        3
176
     1
 62
     5
420
      255
176
     1
290
     0
176
     1
 90
       50
176
     1
 90
       50
176
     1
 90
       50
176
     1
290
     0
176
     1
 90
       50
176
     1
 62
   256
176
     0
 40
1.0
176
     0
 90
        2
176
     1
  1
strokes_ogs.tif
176
     1
290
     0
176
     1
 40
1.0
176
     1
 40
1.0
176
     1
  0
VISUALSTYLE
  5
FFD
102
{ACAD_REACTORS
330
FF3
102
}
330
FF3
100
AcDbVisualStyle
  2
Conceptual
 70
     9
177
     3
291
     0
 70
    58
 90
        3
176
     1
 90
        2
176
     1
 90
        0
176
     1
 90
        0
176
     1
 40
0.6
176
     1
 40
30.0
176
     1
 62
     7
420
 16777215
176
     1
 90
        2
176
     1
 90
        2
176
     1
 62
     7
176
     1
 62
   257
176
     1
 90
        1
176
     1
 90
        1
176
     1
 40
179.0
176
     1
 90
        8
176
     1
 62
     7
176
     1
 40
1.0
176
     1
 90
        1
176
     1
 90
        6
176
     1
 90
        2
176
     1
 62
     7
176
     1
 90
        3
176
     1
 90
        0
176
     1
 90
        0
176
     1
290
     0
176
     1
 90
        1
176
     1
 40
0.0
176
     1
 90
        0
176
     1
290
     0
176
     1
290
     1
176
     1
290
     1
176
     1
290
     0
176
     1
290
     0
176
     1
290
     0
176
     1
290
     0
176
     1
290
     0
176
     1
290
     0
176
     1
 90
       50
176
     1
 40
0.0
176
     1
 40
1.0
176
     1
 90
        0
176
     1
 62
    18
420
        0
176
     1
 90
       50
176
     1
 90
        3
176
     1
 62
     5
420
      255
176
     1
290
     0
176
     1
 90
       50
176
     1
 90
       50
176
     1
 90
       50
176
     1
290
     0
176
     1
 90
       50
176
     1
 62
   256
176
     0
 40
1.0
176
     0
 90
        2
176
     1
  1
strokes_ogs.tif
176
     1
290
     0
176
     1
 40
1.0
176
     1
 40
1.0
176
     1
  0
VISUALSTYLE
  5
FFE
102
{ACAD_REACTORS
330
FF3
102
}
330
FF3
100
AcDbVisualStyle
  2
Dim
 70
    11
177
     3
291
     1
 70
    58
 90
        2
176
     1
 90
        2
176
     1
 90
        0
176
     1
 90
        0
176
     1
 40
0.6
176
     1
 40
30.0
176
     1
 62
     7
420
 16777215
176
     1
 90
        1
176
     1
 90
        4
176
     1
 62
     7
176
     1
 62
   257
176
     1
 90
        1
176
     1
 90
        1
176
     1
 40
1.0
176
     1
 90
        8
176
     1
 62
     7
176
     1
 40
1.0
176
     1
 90
        1
176
     1
 90
        6
176
     1
 90
        2
176
     1
 62
     7
176
     1
 90
        5
176
     1
 90
        0
176
     1
 90
        0
176
     1
290
     0
176
     1
 90
        1
176
     1
 40
-50.0
176
     1
 90
        0
176
     1
290
     0
176
     1
290
     1
176
     1
290
     1
176
     1
290
     0
176
     1
290
     0
176
     1
290
     0
176
     1
290
     0
176
     1
290
     0
176
     1
290
     0
176
     1
 90
       50
176
     1
 40
0.0
176
     1
 40
1.0
176
     1
 90
        0
176
     1
 62
    18
420
        0
176
     1
 90
       50
176
     1
 90
        3
176
     1
 62
     5
420
      255
176
     1
290
     0
176
     1
 90
       50
176
     1
 90
       50
176
     1
 90
       50
176
     1
290
     0
176
     1
 90
       50
176
     1
 62
   256
176
     0
 40
1.0
176
     0
 90
        2
176
     1
  1
strokes_ogs.tif
176
     1
290
     0
176
     1
 40
1.0
176
     1
 40
1.0
176
     1
  0
VISUALSTYLE
  5
1006
102
{ACAD_REACTORS
330
FF3
102
}
330
FF3
100
AcDbVisualStyle
  2
EdgeColorOff
 70
    22
177
     3
291
     1
 70
    58
 90
        2
176
     0
 90
        2
176
     0
 90
        0
176
     0
 90
        0
176
     0
 40
0.6
176
     0
 40
30.0
176
     0
 62
     7
420
 16777215
176
     0
 90
        1
176
     0
 90
        4
176
     0
 62
     7
176
     0
 62
   257
176
     0
 90
        1
176
     0
 90
        1
176
     0
 40
1.0
176
     0
 90
        8
176
     2
 62
     7
176
     0
 40
1.0
176
     0
 90
        1
176
     0
 90
        6
176
     0
 90
        2
176
     0
 62
     7
176
     0
 90
        5
176
     0
 90
        0
176
     0
 90
        0
176
     0
290
     0
176
     0
 90
        1
176
     0
 40
0.0
176
     0
 90
        0
176
     0
290
     0
176
     0
290
     1
176
     0
290
     1
176
     0
290
     0
176
     0
290
     0
176
     0
290
     0
176
     0
290
     0
176
     0
290
     0
176
     0
290
     0
176
     0
 90
       50
176
     0
 40
0.0
176
     0
 40
1.0
176
     0
 90
        0
176
     0
 62
    18
420
        0
176
     0
 90
       50
176
     0
 90
        3
176
     0
 62
     5
420
      255
176
     0
290
     0
176
     0
 90
       50
176
     0
 90
       50
176
     0
 90
       50
176
     0
290
     0
176
     0
 90
       50
176
     0
 62
   256
176
     0
 40
1.0
176
     0
 90
        2
176
     0
  1
strokes_ogs.tif
176
     0
290
     0
176
     0
 40
1.0
176
     0
 40
1.0
176
     0
  0
VISUALSTYLE
  5
1002
102
{ACAD_REACTORS
330
FF3
102
}
330
FF3
100
AcDbVisualStyle
  2
Facepattern
 70
    15
177
     3
291
     1
 70
    58
 90
        2
176
     1
 90
        2
176
     1
 90
        0
176
     1
 90
        0
176
     1
 40
0.6
176
     1
 40
30.0
176
     1
 62
     7
420
 16777215
176
     1
 90
        1
176
     1
 90
        4
176
     1
 62
     7
176
     1
 62
   257
176
     1
 90
        1
176
     1
 90
        1
176
     1
 40
1.0
176
     1
 90
        8
176
     1
 62
     7
176
     1
 40
1.0
176
     1
 90
        1
176
     1
 90
        6
176
     1
 90
        2
176
     1
 62
     7
176
     1
 90
        5
176
     1
 90
        0
176
     1
 90
        0
176
     1
290
     0
176
     1
 90
        1
176
     1
 40
0.0
176
     1
 90
        0
176
     1
290
     0
176
     1
290
     1
176
     1
290
     1
176
     1
290
     0
176
     1
290
     0
176
     1
290
     0
176
     1
290
     0
176
     1
290
     0
176
     1
290
     0
176
     1
 90
       50
176
     1
 40
0.0
176
     1
 40
1.0
176
     1
 90
        0
176
     1
 62
    18
420
        0
176
     1
 90
       50
176
     1
 90
        3
176
     1
 62
     5
420
      255
176
     1
290
     0
176
     1
 90
       50
176
     1
 90
       50
176
     1
 90
       50
176
     1
290
     0
176
     1
 90
       50
176
     1
 62
   256
176
     0
 40
1.0
176
     0
 90
        2
176
     1
  1
strokes_ogs.tif
176
     1
290
     0
176
     1
 40
1.0
176
     1
 40
1.0
176
     1
  0
VISUALSTYLE
  5
FF4
102
{ACAD_REACTORS
330
FF3
102
}
330
FF3
100
AcDbVisualStyle
  2
Flat
 70
     0
177
     3
291
     1
 70
    58
 90
        2
176
     1
 90
        1
176
     1
 90
        1
176
     1
 90
        2
176
     1
 40
0.6
176
     1
 40
30.0
176
     1
 62
     7
420
 16777215
176
     1
 90
        0
176
     1
 90
        0
176
     1
 62
     7
176
     1
 62
   257
176
     1
 90
        1
176
     1
 90
        1
176
     1
 40
1.0
176
     1
 90
        8
176
     1
 62
     7
176
     1
 40
1.0
176
     1
 90
        1
176
     1
 90
        6
176
     1
 90
        2
176
     1
 62
     7
176
     1
 90
        5
176
     1
 90
        0
176
     1
 90
        0
176
     1
290
     0
176
     1
 90
       13
176
     1
 40
0.0
176
     1
 90
        0
176
     1
290
     0
176
     1
290
     1
176
     1
290
     1
176
     1
290
     0
176
     1
290
     0
176
     1
290
     0
176
     1
290
     0
176
     1
290
     0
176
     1
290
     0
176
     1
 90
       50
176
     1
 40
0.0
176
     1
 40
1.0
176
     1
 90
        0
176
     1
 62
    18
420
        0
176
     1
 90
       50
176
     1
 90
        3
176
     1
 62
     5
420
      255
176
     1
290
     0
176
     1
 90
       50
176
     1
 90
       50
176
     1
 90
       50
176
     1
290
     0
176
     1
 90
       50
176
     1
 62
   256
176
     0
 40
1.0
176
     0
 90
        2
176
     1
  1
strokes_ogs.tif
176
     1
290
     0
176
     1
 40
1.0
176
     1
 40
1.0
176
     1
  0
VISUALSTYLE
  5
FF5
102
{ACAD_REACTORS
330
FF3
102
}
330
FF3
100
AcDbVisualStyle
  2
FlatWithEdges
 70
     1
177
     3
291
     1
 70
    58
 90
        2
176
     1
 90
        1
176
     1
 90
        1
176
     1
 90
        2
176
     1
 40
0.6
176
     1
 40
30.0
176
     1
 62
     7
420
 16777215
176
     1
 90
        1
176
     1
 90
        0
176
     1
 62
     7
176
     1
 62
   257
176
     1
 90
        1
176
     1
 90
        1
176
     1
 40
1.0
176
     1
 90
        0
176
     1
 62
   257
176
     1
 40
1.0
176
     1
 90
        1
176
     1
 90
        6
176
     1
 90
        2
176
     1
 62
     7
176
     1
 90
        5
176
     1
 90
        0
176
     1
 90
        0
176
     1
290
     0
176
     1
 90
       13
176
     1
 40
0.0
176
     1
 90
        0
176
     1
290
     0
176
     1
290
     1
176
     1
290
     1
176
     1
290
     0
176
     1
290
     0
176
     1
290
     0
176
     1
290
     0
176
     1
290
     0
176
     1
290
     0
176
     1
 90
       50
176
     1
 40
0.0
176
     1
 40
1.0
176
     1
 90
        0
176
     1
 62
    18
420
        0
176
     1
 90
       50
176
     1
 90
        3
176
     1
 62
     5
420
      255
176
     1
290
     0
176
     1
 90
       50
176
     1
 90
       50
176
     1
 90
       50
176
     1
290
     0
176
     1
 90
       50
176
     1
 62
   256
176
     0
 40
1.0
176
     0
 90
        2
176
     1
  1
strokes_ogs.tif
176
     1
290
     0
176
     1
 40
1.0
176
     1
 40
1.0
176
     1
  0
VISUALSTYLE
  5
FF6
102
{ACAD_REACTORS
330
FF3
102
}
330
FF3
100
AcDbVisualStyle
  2
Gouraud
 70
     2
177
     3
291
     1
 70
    58
 90
        2
176
     1
 90
        2
176
     1
 90
        1
176
     1
 90
        2
176
     1
 40
0.6
176
     1
 40
30.0
176
     1
 62
     7
420
 16777215
176
     1
 90
        0
176
     1
 90
        0
176
     1
 62
     7
176
     1
 62
   257
176
     1
 90
        1
176
     1
 90
        1
176
     1
 40
1.0
176
     1
 90
        0
176
     1
 62
     7
176
     1
 40
1.0
176
     1
 90
        1
176
     1
 90
        6
176
     1
 90
        2
176
     1
 62
     7
176
     1
 90
        5
176
     1
 90
        0
176
     1
 90
        0
176
     1
290
     0
176
     1
 90
       13
176
     1
 40
0.0
176
     1
 90
        0
176
     1
290
     0
176
     1
290
     1
176
     1
290
     1
176
     1
290
     0
176
     1
290
     0
176
     1
290
     0
176
     1
290
     0
176
     1
290
     0
176
     1
290
     0
176
     1
 90
       50
176
     1
 40
0.0
176
     1
 40
1.0
176
     1
 90
        0
176
     1
 62
    18
420
        0
176
     1
 90
       50
176
     1
 90
        3
176
     1
 62
     5
420
      255
176
     1
290
     0
176
     1
 90
       50
176
     1
 90
       50
176
     1
 90
       50
176
     1
290
     0
176
     1
 90
       50
176
     1
 62
   256
176
     0
 40
1.0
176
     0
 90
        2
176
     1
  1
strokes_ogs.tif
176
     1
290
     0
176
     1
 40
1.0
176
     1
 40
1.0
176
     1
  0
VISUALSTYLE
  5
FF7
102
{ACAD_REACTORS
330
FF3
102
}
330
FF3
100
AcDbVisualStyle
  2
GouraudWithEdges
 70
     3
177
     3
291
     1
 70
    58
 90
        2
176
     1
 90
        2
176
     1
 90
        1
176
     1
 90
        2
176
     1
 40
0.6
176
     1
 40
30.0
176
     1
 62
     7
420
 16777215
176
     1
 90
        1
176
     1
 90
        0
176
     1
 62
     7
176
     1
 62
   257
176
     1
 90
        1
176
     1
 90
        1
176
     1
 40
1.0
176
     1
 90
        0
176
     1
 62
   257
176
     1
 40
1.0
176
     1
 90
        1
176
     1
 90
        6
176
     1
 90
        2
176
     1
 62
     7
176
     1
 90
        5
176
     1
 90
        0
176
     1
 90
        0
176
     1
290
     0
176
     1
 90
       13
176
     1
 40
0.0
176
     1
 90
        0
176
     1
290
     0
176
     1
290
     1
176
     1
290
     1
176
     1
290
     0
176
     1
290
     0
176
     1
290
     0
176
     1
290
     0
176
     1
290
     0
176
     1
290
     0
176
     1
 90
       50
176
     1
 40
0.0
176
     1
 40
1.0
176
     1
 90
        0
176
     1
 62
    18
420
        0
176
     1
 90
       50
176
     1
 90
        3
176
     1
 62
     5
420
      255
176
     1
290
     0
176
     1
 90
       50
176
     1
 90
       50
176
     1
 90
       50
176
     1
290
     0
176
     1
 90
       50
176
     1
 62
   256
176
     0
 40
1.0
176
     0
 90
        2
176
     1
  1
strokes_ogs.tif
176
     1
290
     0
176
     1
 40
1.0
176
     1
 40
1.0
176
     1
  0
VISUALSTYLE
  5
FFA
102
{ACAD_REACTORS
330
FF3
102
}
330
FF3
100
AcDbVisualStyle
  2
Hidden
 70
     6
177
     3
291
     0
 70
    58
 90
        1
176
     1
 90
        2
176
     1
 90
        2
176
     1
 90
        0
176
     1
 40
0.6
176
     1
 40
30.0
176
     1
 62
     7
420
 16777215
176
     1
 90
        2
176
     1
 90
        2
176
     1
 62
     7
176
     1
 62
   257
176
     1
 90
        2
176
     1
 90
        1
176
     1
 40
40.0
176
     1
 90
        0
176
     1
 62
   257
176
     1
 40
1.0
176
     1
 90
        1
176
     1
 90
        6
176
     1
 90
        2
176
     1
 62
     7
176
     1
 90
        3
176
     1
 90
        0
176
     1
 90
        0
176
     1
290
     0
176
     1
 90
        1
176
     1
 40
0.0
176
     1
 90
        0
176
     1
290
     0
176
     1
290
     1
176
     1
290
     1
176
     1
290
     0
176
     1
290
     0
176
     1
290
     0
176
     1
290
     0
176
     1
290
     0
176
     1
290
     0
176
     1
 90
       50
176
     1
 40
0.0
176
     1
 40
1.0
176
     1
 90
        0
176
     1
 62
    18
420
        0
176
     1
 90
       50
176
     1
 90
        3
176
     1
 62
     5
420
      255
176
     1
290
     0
176
     1
 90
       50
176
     1
 90
       50
176
     1
 90
       50
176
     1
290
     0
176
     1
 90
       50
176
     1
 62
   256
176
     0
 40
1.0
176
     0
 90
        2
176
     1
  1
strokes_ogs.tif
176
     1
290
     0
176
     1
 40
1.0
176
     1
 40
1.0
176
     1
  0
VISUALSTYLE
  5
1004
102
{ACAD_REACTORS
330
FF3
102
}
330
FF3
100
AcDbVisualStyle
  2
JitterOff
 70
    20
177
     3
291
     1
 70
    58
 90
        2
176
     0
 90
        2
176
     0
 90
        0
176
     0
 90
        0
176
     0
 40
0.6
176
     0
 40
30.0
176
     0
 62
     7
420
 16777215
176
     0
 90
        1
176
     0
 90
        4
176
     0
 62
     7
176
     0
 62
   257
176
     0
 90
        1
176
     0
 90
        1
176
     0
 40
1.0
176
     0
 90
       10
176
     2
 62
     7
176
     0
 40
1.0
176
     0
 90
        1
176
     0
 90
        6
176
     0
 90
        2
176
     0
 62
     7
176
     0
 90
        5
176
     0
 90
        0
176
     0
 90
        0
176
     0
290
     0
176
     0
 90
        1
176
     0
 40
0.0
176
     0
 90
        0
176
     0
290
     0
176
     0
290
     1
176
     0
290
     1
176
     0
290
     0
176
     0
290
     0
176
     0
290
     0
176
     0
290
     0
176
     0
290
     0
176
     0
290
     0
176
     0
 90
       50
176
     0
 40
0.0
176
     0
 40
1.0
176
     0
 90
        0
176
     0
 62
    18
420
        0
176
     0
 90
       50
176
     0
 90
        3
176
     0
 62
     5
420
      255
176
     0
290
     0
176
     0
 90
       50
176
     0
 90
       50
176
     0
 90
       50
176
     0
290
     0
176
     0
 90
       50
176
     0
 62
   256
176
     0
 40
1.0
176
     0
 90
        2
176
     0
  1
strokes_ogs.tif
176
     0
290
     0
176
     0
 40
1.0
176
     0
 40
1.0
176
     0
  0
VISUALSTYLE
  5
1001
102
{ACAD_REACTORS
330
FF3
102
}
330
FF3
100
AcDbVisualStyle
  2
Linepattern
 70
    14
177
     3
291
     1
 70
    58
 90
        2
176
     1
 90
        2
176
     1
 90
        0
176
     1
 90
        0
176
     1
 40
0.6
176
     1
 40
30.0
176
     1
 62
     7
420
 16777215
176
     1
 90
        1
176
     1
 90
        4
176
     1
 62
     7
176
     1
 62
   257
176
     1
 90
        7
176
     1
 90
        7
176
     1
 40
1.0
176
     1
 90
        8
176
     1
 62
     7
176
     1
 40
1.0
176
     1
 90
        1
176
     1
 90
        6
176
     1
 90
        2
176
     1
 62
     7
176
     1
 90
        5
176
     1
 90
        0
176
     1
 90
        0
176
     1
290
     0
176
     1
 90
        1
176
     1
 40
0.0
176
     1
 90
        0
176
     1
290
     0
176
     1
290
     1
176
     1
290
     1
176
     1
290
     0
176
     1
290
     0
176
     1
290
     0
176
     1
290
     0
176
     1
290
     0
176
     1
290
     0
176
     1
 90
       50
176
     1
 40
0.0
176
     1
 40
1.0
176
     1
 90
        0
176
     1
 62
    18
420
        0
176
     1
 90
       50
176
     1
 90
        3
176
     1
 62
     5
420
      255
176
     1
290
     0
176
     1
 90
       50
176
     1
 90
       50
176
     1
 90
       50
176
     1
290
     0
176
     1
 90
       50
176
     1
 62
   256
176
     0
 40
1.0
176
     0
 90
        2
176
     1
  1
strokes_ogs.tif
176
     1
290
     0
176
     1
 40
1.0
176
     1
 40
1.0
176
     1
  0
VISUALSTYLE
  5
1005
102
{ACAD_REACTORS
330
FF3
102
}
330
FF3
100
AcDbVisualStyle
  2
OverhangOff
 70
    21
177
     3
291
     1
 70
    58
 90
        2
176
     0
 90
        2
176
     0
 90
        0
176
     0
 90
        0
176
     0
 40
0.6
176
     0
 40
30.0
176
     0
 62
     7
420
 16777215
176
     0
 90
        1
176
     0
 90
        4
176
     0
 62
     7
176
     0
 62
   257
176
     0
 90
        1
176
     0
 90
        1
176
     0
 40
1.0
176
     0
 90
        9
176
     2
 62
     7
176
     0
 40
1.0
176
     0
 90
        1
176
     0
 90
        6
176
     0
 90
        2
176
     0
 62
     7
176
     0
 90
        5
176
     0
 90
        0
176
     0
 90
        0
176
     0
290
     0
176
     0
 90
        1
176
     0
 40
0.0
176
     0
 90
        0
176
     0
290
     0
176
     0
290
     1
176
     0
290
     1
176
     0
290
     0
176
     0
290
     0
176
     0
290
     0
176
     0
290
     0
176
     0
290
     0
176
     0
290
     0
176
     0
 90
       50
176
     0
 40
0.0
176
     0
 40
1.0
176
     0
 90
        0
176
     0
 62
    18
420
        0
176
     0
 90
       50
176
     0
 90
        3
176
     0
 62
     5
420
      255
176
     0
290
     0
176
     0
 90
       50
176
     0
 90
       50
176
     0
 90
       50
176
     0
290
     0
176
     0
 90
       50
176
     0
 62
   256
176
     0
 40
1.0
176
     0
 90
        2
176
     0
  1
strokes_ogs.tif
176
     0
290
     0
176
     0
 40
1.0
176
     0
 40
1.0
176
     0
  0
VISUALSTYLE
  5
FFC
102
{ACAD_REACTORS
330
FF3
102
}
330
FF3
100
AcDbVisualStyle
  2
Realistic
 70
     8
177
     3
291
     0
 70
    58
 90
        2
176
     1
 90
        3
176
     1
 90
        0
176
     1
 90
        2
176
     1
 40
0.6
176
     1
 40
30.0
176
     1
 62
     7
420
 16777215
176
     1
 90
        0
176
     1
 90
        0
176
     1
 62
     7
176
     1
 62
   257
176
     1
 90
        1
176
     1
 90
        1
176
     1
 40
1.0
176
     1
 90
        8
176
     1
 62
   257
176
     1
 40
1.0
176
     1
 90
        1
176
     1
 90
        6
176
     1
 90
        2
176
     1
 62
     7
176
     1
 90
        3
176
     1
 90
        0
176
     1
 90
        0
176
     1
290
     0
176
     1
 90
       13
176
     1
 40
0.0
176
     1
 90
        0
176
     1
290
     0
176
     1
290
     1
176
     1
290
     1
176
     1
290
     0
176
     1
290
     0
176
     1
290
     0
176
     1
290
     0
176
     1
290
     0
176
     1
290
     0
176
     1
 90
       50
176
     1
 40
0.0
176
     1
 40
1.0
176
     1
 90
        0
176
     1
 62
    18
420
        0
176
     1
 90
       50
176
     1
 90
        3
176
     1
 62
     5
420
      255
176
     1
290
     0
176
     1
 90
       50
176
     1
 90
       50
176
     1
 90
       50
176
     1
290
     0
176
     1
 90
       50
176
     1
 62
   256
176
     0
 40
1.0
176
     0
 90
        2
176
     1
  1
strokes_ogs.tif
176
     1
290
     0
176
     1
 40
1.0
176
     1
 40
1.0
176
     1
  0
VISUALSTYLE
  5
100B
102
{ACAD_REACTORS
330
FF3
102
}
330
FF3
100
AcDbVisualStyle
  2
Shaded
 70
    27
177
     3
291
     0
 70
    58
 90
        2
176
     1
 90
        2
176
     1
 90
        1
176
     1
 90
        2
176
     1
 40
0.6
176
     1
 40
30.0
176
     1
 62
     7
420
 16777215
176
     1
 90
        0
176
     1
 90
        4
176
     1
 62
     7
176
     1
 62
   257
176
     1
 90
        1
176
     1
 90
        1
176
     1
 40
1.0
176
     1
 90
        8
176
     1
 62
   257
176
     1
 40
1.0
176
     1
 90
        1
176
     1
 90
        6
176
     1
 90
        2
176
     1
 62
     8
420
  7895160
176
     1
 90
        3
176
     1
 90
        0
176
     1
 90
        0
176
     1
290
     0
176
     1
 90
        5
176
     1
 40
0.0
176
     1
 90
        0
176
     1
290
     0
176
     1
290
     1
176
     1
290
     1
176
     1
290
     0
176
     1
290
     0
176
     1
290
     0
176
     1
290
     0
176
     1
290
     0
176
     1
290
     0
176
     1
 90
       50
176
     1
 40
0.0
176
     1
 40
1.0
176
     1
 90
        0
176
     1
 62
    18
420
        0
176
     1
 90
       50
176
     1
 90
        3
176
     1
 62
     5
420
      255
176
     1
290
     0
176
     1
 90
       50
176
     1
 90
       50
176
     1
 90
       50
176
     1
290
     0
176
     1
 90
       50
176
     1
 62
   256
176
     0
 40
1.0
176
     0
 90
        2
176
     1
  1
strokes_ogs.tif
176
     1
290
     0
176
     1
 40
1.0
176
     1
 40
1.0
176
     1
  0
VISUALSTYLE
  5
100A
102
{ACAD_REACTORS
330
FF3
102
}
330
FF3
100
AcDbVisualStyle
  2
Shaded with edges
 70
    26
177
     3
291
     0
 70
    58
 90
        2
176
     1
 90
        2
176
     1
 90
        1
176
     1
 90
        2
176
     1
 40
0.6
176
     1
 40
30.0
176
     1
 62
     7
420
 16777215
176
     1
 90
        1
176
     1
 90
       10
176
     1
 62
     7
176
     1
 62
   257
176
     1
 90
        2
176
     1
 90
        1
176
     1
 40
1.0
176
     1
 90
        8
176
     1
 62
   257
176
     1
 40
1.0
176
     1
 90
        1
176
     1
 90
        6
176
     1
 90
        2
176
     1
 62
     7
176
     1
 90
        3
176
     1
 90
        0
176
     1
 90
        0
176
     1
290
     0
176
     1
 90
        5
176
     1
 40
0.0
176
     1
 90
        0
176
     1
290
     0
176
     1
290
     1
176
     1
290
     1
176
     1
290
     0
176
     1
290
     0
176
     1
290
     0
176
     1
290
     0
176
     1
290
     0
176
     1
290
     0
176
     1
 90
       50
176
     1
 40
0.0
176
     1
 40
1.0
176
     1
 90
        0
176
     1
 62
    18
420
        0
176
     1
 90
       50
176
     1
 90
        3
176
     1
 62
     5
420
      255
176
     1
290
     0
176
     1
 90
       50
176
     1
 90
       50
176
     1
 90
       50
176
     1
290
     0
176
     1
 90
       50
176
     1
 62
   256
176
     0
 40
1.0
176
     0
 90
        2
176
     1
  1
strokes_ogs.tif
176
     1
290
     0
176
     1
 40
1.0
176
     1
 40
1.0
176
     1
  0
VISUALSTYLE
  5
1007
102
{ACAD_REACTORS
330
FF3
102
}
330
FF3
100
AcDbVisualStyle
  2
Shades of Gray
 70
    23
177
     3
291
     0
 70
    58
 90
        2
176
     1
 90
        2
176
     1
 90
        3
176
     1
 90
        0
176
     1
 40
0.6
176
     1
 40
30.0
176
     1
 62
     7
420
 16777215
176
     1
 90
        2
176
     1
 90
        2
176
     1
 62
     7
176
     1
 62
     7
176
     1
 90
        1
176
     1
 90
        1
176
     1
 40
40.0
176
     1
 90
        8
176
     1
 62
     7
176
     1
 40
1.0
176
     1
 90
        1
176
     1
 90
        6
176
     1
 90
        2
176
     1
 62
     7
176
     1
 90
        3
176
     1
 90
        0
176
     1
 90
        0
176
     1
290
     0
176
     1
 90
        1
176
     1
 40
0.0
176
     1
 90
        0
176
     1
290
     0
176
     1
290
     1
176
     1
290
     1
176
     1
290
     0
176
     1
290
     0
176
     1
290
     0
176
     1
290
     0
176
     1
290
     0
176
     1
290
     0
176
     1
 90
       50
176
     1
 40
0.0
176
     1
 40
1.0
176
     1
 90
        0
176
     1
 62
    18
420
        0
176
     1
 90
       50
176
     1
 90
        3
176
     1
 62
     5
420
      255
176
     1
290
     0
176
     1
 90
       50
176
     1
 90
       50
176
     1
 90
       50
176
     1
290
     0
176
     1
 90
       50
176
     1
 62
   256
176
     0
 40
1.0
176
     0
 90
        2
176
     1
  1
strokes_ogs.tif
176
     1
290
     0
176
     1
 40
1.0
176
     1
 40
1.0
176
     1
  0
VISUALSTYLE
  5
1008
102
{ACAD_REACTORS
330
FF3
102
}
330
FF3
100
AcDbVisualStyle
  2
Sketchy
 70
    24
177
     3
291
     0
 70
    58
 90
        1
176
     1
 90
        2
176
     1
 90
        2
176
     1
 90
        0
176
     1
 40
0.6
176
     1
 40
30.0
176
     1
 62
     7
420
 16777215
176
     1
 90
        2
176
     1
 90
        2
176
     1
 62
     7
176
     1
 62
     7
176
     1
 90
        1
176
     1
 90
        1
176
     1
 40
40.0
176
     1
 90
       11
176
     1
 62
     7
176
     1
 40
1.0
176
     1
 90
        1
176
     1
 90
        6
176
     1
 90
        2
176
     1
 62
     7
176
     1
 90
        6
176
     1
 90
        0
176
     1
 90
        0
176
     1
290
     0
176
     1
 90
        1
176
     1
 40
0.0
176
     1
 90
        0
176
     1
290
     0
176
     1
290
     1
176
     1
290
     1
176
     1
290
     0
176
     1
290
     0
176
     1
290
     0
176
     1
290
     0
176
     1
290
     0
176
     1
290
     0
176
     1
 90
       50
176
     1
 40
0.0
176
     1
 40
1.0
176
     1
 90
        0
176
     1
 62
    18
420
        0
176
     1
 90
       50
176
     1
 90
        3
176
     1
 62
     5
420
      255
176
     1
290
     0
176
     1
 90
       50
176
     1
 90
       50
176
     1
 90
       50
176
     1
290
     0
176
     1
 90
       50
176
     1
 62
   256
176
     0
 40
1.0
176
     0
 90
        2
176
     1
  1
strokes_ogs.tif
176
     1
290
     0
176
     1
 40
1.0
176
     1
 40
1.0
176
     1
  0
VISUALSTYLE
  5
1000
102
{ACAD_REACTORS
330
FF3
102
}
330
FF3
100
AcDbVisualStyle
  2
Thicken
 70
    13
177
     3
291
     1
 70
    58
 90
        2
176
     1
 90
        2
176
     1
 90
        0
176
     1
 90
        0
176
     1
 40
0.6
176
     1
 40
30.0
176
     1
 62
     7
420
 16777215
176
     1
 90
        1
176
     1
 90
        4
176
     1
 62
     7
176
     1
 62
   257
176
     1
 90
        1
176
     1
 90
        1
176
     1
 40
1.0
176
     1
 90
       12
176
     1
 62
     7
176
     1
 40
1.0
176
     1
 90
        1
176
     1
 90
        6
176
     1
 90
        2
176
     1
 62
     7
176
     1
 90
        5
176
     1
 90
        0
176
     1
 90
        0
176
     1
290
     0
176
     1
 90
        1
176
     1
 40
0.0
176
     1
 90
        0
176
     1
290
     0
176
     1
290
     1
176
     1
290
     1
176
     1
290
     0
176
     1
290
     0
176
     1
290
     0
176
     1
290
     0
176
     1
290
     0
176
     1
290
     0
176
     1
 90
       50
176
     1
 40
0.0
176
     1
 40
1.0
176
     1
 90
        0
176
     1
 62
    18
420
        0
176
     1
 90
       50
176
     1
 90
        3
176
     1
 62
     5
420
      255
176
     1
290
     0
176
     1
 90
       50
176
     1
 90
       50
176
     1
 90
       50
176
     1
290
     0
176
     1
 90
       50
176
     1
 62
   256
176
     0
 40
1.0
176
     0
 90
        2
176
     1
  1
strokes_ogs.tif
176
     1
290
     0
176
     1
 40
1.0
176
     1
 40
1.0
176
     1
  0
VISUALSTYLE
  5
FF9
102
{ACAD_REACTORS
330
FF3
102
}
330
FF3
100
AcDbVisualStyle
  2
Wireframe
 70
     5
177
     3
291
     0
 70
    58
 90
        0
176
     1
 90
        2
176
     1
 90
        0
176
     1
 90
        0
176
     1
 40
0.6
176
     1
 40
30.0
176
     1
 62
     7
420
 16777215
176
     1
 90
        1
176
     1
 90
        4
176
     1
 62
     7
176
     1
 62
   257
176
     1
 90
        1
176
     1
 90
        1
176
     1
 40
1.0
176
     1
 90
        0
176
     1
 62
   257
176
     1
 40
1.0
176
     1
 90
        1
176
     1
 90
        6
176
     1
 90
        2
176
     1
 62
     7
176
     1
 90
        3
176
     1
 90
        0
176
     1
 90
        0
176
     1
290
     0
176
     1
 90
        1
176
     1
 40
0.0
176
     1
 90
        0
176
     1
290
     0
176
     1
290
     1
176
     1
290
     1
176
     1
290
     0
176
     1
290
     0
176
     1
290
     0
176
     1
290
     0
176
     1
290
     0
176
     1
290
     0
176
     1
 90
       50
176
     1
 40
0.0
176
     1
 40
1.0
176
     1
 90
        0
176
     1
 62
    18
420
        0
176
     1
 90
       50
176
     1
 90
        3
176
     1
 62
     5
420
      255
176
     1
290
     0
176
     1
 90
       50
176
     1
 90
       50
176
     1
 90
       50
176
     1
290
     0
176
     1
 90
       50
176
     1
 62
   256
176
     0
 40
1.0
176
     0
 90
        2
176
     1
  1
strokes_ogs.tif
176
     1
290
     0
176
     1
 40
1.0
176
     1
 40
1.0
176
     1
  0
VISUALSTYLE
  5
1009
102
{ACAD_REACTORS
330
FF3
102
}
330
FF3
100
AcDbVisualStyle
  2
X-Ray
 70
    25
177
     3
291
     0
 70
    58
 90
        2
176
     1
 90
        2
176
     1
 90
        1
176
     1
 90
        1
176
     1
 40
0.5
176
     1
 40
30.0
176
     1
 62
     7
420
 16777215
176
     1
 90
        1
176
     1
 90
        0
176
     1
 62
     7
176
     1
 62
   257
176
     1
 90
        1
176
     1
 90
        1
176
     1
 40
1.0
176
     1
 90
        8
176
     1
 62
     7
176
     1
 40
1.0
176
     1
 90
        1
176
     1
 90
        6
176
     1
 90
        2
176
     1
 62
     7
176
     1
 90
        3
176
     1
 90
        0
176
     1
 90
        0
176
     1
290
     0
176
     1
 90
       13
176
     1
 40
0.0
176
     1
 90
        0
176
     1
290
     0
176
     1
290
     1
176
     1
290
     1
176
     1
290
     0
176
     1
290
     0
176
     1
290
     0
176
     1
290
     0
176
     1
290
     0
176
     1
290
     0
176
     1
 90
       50
176
     1
 40
0.0
176
     1
 40
1.0
176
     1
 90
        0
176
     1
 62
    18
420
        0
176
     1
 90
       50
176
     1
 90
        3
176
     1
 62
     5
420
      255
176
     1
290
     0
176
     1
 90
       50
176
     1
 90
       50
176
     1
 90
       50
176
     1
290
     0
176
     1
 90
       50
176
     1
 62
   256
176
     0
 40
1.0
176
     0
 90
        2
176
     1
  1
strokes_ogs.tif
176
     1
290
     0
176
     1
 40
1.0
176
     1
 40
1.0
176
     1
  0
DICTIONARYVAR
  5
1044
102
{ACAD_REACTORS
330
1043
102
}
330
1043
100
DictionaryVariables
280
     0
  1
1:1
  0
DICTIONARYVAR
  5
1048
102
{ACAD_REACTORS
330
1043
102
}
330
1043
100
DictionaryVariables
280
     0
  1
Standard
  0
DICTIONARYVAR
  5
104A
102
{ACAD_REACTORS
330
1043
102
}
330
1043
100
DictionaryVariables
280
     0
  1
0
  0
DICTIONARYVAR
  5
104B
102
{ACAD_REACTORS
330
1043
102
}
330
1043
100
DictionaryVariables
280
     0
  1
0
  0
DICTIONARY
  5
11B6
330
1032
100
AcDbDictionary
280
     1
281
     1
  3
ACAD_ROUNDTRIP_2008_TABLESTYLE_CELLSTYLEMAP
360
11B7
  0
CELLSTYLEMAP
  5
11B7
102
{ACAD_REACTORS
330
11B6
102
}
330
11B6
100
AcDbCellStyleMap
 90
        3
300
CELLSTYLE
  1
TABLEFORMAT_BEGIN
 90
        5
170
     1
 91
        0
 92
        0
 62
   257
 93
        1
300
CONTENTFORMAT
  1
CONTENTFORMAT_BEGIN
 90
        0
 91
        0
 92
        4
 93
        0
300

 40
0.0
140
1.0
 94
        5
 62
     0
340
11
144
6.0
309
CONTENTFORMAT_END
171
     1
301
MARGIN
  1
CELLMARGIN_BEGIN
 40
1.5
 40
1.5
 40
1.5
 40
1.5
 40
1.5
 40
1.5
309
CELLMARGIN_END
 94
        6
 95
        1
302
GRIDFORMAT
  1
GRIDFORMAT_BEGIN
 90
        0
 91
        1
 62
     0
 92
       -2
340
14
 93
        0
 40
0.045
309
GRIDFORMAT_END
 95
        2
302
GRIDFORMAT
  1
GRIDFORMAT_BEGIN
 90
        0
 91
        1
 62
     0
 92
       -2
340
14
 93
        0
 40
0.045
309
GRIDFORMAT_END
 95
        4
302
GRIDFORMAT
  1
GRIDFORMAT_BEGIN
 90
        0
 91
        1
 62
     0
 92
       -2
340
14
 93
        0
 40
0.045
309
GRIDFORMAT_END
 95
        8
302
GRIDFORMAT
  1
GRIDFORMAT_BEGIN
 90
        0
 91
        1
 62
     0
 92
       -2
340
14
 93
        0
 40
0.045
309
GRIDFORMAT_END
 95
       16
302
GRIDFORMAT
  1
GRIDFORMAT_BEGIN
 90
        0
 91
        1
 62
     0
 92
       -2
340
14
 93
        0
 40
0.045
309
GRIDFORMAT_END
 95
       32
302
GRIDFORMAT
  1
GRIDFORMAT_BEGIN
 90
        0
 91
        1
 62
     0
 92
       -2
340
14
 93
        0
 40
0.045
309
GRIDFORMAT_END
309
TABLEFORMAT_END
  1
CELLSTYLE_BEGIN
 90
        1
 91
        1
300
_TITLE
309
CELLSTYLE_END
300
CELLSTYLE
  1
TABLEFORMAT_BEGIN
 90
        5
170
     1
 91
        0
 92
        0
 62
   257
 93
        1
300
CONTENTFORMAT
  1
CONTENTFORMAT_BEGIN
 90
        0
 91
        0
 92
        4
 93
        0
300

 40
0.0
140
1.0
 94
        5
 62
     0
340
11
144
4.5
309
CONTENTFORMAT_END
171
     1
301
MARGIN
  1
CELLMARGIN_BEGIN
 40
1.5
 40
1.5
 40
1.5
 40
1.5
 40
1.5
 40
1.5
309
CELLMARGIN_END
 94
        6
 95
        1
302
GRIDFORMAT
  1
GRIDFORMAT_BEGIN
 90
        0
 91
        1
 62
     0
 92
       -2
340
14
 93
        0
 40
0.045
309
GRIDFORMAT_END
 95
        2
302
GRIDFORMAT
  1
GRIDFORMAT_BEGIN
 90
        0
 91
        1
 62
     0
 92
       -2
340
14
 93
        0
 40
0.045
309
GRIDFORMAT_END
 95
        4
302
GRIDFORMAT
  1
GRIDFORMAT_BEGIN
 90
        0
 91
        1
 62
     0
 92
       -2
340
14
 93
        0
 40
0.045
309
GRIDFORMAT_END
 95
        8
302
GRIDFORMAT
  1
GRIDFORMAT_BEGIN
 90
        0
 91
        1
 62
     0
 92
       -2
340
14
 93
        0
 40
0.045
309
GRIDFORMAT_END
 95
       16
302
GRIDFORMAT
  1
GRIDFORMAT_BEGIN
 90
        0
 91
        1
 62
     0
 92
       -2
340
14
 93
        0
 40
0.045
309
GRIDFORMAT_END
 95
       32
302
GRIDFORMAT
  1
GRIDFORMAT_BEGIN
 90
        0
 91
        1
 62
     0
 92
       -2
340
14
 93
        0
 40
0.045
309
GRIDFORMAT_END
309
TABLEFORMAT_END
  1
CELLSTYLE_BEGIN
 90
        2
 91
        1
300
_HEADER
309
CELLSTYLE_END
300
CELLSTYLE
  1
TABLEFORMAT_BEGIN
 90
        5
170
     1
 91
        0
 92
        0
 62
   257
 93
        1
300
CONTENTFORMAT
  1
CONTENTFORMAT_BEGIN
 90
        0
 91
        0
 92
        4
 93
        0
300

 40
0.0
140
1.0
 94
        2
 62
     0
340
11
144
4.5
309
CONTENTFORMAT_END
171
     1
301
MARGIN
  1
CELLMARGIN_BEGIN
 40
1.5
 40
1.5
 40
1.5
 40
1.5
 40
1.5
 40
1.5
309
CELLMARGIN_END
 94
        6
 95
        1
302
GRIDFORMAT
  1
GRIDFORMAT_BEGIN
 90
        0
 91
        1
 62
     0
 92
       -2
340
14
 93
        0
 40
0.045
309
GRIDFORMAT_END
 95
        2
302
GRIDFORMAT
  1
GRIDFORMAT_BEGIN
 90
        0
 91
        1
 62
     0
 92
       -2
340
14
 93
        0
 40
0.045
309
GRIDFORMAT_END
 95
        4
302
GRIDFORMAT
  1
GRIDFORMAT_BEGIN
 90
        0
 91
        1
 62
     0
 92
       -2
340
14
 93
        0
 40
0.045
309
GRIDFORMAT_END
 95
        8
302
GRIDFORMAT
  1
GRIDFORMAT_BEGIN
 90
        0
 91
        1
 62
     0
 92
       -2
340
14
 93
        0
 40
0.045
309
GRIDFORMAT_END
 95
       16
302
GRIDFORMAT
  1
GRIDFORMAT_BEGIN
 90
        0
 91
        1
 62
     0
 92
       -2
340
14
 93
        0
 40
0.045
309
GRIDFORMAT_END
 95
       32
302
GRIDFORMAT
  1
GRIDFORMAT_BEGIN
 90
        0
 91
        1
 62
     0
 92
       -2
340
14
 93
        0
 40
0.045
309
GRIDFORMAT_END
309
TABLEFORMAT_END
  1
CELLSTYLE_BEGIN
 90
        3
 91
        2
300
_DATA
309
CELLSTYLE_END
  0
ENDSEC
  0
EOF
