  0
SECTION
  2
HEADER
  9
$ACADVER
  1
AC1027
  9
$ACADMAINTVER
 70
     8
  9
$DWGCODEPAGE
  3
ANSI_932
  9
$REQUIREDVERSIONS
160
                 0
  9
$LASTSAVEDBY
  1
akihiro
  9
$INSBASE
 10
0.0
 20
0.0
 30
0.0
  9
$EXTMIN
 10
64.992026069726
 20
79.29233354866169
 30
0.0
  9
$EXTMAX
 10
206.6587701137911
 20
212.2289521264346
 30
0.0
  9
$LIMMIN
 10
0.0
 20
0.0
  9
$LIMMAX
 10
420.0
 20
297.0
  9
$ORTHOMODE
 70
     0
  9
$REGENMODE
 70
     1
  9
$FILLMODE
 70
     1
  9
$QTEXTMODE
 70
     0
  9
$MIRRTEXT
 70
     0
  9
$LTSCALE
 40
0.2
  9
$ATTMODE
 70
     1
  9
$TEXTSIZE
 40
3.0
  9
$TRACEWID
 40
1.0
  9
$TEXTSTYLE
  7
Standard
  9
$CLAYER
  8
文字
  9
$CELTYPE
  6
ByLayer
  9
$CECOLOR
 62
   256
  9
$CELTSCALE
 40
1.0
  9
$DISPSILH
 70
     0
  9
$DIMSCALE
 40
1.0
  9
$DIMASZ
 40
2.5
  9
$DIMEXO
 40
0.625
  9
$DIMDLI
 40
3.75
  9
$DIMRND
 40
0.0
  9
$DIMDLE
 40
0.0
  9
$DIMEXE
 40
1.25
  9
$DIMTP
 40
0.0
  9
$DIMTM
 40
0.0
  9
$DIMTXT
 40
2.5
  9
$DIMCEN
 40
2.5
  9
$DIMTSZ
 40
0.0
  9
$DIMTOL
 70
     0
  9
$DIMLIM
 70
     0
  9
$DIMTIH
 70
     0
  9
$DIMTOH
 70
     0
  9
$DIMSE1
 70
     0
  9
$DIMSE2
 70
     0
  9
$DIMTAD
 70
     1
  9
$DIMZIN
 70
     8
  9
$DIMBLK
  1

  9
$DIMASO
 70
     1
  9
$DIMSHO
 70
     1
  9
$DIMPOST
  1

  9
$DIMAPOST
  1

  9
$DIMALT
 70
     0
  9
$DIMALTD
 70
     3
  9
$DIMALTF
 40
0.03937007874016
  9
$DIMLFAC
 40
1.0
  9
$DIMTOFL
 70
     1
  9
$DIMTVP
 40
0.0
  9
$DIMTIX
 70
     0
  9
$DIMSOXD
 70
     0
  9
$DIMSAH
 70
     0
  9
$DIMBLK1
  1

  9
$DIMBLK2
  1

  9
$DIMSTYLE
  2
ISO-25
  9
$DIMCLRD
 70
     0
  9
$DIMCLRE
 70
     0
  9
$DIMCLRT
 70
     0
  9
$DIMTFAC
 40
1.0
  9
$DIMGAP
 40
0.625
  9
$DIMJUST
 70
     0
  9
$DIMSD1
 70
     0
  9
$DIMSD2
 70
     0
  9
$DIMTOLJ
 70
     0
  9
$DIMTZIN
 70
     8
  9
$DIMALTZ
 70
     0
  9
$DIMALTTZ
 70
     0
  9
$DIMUPT
 70
     0
  9
$DIMDEC
 70
     2
  9
$DIMTDEC
 70
     2
  9
$DIMALTU
 70
     2
  9
$DIMALTTD
 70
     3
  9
$DIMTXSTY
  7
Standard
  9
$DIMAUNIT
 70
     0
  9
$DIMADEC
 70
     0
  9
$DIMALTRND
 40
0.0
  9
$DIMAZIN
 70
     0
  9
$DIMDSEP
 70
    46
  9
$DIMATFIT
 70
     3
  9
$DIMFRAC
 70
     0
  9
$DIMLDRBLK
  1

  9
$DIMLUNIT
 70
     2
  9
$DIMLWD
 70
    -2
  9
$DIMLWE
 70
    -2
  9
$DIMTMOVE
 70
     0
  9
$DIMFXL
 40
1.0
  9
$DIMFXLON
 70
     0
  9
$DIMJOGANG
 40
0.7853981633974483
  9
$DIMTFILL
 70
     0
  9
$DIMTFILLCLR
 70
     0
  9
$DIMARCSYM
 70
     0
  9
$DIMLTYPE
  6

  9
$DIMLTEX1
  6

  9
$DIMLTEX2
  6

  9
$DIMTXTDIRECTION
 70
     0
  9
$LUNITS
 70
     2
  9
$LUPREC
 70
     4
  9
$SKETCHINC
 40
1.0
  9
$FILLETRAD
 40
3.0
  9
$AUNITS
 70
     0
  9
$AUPREC
 70
     0
  9
$MENU
  1
.
  9
$ELEVATION
 40
0.0
  9
$PELEVATION
 40
0.0
  9
$THICKNESS
 40
0.0
  9
$LIMCHECK
 70
     0
  9
$CHAMFERA
 40
2.0
  9
$CHAMFERB
 40
2.0
  9
$CHAMFERC
 40
0.0
  9
$CHAMFERD
 40
0.0
  9
$SKPOLY
 70
     0
  9
$TDCREATE
 40
2452936.788310359
  9
$TDUCREATE
 40
2452936.413310359
  9
$TDUPDATE
 40
2456756.738983241
  9
$TDUUPDATE
 40
2456756.363983241
  9
$TDINDWG
 40
0.6481604051
  9
$TDUSRTIMER
 40
2456756.363760532
  9
$USRTIMER
 70
     1
  9
$ANGBASE
 50
0.0
  9
$ANGDIR
 70
     0
  9
$PDMODE
 70
     0
  9
$PDSIZE
 40
0.0
  9
$PLINEWID
 40
0.0
  9
$SPLFRAME
 70
     0
  9
$SPLINETYPE
 70
     6
  9
$SPLINESEGS
 70
     8
  9
$HANDSEED
  5
19FE
  9
$SURFTAB1
 70
     6
  9
$SURFTAB2
 70
     6
  9
$SURFTYPE
 70
     6
  9
$SURFU
 70
     6
  9
$SURFV
 70
     6
  9
$UCSBASE
  2

  9
$UCSNAME
  2

  9
$UCSORG
 10
0.0
 20
0.0
 30
0.0
  9
$UCSXDIR
 10
1.0
 20
0.0
 30
0.0
  9
$UCSYDIR
 10
0.0
 20
1.0
 30
0.0
  9
$UCSORTHOREF
  2

  9
$UCSORTHOVIEW
 70
     0
  9
$UCSORGTOP
 10
0.0
 20
0.0
 30
0.0
  9
$UCSORGBOTTOM
 10
0.0
 20
0.0
 30
0.0
  9
$UCSORGLEFT
 10
0.0
 20
0.0
 30
0.0
  9
$UCSORGRIGHT
 10
0.0
 20
0.0
 30
0.0
  9
$UCSORGFRONT
 10
0.0
 20
0.0
 30
0.0
  9
$UCSORGBACK
 10
0.0
 20
0.0
 30
0.0
  9
$PUCSBASE
  2

  9
$PUCSNAME
  2

  9
$PUCSORG
 10
0.0
 20
0.0
 30
0.0
  9
$PUCSXDIR
 10
1.0
 20
0.0
 30
0.0
  9
$PUCSYDIR
 10
0.0
 20
1.0
 30
0.0
  9
$PUCSORTHOREF
  2

  9
$PUCSORTHOVIEW
 70
     0
  9
$PUCSORGTOP
 10
0.0
 20
0.0
 30
0.0
  9
$PUCSORGBOTTOM
 10
0.0
 20
0.0
 30
0.0
  9
$PUCSORGLEFT
 10
0.0
 20
0.0
 30
0.0
  9
$PUCSORGRIGHT
 10
0.0
 20
0.0
 30
0.0
  9
$PUCSORGFRONT
 10
0.0
 20
0.0
 30
0.0
  9
$PUCSORGBACK
 10
0.0
 20
0.0
 30
0.0
  9
$USERI1
 70
     0
  9
$USERI2
 70
     0
  9
$USERI3
 70
     0
  9
$USERI4
 70
     0
  9
$USERI5
 70
     0
  9
$USERR1
 40
0.0
  9
$USERR2
 40
0.0
  9
$USERR3
 40
0.0
  9
$USERR4
 40
0.0
  9
$USERR5
 40
0.0
  9
$WORLDVIEW
 70
     1
  9
$SHADEDGE
 70
     3
  9
$SHADEDIF
 70
    70
  9
$TILEMODE
 70
     1
  9
$MAXACTVP
 70
    64
  9
$PINSBASE
 10
0.0
 20
0.0
 30
0.0
  9
$PLIMCHECK
 70
     0
  9
$PEXTMIN
 10
1.000000000000000E+20
 20
1.000000000000000E+20
 30
1.000000000000000E+20
  9
$PEXTMAX
 10
-1.000000000000000E+20
 20
-1.000000000000000E+20
 30
-1.000000000000000E+20
  9
$PLIMMIN
 10
0.0
 20
0.0
  9
$PLIMMAX
 10
0.0
 20
0.0
  9
$UNITMODE
 70
     0
  9
$VISRETAIN
 70
     1
  9
$PLINEGEN
 70
     0
  9
$PSLTSCALE
 70
     0
  9
$TREEDEPTH
 70
  3020
  9
$CMLSTYLE
  2
Standard
  9
$CMLJUST
 70
     0
  9
$CMLSCALE
 40
20.0
  9
$PROXYGRAPHICS
 70
     1
  9
$MEASUREMENT
 70
     1
  9
$CELWEIGHT
370
    -1
  9
$ENDCAPS
280
     0
  9
$JOINSTYLE
280
     0
  9
$LWDISPLAY
290
     0
  9
$INSUNITS
 70
     4
  9
$HYPERLINKBASE
  1

  9
$STYLESHEET
  1

  9
$XEDIT
290
     1
  9
$CEPSNTYPE
380
     0
  9
$PSTYLEMODE
290
     1
  9
$FINGERPRINTGUID
  2
{86E58535-AB5B-4AFE-AB1B-6758AAB7EA7D}
  9
$VERSIONGUID
  2
{3DEF5C0E-9441-48A3-9643-E2424F3F7F82}
  9
$EXTNAMES
290
     1
  9
$PSVPSCALE
 40
0.0
  9
$OLESTARTUP
290
     0
  9
$SORTENTS
280
   127
  9
$INDEXCTL
280
     0
  9
$HIDETEXT
280
     1
  9
$XCLIPFRAME
280
     0
  9
$HALOGAP
280
     0
  9
$OBSCOLOR
 70
   257
  9
$OBSLTYPE
280
     0
  9
$INTERSECTIONDISPLAY
280
     0
  9
$INTERSECTIONCOLOR
 70
   257
  9
$DIMASSOC
280
     2
  9
$PROJECTNAME
  1

  9
$CAMERADISPLAY
290
     0
  9
$LENSLENGTH
 40
50.0
  9
$CAMERAHEIGHT
 40
0.0
  9
$STEPSPERSEC
 40
2.0
  9
$STEPSIZE
 40
6.0
  9
$3DDWFPREC
 40
2.0
  9
$PSOLWIDTH
 40
0.25
  9
$PSOLHEIGHT
 40
4.0
  9
$LOFTANG1
 40
1.570796326794897
  9
$LOFTANG2
 40
1.570796326794897
  9
$LOFTMAG1
 40
0.0
  9
$LOFTMAG2
 40
0.0
  9
$LOFTPARAM
 70
     7
  9
$LOFTNORMALS
280
     1
  9
$LATITUDE
 40
37.795
  9
$LONGITUDE
 40
-122.394
  9
$NORTHDIRECTION
 40
0.0
  9
$TIMEZONE
 70
 -8000
  9
$LIGHTGLYPHDISPLAY
280
     1
  9
$TILEMODELIGHTSYNCH
280
     1
  9
$SOLIDHIST
280
     1
  9
$SHOWHIST
280
     1
  9
$DWFFRAME
280
     2
  9
$DGNFRAME
280
     2
  9
$REALWORLDSCALE
290
     1
  9
$INTERFERECOLOR
 62
   256
  9
$CSHADOW
280
     0
  9
$SHADOWPLANELOCATION
 40
0.0
  0
ENDSEC
  0
SECTION
  2
CLASSES
  0
CLASS
  1
ACDBDICTIONARYWDFLT
  2
AcDbDictionaryWithDefault
  3
ObjectDBX Classes
 90
        0
 91
        7
280
     0
281
     0
  0
CLASS
  1
DIMASSOC
  2
AcDbDimAssoc
  3
"AcDbDimAssoc|Product Desc:     AcDim ARX App For Dimension|Company:          Autodesk, Inc.|WEB Address:      www.autodesk.com"
 90
        0
 91
        5
280
     0
281
     0
  0
CLASS
  1
VISUALSTYLE
  2
AcDbVisualStyle
  3
ObjectDBX Classes
 90
     4095
 91
        7
280
     0
281
     0
  0
CLASS
  1
SCALE
  2
AcDbScale
  3
ObjectDBX Classes
 90
     1153
 91
        7
280
     0
281
     0
  0
CLASS
  1
MATERIAL
  2
AcDbMaterial
  3
ObjectDBX Classes
 90
     1153
 91
        7
280
     0
281
     0
  0
CLASS
  1
TABLESTYLE
  2
AcDbTableStyle
  3
ObjectDBX Classes
 90
     4095
 91
        7
280
     0
281
     0
  0
CLASS
  1
SUN
  2
AcDbSun
  3
SCENEOE
 90
     1153
 91
        7
280
     0
281
     0
  0
CLASS
  1
RASTERVARIABLES
  2
AcDbRasterVariables
  3
ISM
 90
        0
 91
        7
280
     0
281
     0
  0
CLASS
  1
DICTIONARYVAR
  2
AcDbDictionaryVar
  3
ObjectDBX Classes
 90
        0
 91
        5
280
     0
281
     0
  0
CLASS
  1
CELLSTYLEMAP
  2
AcDbCellStyleMap
  3
ObjectDBX Classes
 90
     1152
 91
        5
280
     0
281
     0
  0
ENDSEC
  0
SECTION
  2
TABLES
  0
TABLE
  2
VPORT
  5
8
330
0
100
AcDbSymbolTable
 70
     1
  0
VPORT
  5
161D
330
8
100
AcDbSymbolTableRecord
100
AcDbViewportTableRecord
  2
*Active
 70
     0
 10
0.0
 20
0.0
 11
1.0
 21
1.0
 12
135.8253980917586
 22
145.7606428375481
 13
0.0
 23
0.0
 14
10.0
 24
10.0
 15
10.0
 25
10.0
 16
0.0
 26
0.0
 36
1.0
 17
0.0
 27
0.0
 37
0.0
 40
135.5953509493283
 41
1.762376237623762
 42
50.0
 43
0.0
 44
0.0
 50
0.0
 51
0.0
 71
    16
 72
  1000
 73
     1
 74
     3
 75
     0
 76
     0
 77
     0
 78
     0
281
     0
 65
     1
110
0.0
120
0.0
130
0.0
111
1.0
121
0.0
131
0.0
112
0.0
122
1.0
132
0.0
 79
     0
146
0.0
348
1623
 60
     3
 61
     5
292
     1
282
     1
141
0.0
142
0.0
 63
   256
361
165F
  0
ENDTAB
  0
TABLE
  2
LTYPE
  5
5
330
0
100
AcDbSymbolTable
 70
     6
  0
LTYPE
  5
14
330
5
100
AcDbSymbolTableRecord
100
AcDbLinetypeTableRecord
  2
ByBlock
 70
     0
  3

 72
    65
 73
     0
 40
0.0
  0
LTYPE
  5
15
330
5
100
AcDbSymbolTableRecord
100
AcDbLinetypeTableRecord
  2
ByLayer
 70
     0
  3

 72
    65
 73
     0
 40
0.0
  0
LTYPE
  5
16
330
5
100
AcDbSymbolTableRecord
100
AcDbLinetypeTableRecord
  2
Continuous
 70
     0
  3
Solid line
 72
    65
 73
     0
 40
0.0
  0
LTYPE
  5
35
330
5
100
AcDbSymbolTableRecord
100
AcDbLinetypeTableRecord
  2
ACAD_ISO08W100
 70
     0
  3
ISO long-dash short-dash ____ __ ____ __ ____ _
 72
    65
 73
     4
 40
36.0
 49
24.0
 74
     0
 49
-3.0
 74
     0
 49
6.0
 74
     0
 49
-3.0
 74
     0
  0
LTYPE
  5
127
330
5
100
AcDbSymbolTableRecord
100
AcDbLinetypeTableRecord
  2
HIDDENX2
 70
     0
  3
Hidden (2x) ____ ____ ____ ____ ____ ____ ____
 72
    65
 73
     2
 40
19.05
 49
12.7
 74
     0
 49
-6.35
 74
     0
  0
LTYPE
  5
5EC
330
5
100
AcDbSymbolTableRecord
100
AcDbLinetypeTableRecord
  2
CENTER
 70
     0
  3
Center ____ _ ____ _ ____ _ ____ _ ____ _ ____
 72
    65
 73
     4
 40
50.8
 49
31.75
 74
     0
 49
-6.35
 74
     0
 49
6.35
 74
     0
 49
-6.35
 74
     0
  0
LTYPE
  5
5ED
330
5
100
AcDbSymbolTableRecord
100
AcDbLinetypeTableRecord
  2
ACAD_ISO02W100
 70
     0
  3
ISO dash __ __ __ __ __ __ __ __ __ __ __ __ __
 72
    65
 73
     2
 40
15.0
 49
12.0
 74
     0
 49
-3.0
 74
     0
  0
LTYPE
  5
605
330
5
100
AcDbSymbolTableRecord
100
AcDbLinetypeTableRecord
  2
DASHED
 70
     0
  3
Dashed __ __ __ __ __ __ __ __ __ __ __ __ __ _
 72
    65
 73
     2
 40
19.05
 49
12.7
 74
     0
 49
-6.35
 74
     0
  0
ENDTAB
  0
TABLE
  2
LAYER
  5
2
330
0
100
AcDbSymbolTable
 70
     9
  0
LAYER
  5
10
330
2
100
AcDbSymbolTableRecord
100
AcDbLayerTableRecord
  2
0
 70
     0
 62
     7
  6
Continuous
370
    -3
390
F
347
165B
348
0
  0
LAYER
  5
2E
330
2
100
AcDbSymbolTableRecord
100
AcDbLayerTableRecord
  2
枠
 70
     0
 62
     1
  6
Continuous
370
    30
390
F
347
165B
348
0
  0
LAYER
  5
2F
330
2
100
AcDbSymbolTableRecord
100
AcDbLayerTableRecord
  2
文字
 70
     0
 62
     7
  6
Continuous
370
    30
390
F
347
165B
348
0
  0
LAYER
  5
36
330
2
100
AcDbSymbolTableRecord
100
AcDbLayerTableRecord
  2
中心線
 70
     0
 62
     7
  6
CENTER
370
    30
390
F
347
165B
348
0
  0
LAYER
  5
52
330
2
100
AcDbSymbolTableRecord
100
AcDbLayerTableRecord
  2
隠れ線
 70
     0
 62
     2
  6
Continuous
290
     0
370
    -3
390
F
347
165B
348
0
  0
LAYER
  5
128
330
2
100
AcDbSymbolTableRecord
100
AcDbLayerTableRecord
  2
実線
 70
     0
 62
     7
  6
Continuous
370
    50
390
F
347
165B
348
0
  0
LAYER
  5
129
330
2
100
AcDbSymbolTableRecord
100
AcDbLayerTableRecord
  2
破線
 70
     0
 62
     7
  6
DASHED
370
    20
390
F
347
165B
348
0
  0
LAYER
  5
693
330
2
100
AcDbSymbolTableRecord
100
AcDbLayerTableRecord
  2
Defpoints
 70
     0
 62
     7
  6
Continuous
290
     0
370
    -3
390
F
347
165B
348
0
  0
LAYER
  5
188E
330
2
100
AcDbSymbolTableRecord
100
AcDbLayerTableRecord
  2
文字・寸法線
 70
     0
 62
     7
  6
Continuous
370
    13
390
F
347
165B
348
0
  0
ENDTAB
  0
TABLE
  2
STYLE
  5
3
330
0
100
AcDbSymbolTable
 70
     2
  0
STYLE
  5
11
330
3
100
AcDbSymbolTableRecord
100
AcDbTextStyleTableRecord
  2
Standard
 70
     0
 40
0.0
 41
1.0
 50
0.0
 71
     0
 42
3.0
  3
txt.shx
  4
bigfont.shx
  0
STYLE
  5
34
330
3
100
AcDbSymbolTableRecord
100
AcDbTextStyleTableRecord
  2

 70
     1
 40
0.0
 41
1.0
 50
0.0
 71
     0
 42
2.5
  3
ltypeshp.shx
  4

  0
ENDTAB
  0
TABLE
  2
VIEW
  5
6
330
0
100
AcDbSymbolTable
 70
     0
  0
ENDTAB
  0
TABLE
  2
UCS
  5
7
330
0
100
AcDbSymbolTable
 70
     0
  0
ENDTAB
  0
TABLE
  2
APPID
  5
9
330
0
100
AcDbSymbolTable
 70
     1
  0
APPID
  5
12
330
9
100
AcDbSymbolTableRecord
100
AcDbRegAppTableRecord
  2
ACAD
 70
     0
  0
ENDTAB
  0
TABLE
  2
DIMSTYLE
  5
A
330
0
100
AcDbSymbolTable
 70
     2
100
AcDbDimStyleTable
  0
DIMSTYLE
105
29
102
{ACAD_REACTORS
330
1416
330
183C
330
183F
330
1842
330
1848
330
191C
330
191D
330
19E0
330
19E4
102
}
330
A
100
AcDbSymbolTableRecord
100
AcDbDimStyleTableRecord
  2
ISO-25
 70
     0
 41
2.5
 42
0.625
 43
3.75
 44
1.25
 73
     0
 74
     0
 77
     1
 78
     8
140
2.5
141
2.5
143
0.03937007874016
147
0.625
171
     3
172
     1
178
     0
271
     2
272
     2
274
     3
283
     0
284
     8
340
11
  0
DIMSTYLE
105
1674
330
A
100
AcDbSymbolTableRecord
100
AcDbDimStyleTableRecord
  2
Standard
 70
     0
178
     0
340
11
  0
ENDTAB
  0
TABLE
  2
BLOCK_RECORD
  5
1
330
0
100
AcDbSymbolTable
 70
    52
  0
BLOCK_RECORD
  5
21
330
1
100
AcDbSymbolTableRecord
100
AcDbBlockTableRecord
  2
*Model_Space
340
24
 70
     0
280
     1
281
     0
  0
BLOCK_RECORD
  5
1661
330
1
100
AcDbSymbolTableRecord
100
AcDbBlockTableRecord
  2
*Paper_Space
340
1662
 70
     0
280
     1
281
     0
  0
BLOCK_RECORD
  5
A96
330
1
100
AcDbSymbolTableRecord
100
AcDbBlockTableRecord
  2
*D0
340
0
 70
     0
280
     1
281
     0
  0
BLOCK_RECORD
  5
ACB
330
1
100
AcDbSymbolTableRecord
100
AcDbBlockTableRecord
  2
*D1
340
0
 70
     0
280
     1
281
     0
  0
BLOCK_RECORD
  5
13FF
330
1
100
AcDbSymbolTableRecord
100
AcDbBlockTableRecord
  2
*D2
340
0
 70
     0
280
     1
281
     0
  0
BLOCK_RECORD
  5
1417
330
1
100
AcDbSymbolTableRecord
100
AcDbBlockTableRecord
  2
*D3
340
0
 70
     0
280
     1
281
     0
  0
BLOCK_RECORD
  5
142F
330
1
100
AcDbSymbolTableRecord
100
AcDbBlockTableRecord
  2
*D4
340
0
 70
     0
280
     1
281
     0
  0
BLOCK_RECORD
  5
1447
330
1
100
AcDbSymbolTableRecord
100
AcDbBlockTableRecord
  2
*D5
340
0
 70
     0
280
     1
281
     0
  0
BLOCK_RECORD
  5
1463
330
1
100
AcDbSymbolTableRecord
100
AcDbBlockTableRecord
  2
*D6
340
0
 70
     0
280
     1
281
     0
  0
BLOCK_RECORD
  5
1481
330
1
100
AcDbSymbolTableRecord
100
AcDbBlockTableRecord
  2
*D7
340
0
 70
     0
280
     1
281
     0
  0
BLOCK_RECORD
  5
14F8
330
1
100
AcDbSymbolTableRecord
100
AcDbBlockTableRecord
  2
*D8
340
0
 70
     0
280
     1
281
     0
  0
BLOCK_RECORD
  5
1506
330
1
100
AcDbSymbolTableRecord
100
AcDbBlockTableRecord
  2
*D9
340
0
 70
     0
280
     1
281
     0
  0
BLOCK_RECORD
  5
1536
330
1
100
AcDbSymbolTableRecord
100
AcDbBlockTableRecord
  2
*D10
340
0
 70
     0
280
     1
281
     0
  0
BLOCK_RECORD
  5
1544
330
1
100
AcDbSymbolTableRecord
100
AcDbBlockTableRecord
  2
*D11
340
0
 70
     0
280
     1
281
     0
  0
BLOCK_RECORD
  5
158F
330
1
100
AcDbSymbolTableRecord
100
AcDbBlockTableRecord
  2
*D12
340
0
 70
     0
280
     1
281
     0
  0
BLOCK_RECORD
  5
159D
330
1
100
AcDbSymbolTableRecord
100
AcDbBlockTableRecord
  2
*D13
340
0
 70
     0
280
     1
281
     0
  0
BLOCK_RECORD
  5
15A9
330
1
100
AcDbSymbolTableRecord
100
AcDbBlockTableRecord
  2
*D14
340
0
 70
     0
280
     1
281
     0
  0
BLOCK_RECORD
  5
15B5
330
1
100
AcDbSymbolTableRecord
100
AcDbBlockTableRecord
  2
*D15
340
0
 70
     0
280
     1
281
     0
  0
BLOCK_RECORD
  5
15C1
330
1
100
AcDbSymbolTableRecord
100
AcDbBlockTableRecord
  2
*D16
340
0
 70
     0
280
     1
281
     0
  0
BLOCK_RECORD
  5
15CD
330
1
100
AcDbSymbolTableRecord
100
AcDbBlockTableRecord
  2
*D17
340
0
 70
     0
280
     1
281
     0
  0
BLOCK_RECORD
  5
15DB
330
1
100
AcDbSymbolTableRecord
100
AcDbBlockTableRecord
  2
*D18
340
0
 70
     0
280
     1
281
     0
  0
BLOCK_RECORD
  5
15EA
330
1
100
AcDbSymbolTableRecord
100
AcDbBlockTableRecord
  2
*D19
340
0
 70
     0
280
     1
281
     0
  0
BLOCK_RECORD
  5
16A5
330
1
100
AcDbSymbolTableRecord
100
AcDbBlockTableRecord
  2
*D20
340
0
 70
     0
280
     1
281
     0
  0
BLOCK_RECORD
  5
16B4
330
1
100
AcDbSymbolTableRecord
100
AcDbBlockTableRecord
  2
*D21
340
0
 70
     0
280
     1
281
     0
  0
BLOCK_RECORD
  5
16C5
330
1
100
AcDbSymbolTableRecord
100
AcDbBlockTableRecord
  2
*D22
340
0
 70
     0
280
     1
281
     0
  0
BLOCK_RECORD
  5
16D7
330
1
100
AcDbSymbolTableRecord
100
AcDbBlockTableRecord
  2
*D23
340
0
 70
     0
280
     1
281
     0
  0
BLOCK_RECORD
  5
16E8
330
1
100
AcDbSymbolTableRecord
100
AcDbBlockTableRecord
  2
*D24
340
0
 70
     0
280
     1
281
     0
  0
BLOCK_RECORD
  5
16F8
330
1
100
AcDbSymbolTableRecord
100
AcDbBlockTableRecord
  2
*D25
340
0
 70
     0
280
     1
281
     0
  0
BLOCK_RECORD
  5
1732
330
1
100
AcDbSymbolTableRecord
100
AcDbBlockTableRecord
  2
*D26
340
0
 70
     0
280
     1
281
     0
  0
BLOCK_RECORD
  5
173E
330
1
100
AcDbSymbolTableRecord
100
AcDbBlockTableRecord
  2
*D27
340
0
 70
     0
280
     1
281
     0
  0
BLOCK_RECORD
  5
174D
330
1
100
AcDbSymbolTableRecord
100
AcDbBlockTableRecord
  2
*D28
340
0
 70
     0
280
     1
281
     0
  0
BLOCK_RECORD
  5
1759
330
1
100
AcDbSymbolTableRecord
100
AcDbBlockTableRecord
  2
*D29
340
0
 70
     0
280
     1
281
     0
  0
BLOCK_RECORD
  5
1767
330
1
100
AcDbSymbolTableRecord
100
AcDbBlockTableRecord
  2
*D30
340
0
 70
     0
280
     1
281
     0
  0
BLOCK_RECORD
  5
1775
330
1
100
AcDbSymbolTableRecord
100
AcDbBlockTableRecord
  2
*D31
340
0
 70
     0
280
     1
281
     0
  0
BLOCK_RECORD
  5
17A6
330
1
100
AcDbSymbolTableRecord
100
AcDbBlockTableRecord
  2
*D32
340
0
 70
     0
280
     1
281
     0
  0
BLOCK_RECORD
  5
17B8
330
1
100
AcDbSymbolTableRecord
100
AcDbBlockTableRecord
  2
*D33
340
0
 70
     0
280
     1
281
     0
  0
BLOCK_RECORD
  5
17F3
330
1
100
AcDbSymbolTableRecord
100
AcDbBlockTableRecord
  2
*D34
340
0
 70
     0
280
     1
281
     0
  0
BLOCK_RECORD
  5
1802
330
1
100
AcDbSymbolTableRecord
100
AcDbBlockTableRecord
  2
*D35
340
0
 70
     0
280
     1
281
     0
  0
BLOCK_RECORD
  5
1813
330
1
100
AcDbSymbolTableRecord
100
AcDbBlockTableRecord
  2
*D36
340
0
 70
     0
280
     1
281
     0
  0
BLOCK_RECORD
  5
1827
330
1
100
AcDbSymbolTableRecord
100
AcDbBlockTableRecord
  2
*D37
340
0
 70
     0
280
     1
281
     0
  0
BLOCK_RECORD
  5
184B
330
1
100
AcDbSymbolTableRecord
100
AcDbBlockTableRecord
  2
*D38
340
0
 70
     0
280
     1
281
     0
  0
BLOCK_RECORD
  5
1857
330
1
100
AcDbSymbolTableRecord
100
AcDbBlockTableRecord
  2
*D39
340
0
 70
     0
280
     1
281
     0
  0
BLOCK_RECORD
  5
1865
330
1
100
AcDbSymbolTableRecord
100
AcDbBlockTableRecord
  2
*D40
340
0
 70
     0
280
     1
281
     0
  0
BLOCK_RECORD
  5
1873
330
1
100
AcDbSymbolTableRecord
100
AcDbBlockTableRecord
  2
*D41
340
0
 70
     0
280
     1
281
     0
  0
BLOCK_RECORD
  5
18E1
330
1
100
AcDbSymbolTableRecord
100
AcDbBlockTableRecord
  2
*D42
340
0
 70
     0
280
     1
281
     0
  0
BLOCK_RECORD
  5
18F3
330
1
100
AcDbSymbolTableRecord
100
AcDbBlockTableRecord
  2
*D43
340
0
 70
     0
280
     1
281
     0
  0
BLOCK_RECORD
  5
1902
330
1
100
AcDbSymbolTableRecord
100
AcDbBlockTableRecord
  2
*D44
340
0
 70
     0
280
     1
281
     0
  0
BLOCK_RECORD
  5
1922
330
1
100
AcDbSymbolTableRecord
100
AcDbBlockTableRecord
  2
*D45
340
0
 70
     0
280
     1
281
     0
  0
BLOCK_RECORD
  5
192E
330
1
100
AcDbSymbolTableRecord
100
AcDbBlockTableRecord
  2
*D46
340
0
 70
     0
280
     1
281
     0
  0
BLOCK_RECORD
  5
193A
330
1
100
AcDbSymbolTableRecord
100
AcDbBlockTableRecord
  2
*D47
340
0
 70
     0
280
     1
281
     0
  0
BLOCK_RECORD
  5
196D
330
1
100
AcDbSymbolTableRecord
100
AcDbBlockTableRecord
  2
*D48
340
0
 70
     0
280
     1
281
     0
  0
BLOCK_RECORD
  5
1982
330
1
100
AcDbSymbolTableRecord
100
AcDbBlockTableRecord
  2
*D49
340
0
 70
     0
280
     1
281
     0
  0
BLOCK_RECORD
  5
19C3
330
1
100
AcDbSymbolTableRecord
100
AcDbBlockTableRecord
  2
*D50
340
0
 70
     0
280
     1
281
     0
  0
BLOCK_RECORD
  5
19E6
330
1
100
AcDbSymbolTableRecord
100
AcDbBlockTableRecord
  2
*D51
340
0
 70
     0
280
     1
281
     0
  0
ENDTAB
  0
ENDSEC
  0
SECTION
  2
BLOCKS
  0
BLOCK
  5
22
330
21
100
AcDbEntity
  8
0
100
AcDbBlockBegin
  2
*Model_Space
 70
     0
 10
0.0
 20
0.0
 30
0.0
  3
*Model_Space
  1
*Model_Space
  0
ENDBLK
  5
23
330
21
100
AcDbEntity
  8
0
100
AcDbBlockEnd
  0
BLOCK
  5
1663
330
1661
100
AcDbEntity
 67
     1
  8
0
100
AcDbBlockBegin
  2
*Paper_Space
 70
     0
 10
0.0
 20
0.0
 30
0.0
  3
*Paper_Space
  1
*Paper_Space
  0
ENDBLK
  5
1664
330
1661
100
AcDbEntity
 67
     1
  8
0
100
AcDbBlockEnd
  0
BLOCK
  5
AA2
330
A96
100
AcDbEntity
  8
0
100
AcDbBlockBegin
  2
*D0
 70
     1
 10
0.0
 20
0.0
 30
0.0
  3
*D0
  1
*D1
  0
LINE
  5
13F3
330
A96
100
AcDbEntity
  8
文字
 62
     0
370
    -2
100
AcDbLine
 10
81.014836405158
 20
98.95419875811177
 30
0.0
 11
67.7368619751255
 21
98.95419875811177
 31
0.0
  0
LINE
  5
13F4
330
A96
100
AcDbEntity
  8
文字
 62
     0
370
    -2
100
AcDbLine
 10
81.014836405158
 20
97.35419875811178
 30
0.0
 11
67.7368619751255
 21
97.35419875811178
 31
0.0
  0
LINE
  5
13F5
330
A96
100
AcDbEntity
  8
文字
 62
     0
370
    -2
100
AcDbLine
 10
68.9868619751255
 20
101.4541987581118
 30
0.0
 11
68.9868619751255
 21
103.9541987581118
 31
0.0
  0
LINE
  5
13F6
330
A96
100
AcDbEntity
  8
文字
 62
     0
370
    -2
100
AcDbLine
 10
68.98686197512549
 20
94.85419875811178
 30
0.0
 11
68.98686197512549
 21
86.9375320914451
 31
0.0
  0
LINE
  5
13F7
330
A96
100
AcDbEntity
  8
文字
 62
     0
370
    -2
100
AcDbLine
 10
68.9868619751255
 20
98.95419875811177
 30
0.0
 11
68.9868619751255
 21
97.35419875811178
 31
0.0
  0
SOLID
  5
13F8
330
A96
100
AcDbEntity
  8
文字
 62
     0
100
AcDbTrace
 10
68.57019530845884
 20
101.4541987581118
 30
0.0
 11
69.40352864179218
 21
101.4541987581118
 31
0.0
 12
68.9868619751255
 22
98.95419875811177
 32
0.0
 13
68.9868619751255
 23
98.95419875811177
 33
0.0
  0
SOLID
  5
13F9
330
A96
100
AcDbEntity
  8
文字
 62
     0
100
AcDbTrace
 10
68.57019530845882
 20
94.85419875811178
 30
0.0
 11
69.40352864179216
 21
94.85419875811178
 31
0.0
 12
68.9868619751255
 22
97.35419875811178
 32
0.0
 13
68.9868619751255
 23
97.35419875811178
 33
0.0
  0
MTEXT
  5
13FA
330
A96
100
AcDbEntity
  8
文字
 62
     0
100
AcDbMText
 10
67.11186197512548
 20
89.64586542477846
 30
0.0
 40
2.5
 41
0.0
 46
0.0
 71
     5
 72
     1
  1
1.6
 11
6.123031769111886E-17
 21
1.0
 31
0.0
 73
     1
 44
1.0
  0
POINT
  5
13FB
330
A96
100
AcDbEntity
  8
Defpoints
 62
     0
100
AcDbPoint
 10
81.639836405158
 20
98.95419875811177
 30
0.0
  0
POINT
  5
13FC
330
A96
100
AcDbEntity
  8
Defpoints
 62
     0
100
AcDbPoint
 10
81.639836405158
 20
97.35419875811178
 30
0.0
  0
POINT
  5
13FD
330
A96
100
AcDbEntity
  8
Defpoints
 62
     0
100
AcDbPoint
 10
68.9868619751255
 20
97.35419875811178
 30
0.0
  0
ENDBLK
  5
AA3
330
A96
100
AcDbEntity
  8
0
100
AcDbBlockEnd
  0
BLOCK
  5
AD5
330
ACB
100
AcDbEntity
  8
0
100
AcDbBlockBegin
  2
*D1
 70
     1
 10
0.0
 20
0.0
 30
0.0
  3
*D1
  1
*D2
  0
LINE
  5
13EA
330
ACB
100
AcDbEntity
  8
文字
 62
     0
370
    -2
100
AcDbLine
 10
81.639836405158
 20
96.72919875811178
 30
0.0
 11
81.639836405158
 21
78.48942586777608
 31
0.0
  0
LINE
  5
13EB
330
ACB
100
AcDbEntity
  8
文字
 62
     0
370
    -2
100
AcDbLine
 10
111.639836405158
 20
96.72919875811176
 30
0.0
 11
111.639836405158
 21
78.48942586777608
 31
0.0
  0
LINE
  5
13EC
330
ACB
100
AcDbEntity
  8
文字
 62
     0
370
    -2
100
AcDbLine
 10
84.139836405158
 20
79.73942586777608
 30
0.0
 11
109.139836405158
 21
79.73942586777608
 31
0.0
  0
SOLID
  5
13ED
330
ACB
100
AcDbEntity
  8
文字
 62
     0
100
AcDbTrace
 10
84.139836405158
 20
80.15609253444275
 30
0.0
 11
84.139836405158
 21
79.3227592011094
 31
0.0
 12
81.639836405158
 22
79.73942586777608
 32
0.0
 13
81.639836405158
 23
79.73942586777608
 33
0.0
  0
SOLID
  5
13EE
330
ACB
100
AcDbEntity
  8
文字
 62
     0
100
AcDbTrace
 10
109.139836405158
 20
80.15609253444275
 30
0.0
 11
109.139836405158
 21
79.3227592011094
 31
0.0
 12
111.639836405158
 22
79.73942586777608
 32
0.0
 13
111.639836405158
 23
79.73942586777608
 33
0.0
  0
MTEXT
  5
13EF
330
ACB
100
AcDbEntity
  8
文字
 62
     0
100
AcDbMText
 10
96.639836405158
 20
81.61442586777608
 30
0.0
 40
2.5
 41
0.0
 46
0.0
 71
     5
 72
     1
  1
%%c30
 73
     1
 44
1.0
  0
POINT
  5
13F0
330
ACB
100
AcDbEntity
  8
Defpoints
 62
     0
100
AcDbPoint
 10
81.639836405158
 20
97.35419875811178
 30
0.0
  0
POINT
  5
13F1
330
ACB
100
AcDbEntity
  8
Defpoints
 62
     0
100
AcDbPoint
 10
111.639836405158
 20
97.35419875811176
 30
0.0
  0
POINT
  5
13F2
330
ACB
100
AcDbEntity
  8
Defpoints
 62
     0
100
AcDbPoint
 10
111.639836405158
 20
79.73942586777608
 30
0.0
  0
ENDBLK
  5
AD6
330
ACB
100
AcDbEntity
  8
0
100
AcDbBlockEnd
  0
BLOCK
  5
1409
330
13FF
100
AcDbEntity
  8
0
100
AcDbBlockBegin
  2
*D2
 70
     1
 10
0.0
 20
0.0
 30
0.0
  3
*D2
  1
*D3
  0
LINE
  5
14A1
330
13FF
100
AcDbEntity
  8
文字
 62
     0
370
    -2
100
AcDbLine
 10
90.639836405158
 20
146.7549826243851
 30
0.0
 11
90.639836405158
 21
165.5188984420835
 31
0.0
  0
LINE
  5
14A2
330
13FF
100
AcDbEntity
  8
文字
 62
     0
370
    -2
100
AcDbLine
 10
102.639836405158
 20
146.7549826243851
 30
0.0
 11
102.639836405158
 21
165.5188984420835
 31
0.0
  0
LINE
  5
14A3
330
13FF
100
AcDbEntity
  8
文字
 62
     0
370
    -2
100
AcDbLine
 10
93.139836405158
 20
164.2688984420835
 30
0.0
 11
100.139836405158
 21
164.2688984420835
 31
0.0
  0
SOLID
  5
14A4
330
13FF
100
AcDbEntity
  8
文字
 62
     0
100
AcDbTrace
 10
93.139836405158
 20
164.6855651087501
 30
0.0
 11
93.139836405158
 21
163.8522317754168
 31
0.0
 12
90.639836405158
 22
164.2688984420835
 32
0.0
 13
90.639836405158
 23
164.2688984420835
 33
0.0
  0
SOLID
  5
14A5
330
13FF
100
AcDbEntity
  8
文字
 62
     0
100
AcDbTrace
 10
100.139836405158
 20
164.6855651087501
 30
0.0
 11
100.139836405158
 21
163.8522317754168
 31
0.0
 12
102.639836405158
 22
164.2688984420835
 32
0.0
 13
102.639836405158
 23
164.2688984420835
 33
0.0
  0
MTEXT
  5
14A6
330
13FF
100
AcDbEntity
  8
文字
 62
     0
100
AcDbMText
 10
96.63983640515801
 20
166.1447511023836
 30
0.0
 40
2.5
 41
0.0
 46
0.0
 71
     5
 72
     1
  1
{\fArial|b0|i0|c0|p32;M }12
 73
     1
 44
1.0
  0
POINT
  5
14A7
330
13FF
100
AcDbEntity
  8
Defpoints
 62
     0
100
AcDbPoint
 10
90.639836405158
 20
146.1299826243851
 30
0.0
  0
POINT
  5
14A8
330
13FF
100
AcDbEntity
  8
Defpoints
 62
     0
100
AcDbPoint
 10
102.639836405158
 20
146.1299826243851
 30
0.0
  0
POINT
  5
14A9
330
13FF
100
AcDbEntity
  8
Defpoints
 62
     0
100
AcDbPoint
 10
102.639836405158
 20
164.2688984420835
 30
0.0
  0
ENDBLK
  5
140A
330
13FF
100
AcDbEntity
  8
0
100
AcDbBlockEnd
  0
BLOCK
  5
1421
330
1417
100
AcDbEntity
  8
0
100
AcDbBlockBegin
  2
*D3
 70
     1
 10
0.0
 20
0.0
 30
0.0
  3
*D3
  1
*D4
  0
LINE
  5
1498
330
1417
100
AcDbEntity
  8
文字
 62
     0
370
    -2
100
AcDbLine
 10
111.1904821547625
 20
95.24705827665181
 30
0.0
 11
130.8675135737998
 21
95.24705827665181
 31
0.0
  0
LINE
  5
1499
330
1417
100
AcDbEntity
  8
文字
 62
     0
370
    -2
100
AcDbLine
 10
106.8042284193274
 20
111.1299826243851
 30
0.0
 11
130.8675135737998
 21
111.1299826243851
 31
0.0
  0
LINE
  5
149A
330
1417
100
AcDbEntity
  8
文字
 62
     0
370
    -2
100
AcDbLine
 10
129.6175135737998
 20
97.74705827665181
 30
0.0
 11
129.6175135737998
 21
108.6299826243851
 31
0.0
  0
SOLID
  5
149B
330
1417
100
AcDbEntity
  8
文字
 62
     0
100
AcDbTrace
 10
129.2008469071332
 20
97.74705827665181
 30
0.0
 11
130.0341802404665
 21
97.74705827665181
 31
0.0
 12
129.6175135737998
 22
95.24705827665181
 32
0.0
 13
129.6175135737998
 23
95.24705827665181
 33
0.0
  0
SOLID
  5
149C
330
1417
100
AcDbEntity
  8
文字
 62
     0
100
AcDbTrace
 10
130.0341802404665
 20
108.6299826243851
 30
0.0
 11
129.2008469071332
 21
108.6299826243851
 31
0.0
 12
129.6175135737998
 22
111.1299826243851
 32
0.0
 13
129.6175135737998
 23
111.1299826243851
 33
0.0
  0
MTEXT
  5
149D
330
1417
100
AcDbEntity
  8
文字
 62
     0
370
    -3
100
AcDbMText
 10
127.7425135737998
 20
103.1885204505185
 30
0.0
 40
2.5
 41
0.0
 46
0.0
 71
     5
 72
     1
  1
15
 11
0.0
 21
1.0
 31
0.0
 73
     1
 44
1.0
  0
POINT
  5
149E
330
1417
100
AcDbEntity
  8
Defpoints
 62
     0
100
AcDbPoint
 10
110.5654821547625
 20
95.24705827665181
 30
0.0
  0
POINT
  5
149F
330
1417
100
AcDbEntity
  8
Defpoints
 62
     0
100
AcDbPoint
 10
106.1792284193274
 20
111.1299826243851
 30
0.0
  0
POINT
  5
14A0
330
1417
100
AcDbEntity
  8
Defpoints
 62
     0
100
AcDbPoint
 10
129.6175135737998
 20
111.1299826243851
 30
0.0
  0
ENDBLK
  5
1422
330
1417
100
AcDbEntity
  8
0
100
AcDbBlockEnd
  0
BLOCK
  5
1439
330
142F
100
AcDbEntity
  8
0
100
AcDbBlockBegin
  2
*D4
 70
     1
 10
0.0
 20
0.0
 30
0.0
  3
*D4
  1
*D5
  0
LINE
  5
143C
330
142F
100
AcDbEntity
  8
文字
 62
     0
370
    -2
100
AcDbLine
 10
101.264836405158
 20
148.1299826243851
 30
0.0
 11
130.8675135737998
 21
148.1299826243851
 31
0.0
  0
LINE
  5
143D
330
142F
100
AcDbEntity
  8
文字
 62
     0
370
    -2
100
AcDbLine
 10
106.8042284193274
 20
111.1299826243851
 30
0.0
 11
130.8675135737998
 21
111.1299826243851
 31
0.0
  0
LINE
  5
143E
330
142F
100
AcDbEntity
  8
文字
 62
     0
370
    -2
100
AcDbLine
 10
129.6175135737998
 20
145.6299826243851
 30
0.0
 11
129.6175135737998
 21
113.6299826243851
 31
0.0
  0
SOLID
  5
143F
330
142F
100
AcDbEntity
  8
文字
 62
     0
100
AcDbTrace
 10
129.2008469071331
 20
145.6299826243851
 30
0.0
 11
130.0341802404664
 21
145.6299826243851
 31
0.0
 12
129.6175135737998
 22
148.1299826243851
 32
0.0
 13
129.6175135737998
 23
148.1299826243851
 33
0.0
  0
SOLID
  5
1440
330
142F
100
AcDbEntity
  8
文字
 62
     0
100
AcDbTrace
 10
129.2008469071331
 20
113.6299826243851
 30
0.0
 11
130.0341802404664
 21
113.6299826243851
 31
0.0
 12
129.6175135737998
 22
111.1299826243851
 32
0.0
 13
129.6175135737998
 23
111.1299826243851
 33
0.0
  0
MTEXT
  5
1441
330
142F
100
AcDbEntity
  8
文字
 62
     0
100
AcDbMText
 10
127.7425135737998
 20
129.6299826243851
 30
0.0
 40
2.5
 41
0.0
 46
0.0
 71
     5
 72
     1
  1
37
 11
6.123031769111886E-17
 21
1.0
 31
0.0
 73
     1
 44
1.0
  0
POINT
  5
1442
330
142F
100
AcDbEntity
  8
Defpoints
 62
     0
100
AcDbPoint
 10
100.639836405158
 20
148.1299826243851
 30
0.0
  0
POINT
  5
1443
330
142F
100
AcDbEntity
  8
Defpoints
 62
     0
100
AcDbPoint
 10
106.1792284193274
 20
111.1299826243851
 30
0.0
  0
POINT
  5
1444
330
142F
100
AcDbEntity
  8
Defpoints
 62
     0
100
AcDbPoint
 10
129.6175135737998
 20
111.1299826243851
 30
0.0
  0
ENDBLK
  5
143A
330
142F
100
AcDbEntity
  8
0
100
AcDbBlockEnd
  0
BLOCK
  5
1453
330
1447
100
AcDbEntity
  8
0
100
AcDbBlockBegin
  2
*D5
 70
     1
 10
0.0
 20
0.0
 30
0.0
  3
*D5
  1
*D6
  0
LINE
  5
1456
330
1447
100
AcDbEntity
  8
文字
 62
     0
370
    -2
100
AcDbLine
 10
95.63983640515796
 20
148.7549826243851
 30
0.0
 11
95.63983640515796
 21
156.8747941161794
 31
0.0
  0
LINE
  5
1457
330
1447
100
AcDbEntity
  8
文字
 62
     0
370
    -2
100
AcDbLine
 10
97.63983640515796
 20
148.7549826243851
 30
0.0
 11
97.63983640515796
 21
156.8747941161794
 31
0.0
  0
LINE
  5
1458
330
1447
100
AcDbEntity
  8
文字
 62
     0
370
    -2
100
AcDbLine
 10
93.13983640515796
 20
155.6247941161794
 30
0.0
 11
90.63983640515796
 21
155.6247941161794
 31
0.0
  0
LINE
  5
1459
330
1447
100
AcDbEntity
  8
文字
 62
     0
370
    -2
100
AcDbLine
 10
100.139836405158
 20
155.6247941161794
 30
0.0
 11
105.5565030718246
 21
155.6247941161794
 31
0.0
  0
LINE
  5
145A
330
1447
100
AcDbEntity
  8
文字
 62
     0
370
    -2
100
AcDbLine
 10
95.63983640515796
 20
155.6247941161794
 30
0.0
 11
97.63983640515796
 21
155.6247941161794
 31
0.0
  0
SOLID
  5
145B
330
1447
100
AcDbEntity
  8
文字
 62
     0
100
AcDbTrace
 10
93.13983640515796
 20
156.041460782846
 30
0.0
 11
93.13983640515796
 21
155.2081274495127
 31
0.0
 12
95.63983640515796
 22
155.6247941161794
 32
0.0
 13
95.63983640515796
 23
155.6247941161794
 33
0.0
  0
SOLID
  5
145C
330
1447
100
AcDbEntity
  8
文字
 62
     0
100
AcDbTrace
 10
100.139836405158
 20
156.041460782846
 30
0.0
 11
100.139836405158
 21
155.2081274495127
 31
0.0
 12
97.63983640515796
 22
155.6247941161794
 32
0.0
 13
97.63983640515796
 23
155.6247941161794
 33
0.0
  0
MTEXT
  5
145D
330
1447
100
AcDbEntity
  8
文字
 62
     0
100
AcDbMText
 10
104.0981697384913
 20
157.4997941161794
 30
0.0
 40
2.5
 41
0.0
 46
0.0
 71
     5
 72
     1
  1
2
 73
     1
 44
1.0
  0
POINT
  5
145E
330
1447
100
AcDbEntity
  8
Defpoints
 62
     0
100
AcDbPoint
 10
95.63983640515796
 20
148.1299826243851
 30
0.0
  0
POINT
  5
145F
330
1447
100
AcDbEntity
  8
Defpoints
 62
     0
100
AcDbPoint
 10
97.63983640515796
 20
148.1299826243851
 30
0.0
  0
POINT
  5
1460
330
1447
100
AcDbEntity
  8
Defpoints
 62
     0
100
AcDbPoint
 10
97.63983640515796
 20
155.6247941161794
 30
0.0
  0
ENDBLK
  5
1454
330
1447
100
AcDbEntity
  8
0
100
AcDbBlockEnd
  0
BLOCK
  5
146F
330
1463
100
AcDbEntity
  8
0
100
AcDbBlockBegin
  2
*D6
 70
     1
 10
0.0
 20
0.0
 30
0.0
  3
*D6
  1
*D7
  0
LINE
  5
1472
330
1463
100
AcDbEntity
  8
文字
 62
     0
370
    -2
100
AcDbLine
 10
95.01483640515796
 20
148.1299826243851
 30
0.0
 11
82.78036454991661
 21
148.1299826243851
 31
0.0
  0
LINE
  5
1473
330
1463
100
AcDbEntity
  8
文字
 62
     0
370
    -2
100
AcDbLine
 10
95.01483640515796
 20
146.1299826243851
 30
0.0
 11
82.78036454991661
 21
146.1299826243851
 31
0.0
  0
LINE
  5
1474
330
1463
100
AcDbEntity
  8
文字
 62
     0
370
    -2
100
AcDbLine
 10
84.03036454991661
 20
150.6299826243851
 30
0.0
 11
84.03036454991661
 21
153.1299826243851
 31
0.0
  0
LINE
  5
1475
330
1463
100
AcDbEntity
  8
文字
 62
     0
370
    -2
100
AcDbLine
 10
84.03036454991661
 20
143.6299826243851
 30
0.0
 11
84.03036454991661
 21
138.2133159577184
 31
0.0
  0
LINE
  5
1476
330
1463
100
AcDbEntity
  8
文字
 62
     0
370
    -2
100
AcDbLine
 10
84.03036454991661
 20
148.1299826243851
 30
0.0
 11
84.03036454991661
 21
146.1299826243851
 31
0.0
  0
SOLID
  5
1477
330
1463
100
AcDbEntity
  8
文字
 62
     0
100
AcDbTrace
 10
83.61369788324994
 20
150.6299826243851
 30
0.0
 11
84.44703121658328
 21
150.6299826243851
 31
0.0
 12
84.03036454991661
 22
148.1299826243851
 32
0.0
 13
84.03036454991661
 23
148.1299826243851
 33
0.0
  0
SOLID
  5
1478
330
1463
100
AcDbEntity
  8
文字
 62
     0
100
AcDbTrace
 10
83.61369788324994
 20
143.6299826243851
 30
0.0
 11
84.44703121658328
 21
143.6299826243851
 31
0.0
 12
84.03036454991661
 22
146.1299826243851
 32
0.0
 13
84.03036454991661
 23
146.1299826243851
 33
0.0
  0
MTEXT
  5
1479
330
1463
100
AcDbEntity
  8
文字
 62
     0
100
AcDbMText
 10
82.1553645499166
 20
139.6716492910518
 30
0.0
 40
2.5
 41
0.0
 46
0.0
 71
     5
 72
     1
  1
2
 11
6.123031769111886E-17
 21
1.0
 31
0.0
 73
     1
 44
1.0
  0
POINT
  5
147A
330
1463
100
AcDbEntity
  8
Defpoints
 62
     0
100
AcDbPoint
 10
95.63983640515796
 20
148.1299826243851
 30
0.0
  0
POINT
  5
147B
330
1463
100
AcDbEntity
  8
Defpoints
 62
     0
100
AcDbPoint
 10
95.63983640515796
 20
146.1299826243851
 30
0.0
  0
POINT
  5
147C
330
1463
100
AcDbEntity
  8
Defpoints
 62
     0
100
AcDbPoint
 10
84.03036454991661
 20
146.1299826243851
 30
0.0
  0
ENDBLK
  5
1470
330
1463
100
AcDbEntity
  8
0
100
AcDbBlockEnd
  0
BLOCK
  5
148B
330
1481
100
AcDbEntity
  8
0
100
AcDbBlockBegin
  2
*D7
 70
     1
 10
0.0
 20
0.0
 30
0.0
  3
*D7
  1
*D8
  0
LINE
  5
14AA
330
1481
100
AcDbEntity
  8
文字
 62
     0
370
    -2
100
AcDbLine
 10
196.899865152172
 20
120.6624034425098
 30
0.0
 11
196.899865152172
 21
87.42883687096275
 31
0.0
  0
LINE
  5
14AB
330
1481
100
AcDbEntity
  8
文字
 62
     0
370
    -2
100
AcDbLine
 10
218.899865152172
 20
120.6624034425098
 30
0.0
 11
218.899865152172
 21
87.42883687096275
 31
0.0
  0
LINE
  5
14AC
330
1481
100
AcDbEntity
  8
文字
 62
     0
370
    -2
100
AcDbLine
 10
199.399865152172
 20
88.67883687096275
 30
0.0
 11
216.399865152172
 21
88.67883687096275
 31
0.0
  0
SOLID
  5
14AD
330
1481
100
AcDbEntity
  8
文字
 62
     0
100
AcDbTrace
 10
199.399865152172
 20
89.09550353762943
 30
0.0
 11
199.399865152172
 21
88.26217020429608
 31
0.0
 12
196.899865152172
 22
88.67883687096275
 32
0.0
 13
196.899865152172
 23
88.67883687096275
 33
0.0
  0
SOLID
  5
14AE
330
1481
100
AcDbEntity
  8
文字
 62
     0
100
AcDbTrace
 10
216.399865152172
 20
89.09550353762943
 30
0.0
 11
216.399865152172
 21
88.26217020429608
 31
0.0
 12
218.899865152172
 22
88.67883687096275
 32
0.0
 13
218.899865152172
 23
88.67883687096275
 33
0.0
  0
MTEXT
  5
14AF
330
1481
100
AcDbEntity
  8
文字
 62
     0
100
AcDbMText
 10
207.899865152172
 20
90.55383687096275
 30
0.0
 40
2.5
 41
0.0
 46
0.0
 71
     5
 72
     1
  1
%%c22
 73
     1
 44
1.0
  0
POINT
  5
14B0
330
1481
100
AcDbEntity
  8
Defpoints
 62
     0
100
AcDbPoint
 10
196.899865152172
 20
121.2874034425098
 30
0.0
  0
POINT
  5
14B1
330
1481
100
AcDbEntity
  8
Defpoints
 62
     0
100
AcDbPoint
 10
218.899865152172
 20
121.2874034425098
 30
0.0
  0
POINT
  5
14B2
330
1481
100
AcDbEntity
  8
Defpoints
 62
     0
100
AcDbPoint
 10
218.899865152172
 20
88.67883687096275
 30
0.0
  0
ENDBLK
  5
148C
330
1481
100
AcDbEntity
  8
0
100
AcDbBlockEnd
  0
BLOCK
  5
1504
330
14F8
100
AcDbEntity
  8
0
100
AcDbBlockBegin
  2
*D8
 70
     1
 10
0.0
 20
0.0
 30
0.0
  3
*D8
  1
*D9
  0
LINE
  5
14F9
330
14F8
100
AcDbEntity
  8
文字
 62
     0
370
    -2
100
AcDbLine
 10
411.1068049542744
 20
94.22854279583498
 30
0.0
 11
397.8288305242419
 21
94.22854279583498
 31
0.0
  0
LINE
  5
14FA
330
14F8
100
AcDbEntity
  8
文字
 62
     0
370
    -2
100
AcDbLine
 10
411.1068049542744
 20
92.62854279583499
 30
0.0
 11
397.8288305242419
 21
92.62854279583499
 31
0.0
  0
LINE
  5
14FB
330
14F8
100
AcDbEntity
  8
文字
 62
     0
370
    -2
100
AcDbLine
 10
399.0788305242419
 20
96.72854279583498
 30
0.0
 11
399.0788305242419
 21
99.22854279583498
 31
0.0
  0
LINE
  5
14FC
330
14F8
100
AcDbEntity
  8
文字
 62
     0
370
    -2
100
AcDbLine
 10
399.0788305242419
 20
90.12854279583499
 30
0.0
 11
399.0788305242419
 21
82.21187612916832
 31
0.0
  0
LINE
  5
14FD
330
14F8
100
AcDbEntity
  8
文字
 62
     0
370
    -2
100
AcDbLine
 10
399.0788305242419
 20
94.22854279583498
 30
0.0
 11
399.0788305242419
 21
92.62854279583499
 31
0.0
  0
SOLID
  5
14FE
330
14F8
100
AcDbEntity
  8
文字
 62
     0
100
AcDbTrace
 10
398.6621638575752
 20
96.72854279583498
 30
0.0
 11
399.4954971909086
 21
96.72854279583498
 31
0.0
 12
399.0788305242419
 22
94.22854279583498
 32
0.0
 13
399.0788305242419
 23
94.22854279583498
 33
0.0
  0
SOLID
  5
14FF
330
14F8
100
AcDbEntity
  8
文字
 62
     0
100
AcDbTrace
 10
398.6621638575752
 20
90.12854279583499
 30
0.0
 11
399.4954971909086
 21
90.12854279583499
 31
0.0
 12
399.0788305242419
 22
92.62854279583499
 32
0.0
 13
399.0788305242419
 23
92.62854279583499
 33
0.0
  0
MTEXT
  5
1500
330
14F8
100
AcDbEntity
  8
文字
 62
     0
100
AcDbMText
 10
397.2038305242419
 20
84.92020946250172
 30
0.0
 40
2.5
 41
0.0
 46
0.0
 71
     5
 72
     1
  1
1.6
 11
6.123031769111886E-17
 21
1.0
 31
0.0
 73
     1
 44
1.0
  0
POINT
  5
1501
330
14F8
100
AcDbEntity
  8
Defpoints
 62
     0
100
AcDbPoint
 10
411.7318049542744
 20
94.22854279583498
 30
0.0
  0
POINT
  5
1502
330
14F8
100
AcDbEntity
  8
Defpoints
 62
     0
100
AcDbPoint
 10
411.7318049542744
 20
92.62854279583499
 30
0.0
  0
POINT
  5
1503
330
14F8
100
AcDbEntity
  8
Defpoints
 62
     0
100
AcDbPoint
 10
399.0788305242419
 20
92.62854279583499
 30
0.0
  0
ENDBLK
  5
1505
330
14F8
100
AcDbEntity
  8
0
100
AcDbBlockEnd
  0
BLOCK
  5
1510
330
1506
100
AcDbEntity
  8
0
100
AcDbBlockBegin
  2
*D9
 70
     1
 10
0.0
 20
0.0
 30
0.0
  3
*D9
  1
*D10
  0
LINE
  5
1507
330
1506
100
AcDbEntity
  8
文字
 62
     0
370
    -2
100
AcDbLine
 10
411.7318049542744
 20
92.00354279583499
 30
0.0
 11
411.7318049542744
 21
73.76376990549929
 31
0.0
  0
LINE
  5
1508
330
1506
100
AcDbEntity
  8
文字
 62
     0
370
    -2
100
AcDbLine
 10
441.7318049542744
 20
92.00354279583497
 30
0.0
 11
441.7318049542744
 21
73.76376990549929
 31
0.0
  0
LINE
  5
1509
330
1506
100
AcDbEntity
  8
文字
 62
     0
370
    -2
100
AcDbLine
 10
414.2318049542744
 20
75.01376990549929
 30
0.0
 11
439.2318049542744
 21
75.01376990549929
 31
0.0
  0
SOLID
  5
150A
330
1506
100
AcDbEntity
  8
文字
 62
     0
100
AcDbTrace
 10
414.2318049542744
 20
75.43043657216596
 30
0.0
 11
414.2318049542744
 21
74.59710323883262
 31
0.0
 12
411.7318049542744
 22
75.01376990549929
 32
0.0
 13
411.7318049542744
 23
75.01376990549929
 33
0.0
  0
SOLID
  5
150B
330
1506
100
AcDbEntity
  8
文字
 62
     0
100
AcDbTrace
 10
439.2318049542744
 20
75.43043657216596
 30
0.0
 11
439.2318049542744
 21
74.59710323883262
 31
0.0
 12
441.7318049542744
 22
75.01376990549929
 32
0.0
 13
441.7318049542744
 23
75.01376990549929
 33
0.0
  0
MTEXT
  5
150C
330
1506
100
AcDbEntity
  8
文字
 62
     0
100
AcDbMText
 10
426.7318049542744
 20
76.88876990549929
 30
0.0
 40
2.5
 41
0.0
 46
0.0
 71
     5
 72
     1
  1
%%c30
 73
     1
 44
1.0
  0
POINT
  5
150D
330
1506
100
AcDbEntity
  8
Defpoints
 62
     0
100
AcDbPoint
 10
411.7318049542744
 20
92.62854279583499
 30
0.0
  0
POINT
  5
150E
330
1506
100
AcDbEntity
  8
Defpoints
 62
     0
100
AcDbPoint
 10
441.7318049542744
 20
92.62854279583497
 30
0.0
  0
POINT
  5
150F
330
1506
100
AcDbEntity
  8
Defpoints
 62
     0
100
AcDbPoint
 10
441.7318049542744
 20
75.01376990549929
 30
0.0
  0
ENDBLK
  5
1511
330
1506
100
AcDbEntity
  8
0
100
AcDbBlockEnd
  0
BLOCK
  5
1542
330
1536
100
AcDbEntity
  8
0
100
AcDbBlockBegin
  2
*D10
 70
     1
 10
0.0
 20
0.0
 30
0.0
  3
*D10
  1
*D14
  0
LINE
  5
1537
330
1536
100
AcDbEntity
  8
文字
 62
     0
370
    -2
100
AcDbLine
 10
425.7318049542743
 20
144.0293266621083
 30
0.0
 11
425.7318049542743
 21
152.1491381539026
 31
0.0
  0
LINE
  5
1538
330
1536
100
AcDbEntity
  8
文字
 62
     0
370
    -2
100
AcDbLine
 10
427.7318049542743
 20
144.0293266621083
 30
0.0
 11
427.7318049542743
 21
152.1491381539026
 31
0.0
  0
LINE
  5
1539
330
1536
100
AcDbEntity
  8
文字
 62
     0
370
    -2
100
AcDbLine
 10
423.2318049542743
 20
150.8991381539026
 30
0.0
 11
420.7318049542743
 21
150.8991381539026
 31
0.0
  0
LINE
  5
153A
330
1536
100
AcDbEntity
  8
文字
 62
     0
370
    -2
100
AcDbLine
 10
430.2318049542743
 20
150.8991381539026
 30
0.0
 11
435.648471620941
 21
150.8991381539026
 31
0.0
  0
LINE
  5
153B
330
1536
100
AcDbEntity
  8
文字
 62
     0
370
    -2
100
AcDbLine
 10
425.7318049542743
 20
150.8991381539026
 30
0.0
 11
427.7318049542743
 21
150.8991381539026
 31
0.0
  0
SOLID
  5
153C
330
1536
100
AcDbEntity
  8
文字
 62
     0
100
AcDbTrace
 10
423.2318049542743
 20
151.3158048205692
 30
0.0
 11
423.2318049542743
 21
150.4824714872359
 31
0.0
 12
425.7318049542743
 22
150.8991381539026
 32
0.0
 13
425.7318049542743
 23
150.8991381539026
 33
0.0
  0
SOLID
  5
153D
330
1536
100
AcDbEntity
  8
文字
 62
     0
100
AcDbTrace
 10
430.2318049542743
 20
151.3158048205692
 30
0.0
 11
430.2318049542743
 21
150.4824714872359
 31
0.0
 12
427.7318049542743
 22
150.8991381539026
 32
0.0
 13
427.7318049542743
 23
150.8991381539026
 33
0.0
  0
MTEXT
  5
153E
330
1536
100
AcDbEntity
  8
文字
 62
     0
100
AcDbMText
 10
434.1901382876076
 20
152.7741381539026
 30
0.0
 40
2.5
 41
0.0
 46
0.0
 71
     5
 72
     1
  1
2
 73
     1
 44
1.0
  0
POINT
  5
153F
330
1536
100
AcDbEntity
  8
Defpoints
 62
     0
100
AcDbPoint
 10
425.7318049542743
 20
143.4043266621083
 30
0.0
  0
POINT
  5
1540
330
1536
100
AcDbEntity
  8
Defpoints
 62
     0
100
AcDbPoint
 10
427.7318049542743
 20
143.4043266621083
 30
0.0
  0
POINT
  5
1541
330
1536
100
AcDbEntity
  8
Defpoints
 62
     0
100
AcDbPoint
 10
427.7318049542743
 20
150.8991381539026
 30
0.0
  0
ENDBLK
  5
1543
330
1536
100
AcDbEntity
  8
0
100
AcDbBlockEnd
  0
BLOCK
  5
1550
330
1544
100
AcDbEntity
  8
0
100
AcDbBlockBegin
  2
*D11
 70
     1
 10
0.0
 20
0.0
 30
0.0
  3
*D11
  1
*D15
  0
LINE
  5
1545
330
1544
100
AcDbEntity
  8
文字
 62
     0
370
    -2
100
AcDbLine
 10
425.1068049542743
 20
143.4043266621083
 30
0.0
 11
412.872333099033
 21
143.4043266621083
 31
0.0
  0
LINE
  5
1546
330
1544
100
AcDbEntity
  8
文字
 62
     0
370
    -2
100
AcDbLine
 10
425.1068049542743
 20
141.4043266621083
 30
0.0
 11
412.872333099033
 21
141.4043266621083
 31
0.0
  0
LINE
  5
1547
330
1544
100
AcDbEntity
  8
文字
 62
     0
370
    -2
100
AcDbLine
 10
414.122333099033
 20
145.9043266621083
 30
0.0
 11
414.122333099033
 21
148.4043266621083
 31
0.0
  0
LINE
  5
1548
330
1544
100
AcDbEntity
  8
文字
 62
     0
370
    -2
100
AcDbLine
 10
414.122333099033
 20
138.9043266621083
 30
0.0
 11
414.122333099033
 21
133.4876599954416
 31
0.0
  0
LINE
  5
1549
330
1544
100
AcDbEntity
  8
文字
 62
     0
370
    -2
100
AcDbLine
 10
414.122333099033
 20
143.4043266621083
 30
0.0
 11
414.122333099033
 21
141.4043266621083
 31
0.0
  0
SOLID
  5
154A
330
1544
100
AcDbEntity
  8
文字
 62
     0
100
AcDbTrace
 10
413.7056664323663
 20
145.9043266621083
 30
0.0
 11
414.5389997656997
 21
145.9043266621083
 31
0.0
 12
414.122333099033
 22
143.4043266621083
 32
0.0
 13
414.122333099033
 23
143.4043266621083
 33
0.0
  0
SOLID
  5
154B
330
1544
100
AcDbEntity
  8
文字
 62
     0
100
AcDbTrace
 10
413.7056664323663
 20
138.9043266621083
 30
0.0
 11
414.5389997656997
 21
138.9043266621083
 31
0.0
 12
414.122333099033
 22
141.4043266621083
 32
0.0
 13
414.122333099033
 23
141.4043266621083
 33
0.0
  0
MTEXT
  5
154C
330
1544
100
AcDbEntity
  8
文字
 62
     0
100
AcDbMText
 10
412.2473330990329
 20
134.945993328775
 30
0.0
 40
2.5
 41
0.0
 46
0.0
 71
     5
 72
     1
  1
2
 11
6.123031769111886E-17
 21
1.0
 31
0.0
 73
     1
 44
1.0
  0
POINT
  5
154D
330
1544
100
AcDbEntity
  8
Defpoints
 62
     0
100
AcDbPoint
 10
425.7318049542743
 20
143.4043266621083
 30
0.0
  0
POINT
  5
154E
330
1544
100
AcDbEntity
  8
Defpoints
 62
     0
100
AcDbPoint
 10
425.7318049542743
 20
141.4043266621083
 30
0.0
  0
POINT
  5
154F
330
1544
100
AcDbEntity
  8
Defpoints
 62
     0
100
AcDbPoint
 10
414.122333099033
 20
141.4043266621083
 30
0.0
  0
ENDBLK
  5
1551
330
1544
100
AcDbEntity
  8
0
100
AcDbBlockEnd
  0
BLOCK
  5
159B
330
158F
100
AcDbEntity
  8
0
100
AcDbBlockBegin
  2
*D12
 70
     1
 10
0.0
 20
0.0
 30
0.0
  3
*D12
  1
*D16
  0
LINE
  5
1590
330
158F
100
AcDbEntity
  8
文字
 62
     0
370
    -2
100
AcDbLine
 10
93.55589935773583
 20
-109.6570369541928
 30
0.0
 11
80.27792492770334
 21
-109.6570369541928
 31
0.0
  0
LINE
  5
1591
330
158F
100
AcDbEntity
  8
文字
 62
     0
370
    -2
100
AcDbLine
 10
93.55589935773583
 20
-111.2570369541928
 30
0.0
 11
80.27792492770334
 21
-111.2570369541928
 31
0.0
  0
LINE
  5
1592
330
158F
100
AcDbEntity
  8
文字
 62
     0
370
    -2
100
AcDbLine
 10
81.52792492770334
 20
-107.1570369541928
 30
0.0
 11
81.52792492770334
 21
-104.6570369541928
 31
0.0
  0
LINE
  5
1593
330
158F
100
AcDbEntity
  8
文字
 62
     0
370
    -2
100
AcDbLine
 10
81.52792492770334
 20
-113.7570369541928
 30
0.0
 11
81.52792492770334
 21
-121.6737036208595
 31
0.0
  0
LINE
  5
1594
330
158F
100
AcDbEntity
  8
文字
 62
     0
370
    -2
100
AcDbLine
 10
81.52792492770334
 20
-109.6570369541928
 30
0.0
 11
81.52792492770334
 21
-111.2570369541928
 31
0.0
  0
SOLID
  5
1595
330
158F
100
AcDbEntity
  8
文字
 62
     0
100
AcDbTrace
 10
81.11125826103667
 20
-107.1570369541928
 30
0.0
 11
81.94459159437001
 21
-107.1570369541928
 31
0.0
 12
81.52792492770334
 22
-109.6570369541928
 32
0.0
 13
81.52792492770334
 23
-109.6570369541928
 33
0.0
  0
SOLID
  5
1596
330
158F
100
AcDbEntity
  8
文字
 62
     0
100
AcDbTrace
 10
81.11125826103667
 20
-113.7570369541928
 30
0.0
 11
81.94459159437001
 21
-113.7570369541928
 31
0.0
 12
81.52792492770334
 22
-111.2570369541928
 32
0.0
 13
81.52792492770334
 23
-111.2570369541928
 33
0.0
  0
MTEXT
  5
1597
330
158F
100
AcDbEntity
  8
文字
 62
     0
100
AcDbMText
 10
79.65292492770335
 20
-118.9653702875262
 30
0.0
 40
2.5
 41
0.0
 46
0.0
 71
     5
 72
     1
  1
1.6
 11
6.123031769111886E-17
 21
1.0
 31
0.0
 73
     1
 44
1.0
  0
POINT
  5
1598
330
158F
100
AcDbEntity
  8
Defpoints
 62
     0
100
AcDbPoint
 10
94.18089935773583
 20
-109.6570369541928
 30
0.0
  0
POINT
  5
1599
330
158F
100
AcDbEntity
  8
Defpoints
 62
     0
100
AcDbPoint
 10
94.18089935773583
 20
-111.2570369541928
 30
0.0
  0
POINT
  5
159A
330
158F
100
AcDbEntity
  8
Defpoints
 62
     0
100
AcDbPoint
 10
81.52792492770334
 20
-111.2570369541928
 30
0.0
  0
ENDBLK
  5
159C
330
158F
100
AcDbEntity
  8
0
100
AcDbBlockEnd
  0
BLOCK
  5
15A7
330
159D
100
AcDbEntity
  8
0
100
AcDbBlockBegin
  2
*D13
 70
     1
 10
0.0
 20
0.0
 30
0.0
  3
*D13
  1
*D17
  0
LINE
  5
159E
330
159D
100
AcDbEntity
  8
文字
 62
     0
370
    -2
100
AcDbLine
 10
94.18089935773583
 20
-111.8820369541928
 30
0.0
 11
94.18089935773583
 21
-130.1218098445285
 31
0.0
  0
LINE
  5
159F
330
159D
100
AcDbEntity
  8
文字
 62
     0
370
    -2
100
AcDbLine
 10
124.1808993577358
 20
-111.8820369541929
 30
0.0
 11
124.1808993577358
 21
-130.1218098445285
 31
0.0
  0
LINE
  5
15A0
330
159D
100
AcDbEntity
  8
文字
 62
     0
370
    -2
100
AcDbLine
 10
96.68089935773583
 20
-128.8718098445285
 30
0.0
 11
121.6808993577358
 21
-128.8718098445285
 31
0.0
  0
SOLID
  5
15A1
330
159D
100
AcDbEntity
  8
文字
 62
     0
100
AcDbTrace
 10
96.68089935773583
 20
-128.4551431778619
 30
0.0
 11
96.68089935773583
 21
-129.2884765111952
 31
0.0
 12
94.18089935773583
 22
-128.8718098445285
 32
0.0
 13
94.18089935773583
 23
-128.8718098445285
 33
0.0
  0
SOLID
  5
15A2
330
159D
100
AcDbEntity
  8
文字
 62
     0
100
AcDbTrace
 10
121.6808993577358
 20
-128.4551431778619
 30
0.0
 11
121.6808993577358
 21
-129.2884765111952
 31
0.0
 12
124.1808993577358
 22
-128.8718098445285
 32
0.0
 13
124.1808993577358
 23
-128.8718098445285
 33
0.0
  0
MTEXT
  5
15A3
330
159D
100
AcDbEntity
  8
文字
 62
     0
100
AcDbMText
 10
109.1808993577358
 20
-126.9968098445285
 30
0.0
 40
2.5
 41
0.0
 46
0.0
 71
     5
 72
     1
  1
%%c30
 73
     1
 44
1.0
  0
POINT
  5
15A4
330
159D
100
AcDbEntity
  8
Defpoints
 62
     0
100
AcDbPoint
 10
94.18089935773583
 20
-111.2570369541928
 30
0.0
  0
POINT
  5
15A5
330
159D
100
AcDbEntity
  8
Defpoints
 62
     0
100
AcDbPoint
 10
124.1808993577358
 20
-111.2570369541929
 30
0.0
  0
POINT
  5
15A6
330
159D
100
AcDbEntity
  8
Defpoints
 62
     0
100
AcDbPoint
 10
124.1808993577358
 20
-128.8718098445285
 30
0.0
  0
ENDBLK
  5
15A8
330
159D
100
AcDbEntity
  8
0
100
AcDbBlockEnd
  0
BLOCK
  5
15B3
330
15A9
100
AcDbEntity
  8
0
100
AcDbBlockBegin
  2
*D14
 70
     1
 10
0.0
 20
0.0
 30
0.0
  3
*D14
  1
*D18
  0
LINE
  5
1601
330
15A9
100
AcDbEntity
  8
文字
 62
     0
370
    -2
100
AcDbLine
 10
103.1808993577358
 20
-61.85625308791953
 30
0.0
 11
103.1808993577358
 21
-43.09233727022115
 31
0.0
  0
LINE
  5
1602
330
15A9
100
AcDbEntity
  8
文字
 62
     0
370
    -2
100
AcDbLine
 10
115.1808993577358
 20
-61.85625308791953
 30
0.0
 11
115.1808993577358
 21
-43.09233727022115
 31
0.0
  0
LINE
  5
1603
330
15A9
100
AcDbEntity
  8
文字
 62
     0
370
    -2
100
AcDbLine
 10
105.6808993577358
 20
-44.34233727022115
 30
0.0
 11
112.6808993577358
 21
-44.34233727022115
 31
0.0
  0
SOLID
  5
1604
330
15A9
100
AcDbEntity
  8
文字
 62
     0
100
AcDbTrace
 10
105.6808993577358
 20
-43.92567060355449
 30
0.0
 11
105.6808993577358
 21
-44.75900393688782
 31
0.0
 12
103.1808993577358
 22
-44.34233727022115
 32
0.0
 13
103.1808993577358
 23
-44.34233727022115
 33
0.0
  0
SOLID
  5
1605
330
15A9
100
AcDbEntity
  8
文字
 62
     0
100
AcDbTrace
 10
112.6808993577358
 20
-43.92567060355449
 30
0.0
 11
112.6808993577358
 21
-44.75900393688782
 31
0.0
 12
115.1808993577358
 22
-44.34233727022115
 32
0.0
 13
115.1808993577358
 23
-44.34233727022115
 33
0.0
  0
MTEXT
  5
1606
330
15A9
100
AcDbEntity
  8
文字
 62
     0
100
AcDbMText
 10
109.1808993577358
 20
-42.46733727022115
 30
0.0
 40
2.5
 41
0.0
 46
0.0
 71
     5
 72
     1
  1
{\fArial|b0|i0|c0|p32;D}
 73
     1
 44
1.0
  0
POINT
  5
1607
330
15A9
100
AcDbEntity
  8
Defpoints
 62
     0
100
AcDbPoint
 10
103.1808993577358
 20
-62.48125308791953
 30
0.0
  0
POINT
  5
1608
330
15A9
100
AcDbEntity
  8
Defpoints
 62
     0
100
AcDbPoint
 10
115.1808993577358
 20
-62.48125308791953
 30
0.0
  0
POINT
  5
1609
330
15A9
100
AcDbEntity
  8
Defpoints
 62
     0
100
AcDbPoint
 10
115.1808993577358
 20
-44.34233727022115
 30
0.0
  0
ENDBLK
  5
15B4
330
15A9
100
AcDbEntity
  8
0
100
AcDbBlockEnd
  0
BLOCK
  5
15BF
330
15B5
100
AcDbEntity
  8
0
100
AcDbBlockBegin
  2
*D15
 70
     1
 10
0.0
 20
0.0
 30
0.0
  3
*D15
  1
*D19
  0
LINE
  5
15B6
330
15B5
100
AcDbEntity
  8
文字
 62
     0
370
    -2
100
AcDbLine
 10
124.8058993577358
 20
-111.2570369541929
 30
0.0
 11
143.4085765263776
 21
-111.2570369541929
 31
0.0
  0
LINE
  5
15B7
330
15B5
100
AcDbEntity
  8
文字
 62
     0
370
    -2
100
AcDbLine
 10
119.3452913719053
 20
-97.48125308791953
 30
0.0
 11
143.4085765263776
 21
-97.48125308791953
 31
0.0
  0
LINE
  5
15B8
330
15B5
100
AcDbEntity
  8
文字
 62
     0
370
    -2
100
AcDbLine
 10
142.1585765263776
 20
-108.7570369541929
 30
0.0
 11
142.1585765263776
 21
-99.98125308791953
 31
0.0
  0
SOLID
  5
15B9
330
15B5
100
AcDbEntity
  8
文字
 62
     0
100
AcDbTrace
 10
141.7419098597109
 20
-108.7570369541929
 30
0.0
 11
142.5752431930443
 21
-108.7570369541929
 31
0.0
 12
142.1585765263776
 22
-111.2570369541929
 32
0.0
 13
142.1585765263776
 23
-111.2570369541929
 33
0.0
  0
SOLID
  5
15BA
330
15B5
100
AcDbEntity
  8
文字
 62
     0
100
AcDbTrace
 10
141.7419098597109
 20
-99.98125308791953
 30
0.0
 11
142.5752431930443
 21
-99.98125308791953
 31
0.0
 12
142.1585765263776
 22
-97.48125308791953
 32
0.0
 13
142.1585765263776
 23
-97.48125308791953
 33
0.0
  0
MTEXT
  5
15BB
330
15B5
100
AcDbEntity
  8
文字
 62
     0
100
AcDbMText
 10
140.2835765263776
 20
-104.3691450210562
 30
0.0
 40
2.5
 41
0.0
 46
0.0
 71
     5
 72
     1
  1
13
 11
6.123031769111886E-17
 21
1.0
 31
0.0
 73
     1
 44
1.0
  0
POINT
  5
15BC
330
15B5
100
AcDbEntity
  8
Defpoints
 62
     0
100
AcDbPoint
 10
124.1808993577358
 20
-111.2570369541929
 30
0.0
  0
POINT
  5
15BD
330
15B5
100
AcDbEntity
  8
Defpoints
 62
     0
100
AcDbPoint
 10
118.7202913719053
 20
-97.48125308791953
 30
0.0
  0
POINT
  5
15BE
330
15B5
100
AcDbEntity
  8
Defpoints
 62
     0
100
AcDbPoint
 10
142.1585765263776
 20
-97.48125308791953
 30
0.0
  0
ENDBLK
  5
15C0
330
15B5
100
AcDbEntity
  8
0
100
AcDbBlockEnd
  0
BLOCK
  5
15CB
330
15C1
100
AcDbEntity
  8
0
100
AcDbBlockBegin
  2
*D16
 70
     1
 10
0.0
 20
0.0
 30
0.0
  3
*D16
  1
*D20
  0
LINE
  5
160A
330
15C1
100
AcDbEntity
  8
文字
 62
     0
370
    -2
100
AcDbLine
 10
113.8058993577358
 20
-60.48125308791953
 30
0.0
 11
143.4085765263776
 21
-60.48125308791953
 31
0.0
  0
LINE
  5
160B
330
15C1
100
AcDbEntity
  8
文字
 62
     0
370
    -2
100
AcDbLine
 10
119.3452913719053
 20
-97.48125308791953
 30
0.0
 11
143.4085765263776
 21
-97.48125308791953
 31
0.0
  0
LINE
  5
160C
330
15C1
100
AcDbEntity
  8
文字
 62
     0
370
    -2
100
AcDbLine
 10
142.1585765263776
 20
-62.98125308791953
 30
0.0
 11
142.1585765263776
 21
-94.98125308791953
 31
0.0
  0
SOLID
  5
160D
330
15C1
100
AcDbEntity
  8
文字
 62
     0
100
AcDbTrace
 10
141.741909859711
 20
-62.98125308791953
 30
0.0
 11
142.5752431930443
 21
-62.98125308791953
 31
0.0
 12
142.1585765263776
 22
-60.48125308791953
 32
0.0
 13
142.1585765263776
 23
-60.48125308791953
 33
0.0
  0
SOLID
  5
160E
330
15C1
100
AcDbEntity
  8
文字
 62
     0
100
AcDbTrace
 10
141.7419098597109
 20
-94.98125308791953
 30
0.0
 11
142.5752431930443
 21
-94.98125308791953
 31
0.0
 12
142.1585765263776
 22
-97.48125308791953
 32
0.0
 13
142.1585765263776
 23
-97.48125308791953
 33
0.0
  0
MTEXT
  5
160F
330
15C1
100
AcDbEntity
  8
文字
 62
     0
100
AcDbMText
 10
140.2784605645768
 20
-78.98125308791951
 30
0.0
 40
2.5
 41
0.0
 46
0.0
 71
     5
 72
     1
  1
{\fArial|b0|i0|c0|p32;L1}
 11
6.123031769111886E-17
 21
1.0
 31
0.0
 73
     1
 44
1.0
  0
POINT
  5
1610
330
15C1
100
AcDbEntity
  8
Defpoints
 62
     0
100
AcDbPoint
 10
113.1808993577358
 20
-60.48125308791953
 30
0.0
  0
POINT
  5
1611
330
15C1
100
AcDbEntity
  8
Defpoints
 62
     0
100
AcDbPoint
 10
118.7202913719053
 20
-97.48125308791953
 30
0.0
  0
POINT
  5
1612
330
15C1
100
AcDbEntity
  8
Defpoints
 62
     0
100
AcDbPoint
 10
142.1585765263776
 20
-97.48125308791953
 30
0.0
  0
ENDBLK
  5
15CC
330
15C1
100
AcDbEntity
  8
0
100
AcDbBlockEnd
  0
BLOCK
  5
15D9
330
15CD
100
AcDbEntity
  8
0
100
AcDbBlockBegin
  2
*D17
 70
     1
 10
0.0
 20
0.0
 30
0.0
  3
*D17
  1
*D21
  0
LINE
  5
15CE
330
15CD
100
AcDbEntity
  8
文字
 62
     0
370
    -2
100
AcDbLine
 10
108.1808993577358
 20
-59.85625308791953
 30
0.0
 11
108.1808993577358
 21
-51.73644159612525
 31
0.0
  0
LINE
  5
15CF
330
15CD
100
AcDbEntity
  8
文字
 62
     0
370
    -2
100
AcDbLine
 10
110.1808993577358
 20
-59.85625308791953
 30
0.0
 11
110.1808993577358
 21
-51.73644159612525
 31
0.0
  0
LINE
  5
15D0
330
15CD
100
AcDbEntity
  8
文字
 62
     0
370
    -2
100
AcDbLine
 10
105.6808993577358
 20
-52.98644159612525
 30
0.0
 11
103.1808993577358
 21
-52.98644159612525
 31
0.0
  0
LINE
  5
15D1
330
15CD
100
AcDbEntity
  8
文字
 62
     0
370
    -2
100
AcDbLine
 10
112.6808993577358
 20
-52.98644159612525
 30
0.0
 11
118.0975660244025
 21
-52.98644159612525
 31
0.0
  0
LINE
  5
15D2
330
15CD
100
AcDbEntity
  8
文字
 62
     0
370
    -2
100
AcDbLine
 10
108.1808993577358
 20
-52.98644159612525
 30
0.0
 11
110.1808993577358
 21
-52.98644159612525
 31
0.0
  0
SOLID
  5
15D3
330
15CD
100
AcDbEntity
  8
文字
 62
     0
100
AcDbTrace
 10
105.6808993577358
 20
-52.56977492945858
 30
0.0
 11
105.6808993577358
 21
-53.40310826279191
 31
0.0
 12
108.1808993577358
 22
-52.98644159612525
 32
0.0
 13
108.1808993577358
 23
-52.98644159612525
 33
0.0
  0
SOLID
  5
15D4
330
15CD
100
AcDbEntity
  8
文字
 62
     0
100
AcDbTrace
 10
112.6808993577358
 20
-52.56977492945858
 30
0.0
 11
112.6808993577358
 21
-53.40310826279191
 31
0.0
 12
110.1808993577358
 22
-52.98644159612525
 32
0.0
 13
110.1808993577358
 23
-52.98644159612525
 33
0.0
  0
MTEXT
  5
15D5
330
15CD
100
AcDbEntity
  8
文字
 62
     0
100
AcDbMText
 10
116.6392326910691
 20
-51.11144159612525
 30
0.0
 40
2.5
 41
0.0
 46
0.0
 71
     5
 72
     1
  1
2
 73
     1
 44
1.0
  0
POINT
  5
15D6
330
15CD
100
AcDbEntity
  8
Defpoints
 62
     0
100
AcDbPoint
 10
108.1808993577358
 20
-60.48125308791953
 30
0.0
  0
POINT
  5
15D7
330
15CD
100
AcDbEntity
  8
Defpoints
 62
     0
100
AcDbPoint
 10
110.1808993577358
 20
-60.48125308791953
 30
0.0
  0
POINT
  5
15D8
330
15CD
100
AcDbEntity
  8
Defpoints
 62
     0
100
AcDbPoint
 10
110.1808993577358
 20
-52.98644159612525
 30
0.0
  0
ENDBLK
  5
15DA
330
15CD
100
AcDbEntity
  8
0
100
AcDbBlockEnd
  0
BLOCK
  5
15E7
330
15DB
100
AcDbEntity
  8
0
100
AcDbBlockBegin
  2
*D18
 70
     1
 10
0.0
 20
0.0
 30
0.0
  3
*D18
  1
*D22
  0
LINE
  5
15DC
330
15DB
100
AcDbEntity
  8
文字
 62
     0
370
    -2
100
AcDbLine
 10
107.5558993577358
 20
-60.48125308791953
 30
0.0
 11
95.32142750249444
 21
-60.48125308791953
 31
0.0
  0
LINE
  5
15DD
330
15DB
100
AcDbEntity
  8
文字
 62
     0
370
    -2
100
AcDbLine
 10
107.5558993577358
 20
-62.48125308791953
 30
0.0
 11
95.32142750249444
 21
-62.48125308791953
 31
0.0
  0
LINE
  5
15DE
330
15DB
100
AcDbEntity
  8
文字
 62
     0
370
    -2
100
AcDbLine
 10
96.57142750249444
 20
-57.98125308791953
 30
0.0
 11
96.57142750249444
 21
-55.48125308791953
 31
0.0
  0
LINE
  5
15DF
330
15DB
100
AcDbEntity
  8
文字
 62
     0
370
    -2
100
AcDbLine
 10
96.57142750249444
 20
-64.98125308791953
 30
0.0
 11
96.57142750249444
 21
-70.39791975458621
 31
0.0
  0
LINE
  5
15E0
330
15DB
100
AcDbEntity
  8
文字
 62
     0
370
    -2
100
AcDbLine
 10
96.57142750249444
 20
-60.48125308791953
 30
0.0
 11
96.57142750249444
 21
-62.48125308791953
 31
0.0
  0
SOLID
  5
15E1
330
15DB
100
AcDbEntity
  8
文字
 62
     0
100
AcDbTrace
 10
96.15476083582777
 20
-57.98125308791953
 30
0.0
 11
96.98809416916112
 21
-57.98125308791953
 31
0.0
 12
96.57142750249444
 22
-60.48125308791953
 32
0.0
 13
96.57142750249444
 23
-60.48125308791953
 33
0.0
  0
SOLID
  5
15E2
330
15DB
100
AcDbEntity
  8
文字
 62
     0
100
AcDbTrace
 10
96.15476083582777
 20
-64.98125308791953
 30
0.0
 11
96.98809416916112
 21
-64.98125308791953
 31
0.0
 12
96.57142750249444
 22
-62.48125308791953
 32
0.0
 13
96.57142750249444
 23
-62.48125308791953
 33
0.0
  0
MTEXT
  5
15E3
330
15DB
100
AcDbEntity
  8
文字
 62
     0
100
AcDbMText
 10
94.69642750249446
 20
-68.93958642125284
 30
0.0
 40
2.5
 41
0.0
 46
0.0
 71
     5
 72
     1
  1
2
 11
6.123031769111886E-17
 21
1.0
 31
0.0
 73
     1
 44
1.0
  0
POINT
  5
15E4
330
15DB
100
AcDbEntity
  8
Defpoints
 62
     0
100
AcDbPoint
 10
108.1808993577358
 20
-60.48125308791953
 30
0.0
  0
POINT
  5
15E5
330
15DB
100
AcDbEntity
  8
Defpoints
 62
     0
100
AcDbPoint
 10
108.1808993577358
 20
-62.48125308791953
 30
0.0
  0
POINT
  5
15E6
330
15DB
100
AcDbEntity
  8
Defpoints
 62
     0
100
AcDbPoint
 10
96.57142750249444
 20
-62.48125308791953
 30
0.0
  0
ENDBLK
  5
15E8
330
15DB
100
AcDbEntity
  8
0
100
AcDbBlockEnd
  0
BLOCK
  5
15F4
330
15EA
100
AcDbEntity
  8
0
100
AcDbBlockBegin
  2
*D19
 70
     1
 10
0.0
 20
0.0
 30
0.0
  3
*D19
  1
*D23
  0
LINE
  5
1613
330
15EA
100
AcDbEntity
  8
文字
 62
     0
370
    -2
100
AcDbLine
 10
113.8058993577358
 20
-60.48125308791953
 30
0.0
 11
161.6752569475414
 21
-60.48125308791953
 31
0.0
  0
LINE
  5
1614
330
15EA
100
AcDbEntity
  8
文字
 62
     0
370
    -2
100
AcDbLine
 10
125.4308993577358
 20
-111.2570369541929
 30
0.0
 11
161.6752569475414
 21
-111.2570369541929
 31
0.0
  0
LINE
  5
1615
330
15EA
100
AcDbEntity
  8
文字
 62
     0
370
    -2
100
AcDbLine
 10
160.4252569475414
 20
-62.98125308791953
 30
0.0
 11
160.4252569475414
 21
-108.7570369541929
 31
0.0
  0
SOLID
  5
1616
330
15EA
100
AcDbEntity
  8
文字
 62
     0
100
AcDbTrace
 10
160.0085902808747
 20
-62.98125308791953
 30
0.0
 11
160.841923614208
 21
-62.98125308791953
 31
0.0
 12
160.4252569475414
 22
-60.48125308791953
 32
0.0
 13
160.4252569475414
 23
-60.48125308791953
 33
0.0
  0
SOLID
  5
1617
330
15EA
100
AcDbEntity
  8
文字
 62
     0
100
AcDbTrace
 10
160.0085902808747
 20
-108.7570369541929
 30
0.0
 11
160.841923614208
 21
-108.7570369541929
 31
0.0
 12
160.4252569475414
 22
-111.2570369541929
 32
0.0
 13
160.4252569475414
 23
-111.2570369541929
 33
0.0
  0
MTEXT
  5
1618
330
15EA
100
AcDbEntity
  8
文字
 62
     0
100
AcDbMText
 10
158.5451409857406
 20
-85.86914502105618
 30
0.0
 40
2.5
 41
0.0
 46
0.0
 71
     5
 72
     1
  1
{\fArial|b0|i0|c0|p32;L2}
 11
6.123031769111886E-17
 21
1.0
 31
0.0
 73
     1
 44
1.0
  0
POINT
  5
1619
330
15EA
100
AcDbEntity
  8
Defpoints
 62
     0
100
AcDbPoint
 10
113.1808993577358
 20
-60.48125308791953
 30
0.0
  0
POINT
  5
161A
330
15EA
100
AcDbEntity
  8
Defpoints
 62
     0
100
AcDbPoint
 10
124.8058993577358
 20
-111.2570369541929
 30
0.0
  0
POINT
  5
161B
330
15EA
100
AcDbEntity
  8
Defpoints
 62
     0
100
AcDbPoint
 10
160.4252569475414
 20
-111.2570369541929
 30
0.0
  0
ENDBLK
  5
15F5
330
15EA
100
AcDbEntity
  8
0
100
AcDbBlockEnd
  0
BLOCK
  5
16A6
330
16A5
100
AcDbEntity
  8
0
100
AcDbBlockBegin
  2
*D20
 70
     1
 10
0.0
 20
0.0
 30
0.0
  3
*D20
  1
*D21
  0
LINE
  5
16A7
330
16A5
100
AcDbEntity
  8
文字
 62
     0
370
    -2
100
AcDbLine
 10
46.27965068535359
 20
34.76381968519637
 30
0.0
 11
46.27965068535359
 21
6.73904507074586
 31
0.0
  0
LINE
  5
16A8
330
16A5
100
AcDbEntity
  8
文字
 62
     0
370
    -2
100
AcDbLine
 10
22.27965068535359
 20
34.76381968519637
 30
0.0
 11
22.27965068535359
 21
6.73904507074586
 31
0.0
  0
LINE
  5
16A9
330
16A5
100
AcDbEntity
  8
文字
 62
     0
370
    -2
100
AcDbLine
 10
43.77965068535359
 20
7.98904507074586
 30
0.0
 11
24.77965068535359
 21
7.98904507074586
 31
0.0
  0
SOLID
  5
16AA
330
16A5
100
AcDbEntity
  8
文字
 62
     0
100
AcDbTrace
 10
43.77965068535359
 20
7.572378404079193
 30
0.0
 11
43.77965068535359
 21
8.405711737412526
 31
0.0
 12
46.27965068535359
 22
7.98904507074586
 32
0.0
 13
46.27965068535359
 23
7.98904507074586
 33
0.0
  0
SOLID
  5
16AB
330
16A5
100
AcDbEntity
  8
文字
 62
     0
100
AcDbTrace
 10
24.77965068535359
 20
8.405711737412526
 30
0.0
 11
24.77965068535359
 21
7.572378404079193
 31
0.0
 12
22.27965068535359
 22
7.98904507074586
 32
0.0
 13
22.27965068535359
 23
7.98904507074586
 33
0.0
  0
MTEXT
  5
16AC
330
16A5
100
AcDbEntity
  8
文字
 62
     0
100
AcDbMText
 10
39.96654160719113
 20
9.86404507074586
 30
0.0
 40
2.5
 41
0.0
 46
0.0
 71
     5
 72
     1
  1
%%c24
 73
     1
 44
1.0
  0
POINT
  5
16AD
330
16A5
100
AcDbEntity
  8
Defpoints
 62
     0
100
AcDbPoint
 10
46.27965068535359
 20
35.38881968519637
 30
0.0
  0
POINT
  5
16AE
330
16A5
100
AcDbEntity
  8
Defpoints
 62
     0
100
AcDbPoint
 10
22.27965068535359
 20
35.38881968519637
 30
0.0
  0
POINT
  5
16AF
330
16A5
100
AcDbEntity
  8
Defpoints
 62
     0
100
AcDbPoint
 10
22.27965068535359
 20
7.98904507074586
 30
0.0
  0
ENDBLK
  5
16B0
330
16A5
100
AcDbEntity
  8
0
100
AcDbBlockEnd
  0
BLOCK
  5
16B5
330
16B4
100
AcDbEntity
  8
0
100
AcDbBlockBegin
  2
*D21
 70
     1
 10
0.0
 20
0.0
 30
0.0
  3
*D21
  1
*D22
  0
LINE
  5
16B6
330
16B4
100
AcDbEntity
  8
文字
 62
     0
370
    -2
100
AcDbLine
 10
37.27965068535359
 20
29.56381968519639
 30
0.0
 11
37.27965068535359
 21
17.35912756985376
 31
0.0
  0
LINE
  5
16B7
330
16B4
100
AcDbEntity
  8
文字
 62
     0
370
    -2
100
AcDbLine
 10
31.27965068535359
 20
29.56381968519639
 30
0.0
 11
31.27965068535359
 21
17.35912756985376
 31
0.0
  0
LINE
  5
16B8
330
16B4
100
AcDbEntity
  8
文字
 62
     0
370
    -2
100
AcDbLine
 10
37.27965068535359
 20
18.60912756985376
 30
0.0
 11
45.19631735202028
 21
18.60912756985376
 31
0.0
  0
LINE
  5
16B9
330
16B4
100
AcDbEntity
  8
文字
 62
     0
370
    -2
100
AcDbLine
 10
37.27965068535359
 20
18.60912756985376
 30
0.0
 11
31.27965068535359
 21
18.60912756985376
 31
0.0
  0
LINE
  5
16BA
330
16B4
100
AcDbEntity
  8
文字
 62
     0
370
    -2
100
AcDbLine
 10
39.77965068535359
 20
18.60912756985376
 30
0.0
 11
42.27965068535359
 21
18.60912756985376
 31
0.0
  0
LINE
  5
16BB
330
16B4
100
AcDbEntity
  8
文字
 62
     0
370
    -2
100
AcDbLine
 10
28.77965068535359
 20
18.60912756985376
 30
0.0
 11
26.27965068535359
 21
18.60912756985376
 31
0.0
  0
SOLID
  5
16BC
330
16B4
100
AcDbEntity
  8
文字
 62
     0
100
AcDbTrace
 10
39.77965068535359
 20
19.02579423652043
 30
0.0
 11
39.77965068535359
 21
18.19246090318709
 31
0.0
 12
37.27965068535359
 22
18.60912756985376
 32
0.0
 13
37.27965068535359
 23
18.60912756985376
 33
0.0
  0
SOLID
  5
16BD
330
16B4
100
AcDbEntity
  8
文字
 62
     0
100
AcDbTrace
 10
28.77965068535359
 20
18.19246090318709
 30
0.0
 11
28.77965068535359
 21
19.02579423652043
 31
0.0
 12
31.27965068535359
 22
18.60912756985376
 32
0.0
 13
31.27965068535359
 23
18.60912756985376
 33
0.0
  0
MTEXT
  5
16BE
330
16B4
100
AcDbEntity
  8
文字
 62
     0
100
AcDbMText
 10
43.73798401868694
 20
20.48412756985376
 30
0.0
 40
2.5
 41
0.0
 46
0.0
 71
     5
 72
     1
  1
6
 73
     1
 44
1.0
  0
POINT
  5
16BF
330
16B4
100
AcDbEntity
  8
Defpoints
 62
     0
100
AcDbPoint
 10
37.27965068535359
 20
30.18881968519639
 30
0.0
  0
POINT
  5
16C0
330
16B4
100
AcDbEntity
  8
Defpoints
 62
     0
100
AcDbPoint
 10
31.27965068535359
 20
30.18881968519639
 30
0.0
  0
POINT
  5
16C1
330
16B4
100
AcDbEntity
  8
Defpoints
 62
     0
100
AcDbPoint
 10
31.27965068535359
 20
18.60912756985376
 30
0.0
  0
ENDBLK
  5
16C2
330
16B4
100
AcDbEntity
  8
0
100
AcDbBlockEnd
  0
BLOCK
  5
16C6
330
16C5
100
AcDbEntity
  8
0
100
AcDbBlockBegin
  2
*D22
 70
     1
 10
0.0
 20
0.0
 30
0.0
  3
*D22
  1
*D23
  0
LINE
  5
16C7
330
16C5
100
AcDbEntity
  8
文字
 62
     0
370
    -2
100
AcDbLine
 10
50.77965068535354
 20
32.16381968519641
 30
0.0
 11
50.77965068535354
 21
0.0
 31
0.0
  0
LINE
  5
16C8
330
16C5
100
AcDbEntity
  8
文字
 62
     0
370
    -2
100
AcDbLine
 10
17.77965068535353
 20
32.16381968519641
 30
0.0
 11
17.77965068535353
 21
0.0
 31
0.0
  0
LINE
  5
16C9
330
16C5
100
AcDbEntity
  8
文字
 62
     0
370
    -2
100
AcDbLine
 10
48.27965068535354
 20
1.25
 30
0.0
 11
20.27965068535353
 21
1.25
 31
0.0
  0
SOLID
  5
16CA
330
16C5
100
AcDbEntity
  8
文字
 62
     0
100
AcDbTrace
 10
48.27965068535354
 20
0.8333333333333333
 30
0.0
 11
48.27965068535354
 21
1.666666666666667
 31
0.0
 12
50.77965068535354
 22
1.25
 32
0.0
 13
50.77965068535354
 23
1.25
 33
0.0
  0
SOLID
  5
16CB
330
16C5
100
AcDbEntity
  8
文字
 62
     0
100
AcDbTrace
 10
20.27965068535353
 20
1.666666666666667
 30
0.0
 11
20.27965068535353
 21
0.8333333333333333
 31
0.0
 12
17.77965068535353
 22
1.25
 32
0.0
 13
17.77965068535353
 23
1.25
 33
0.0
  0
MTEXT
  5
16CC
330
16C5
100
AcDbEntity
  8
文字
 62
     0
100
AcDbMText
 10
38.66169077745676
 20
3.125
 30
0.0
 40
2.5
 41
0.0
 46
0.0
 71
     5
 72
     1
  1
%%c33
 73
     1
 44
1.0
  0
POINT
  5
16CD
330
16C5
100
AcDbEntity
  8
Defpoints
 62
     0
100
AcDbPoint
 10
50.77965068535354
 20
32.78881968519641
 30
0.0
  0
POINT
  5
16CE
330
16C5
100
AcDbEntity
  8
Defpoints
 62
     0
100
AcDbPoint
 10
17.77965068535353
 20
32.78881968519641
 30
0.0
  0
POINT
  5
16CF
330
16C5
100
AcDbEntity
  8
Defpoints
 62
     0
100
AcDbPoint
 10
17.77965068535353
 20
1.25
 30
0.0
  0
ENDBLK
  5
16D0
330
16C5
100
AcDbEntity
  8
0
100
AcDbBlockEnd
  0
BLOCK
  5
16D8
330
16D7
100
AcDbEntity
  8
0
100
AcDbBlockBegin
  2
*D23
 70
     1
 10
0.0
 20
0.0
 30
0.0
  3
*D23
  1
*D24
  0
LINE
  5
16D9
330
16D7
100
AcDbEntity
  8
文字
 62
     0
370
    -2
100
AcDbLine
 10
21.65465068535359
 20
35.38881968519637
 30
0.0
 11
1.926159618008187
 21
35.38881968519638
 31
0.0
  0
LINE
  5
16DA
330
16D7
100
AcDbEntity
  8
文字
 62
     0
370
    -2
100
AcDbLine
 10
21.65039642167501
 20
30.18881968519639
 30
0.0
 11
1.926159618008185
 21
30.18881968519639
 31
0.0
  0
LINE
  5
16DB
330
16D7
100
AcDbEntity
  8
文字
 62
     0
370
    -2
100
AcDbLine
 10
3.176159618008184
 20
27.68881968519639
 30
0.0
 11
3.176159618008181
 21
18.93881968519639
 31
0.0
  0
LINE
  5
16DC
330
16D7
100
AcDbEntity
  8
文字
 62
     0
370
    -2
100
AcDbLine
 10
3.176159618008187
 20
35.38881968519638
 30
0.0
 11
3.176159618008185
 21
30.18881968519639
 31
0.0
  0
LINE
  5
16DD
330
16D7
100
AcDbEntity
  8
文字
 62
     0
370
    -2
100
AcDbLine
 10
3.176159618008188
 20
37.88881968519638
 30
0.0
 11
3.176159618008189
 21
40.38881968519638
 31
0.0
  0
SOLID
  5
16DE
330
16D7
100
AcDbEntity
  8
文字
 62
     0
100
AcDbTrace
 10
2.759492951341521
 20
37.88881968519638
 30
0.0
 11
3.592826284674854
 21
37.88881968519638
 31
0.0
 12
3.176159618008187
 22
35.38881968519638
 32
0.0
 13
3.176159618008187
 23
35.38881968519638
 33
0.0
  0
SOLID
  5
16DF
330
16D7
100
AcDbEntity
  8
文字
 62
     0
100
AcDbTrace
 10
3.592826284674851
 20
27.68881968519639
 30
0.0
 11
2.759492951341518
 21
27.68881968519639
 31
0.0
 12
3.176159618008185
 22
30.18881968519639
 32
0.0
 13
3.176159618008185
 23
30.18881968519639
 33
0.0
  0
MTEXT
  5
16E0
330
16D7
100
AcDbEntity
  8
文字
 62
     0
100
AcDbMText
 10
1.301159618008183
 20
22.06381968519639
 30
0.0
 40
2.5
 41
0.0
 46
0.0
 71
     5
 72
     1
  1
5.2
 11
3.416070845000489E-16
 21
1.0
 31
0.0
 73
     1
 44
1.0
  0
POINT
  5
16E1
330
16D7
100
AcDbEntity
  8
Defpoints
 62
     0
100
AcDbPoint
 10
22.27965068535359
 20
35.38881968519637
 30
0.0
  0
POINT
  5
16E2
330
16D7
100
AcDbEntity
  8
Defpoints
 62
     0
100
AcDbPoint
 10
22.27539642167501
 20
30.18881968519639
 30
0.0
  0
POINT
  5
16E3
330
16D7
100
AcDbEntity
  8
Defpoints
 62
     0
100
AcDbPoint
 10
3.176159618008185
 20
30.18881968519639
 30
0.0
  0
ENDBLK
  5
16E4
330
16D7
100
AcDbEntity
  8
0
100
AcDbBlockEnd
  0
BLOCK
  5
16E9
330
16E8
100
AcDbEntity
  8
0
100
AcDbBlockBegin
  2
*D24
 70
     1
 10
0.0
 20
0.0
 30
0.0
  3
*D24
  1
*D25
  0
LINE
  5
16EA
330
16E8
100
AcDbEntity
  8
文字
 62
     0
370
    -2
100
AcDbLine
 10
25.01560177681058
 20
32.18881968519639
 30
0.0
 11
27.67984218961176
 21
32.18881968519639
 31
0.0
  0
LINE
  5
16EB
330
16E8
100
AcDbEntity
  8
文字
 62
     0
370
    -2
100
AcDbLine
 10
25.01560177681058
 20
30.18881968519639
 30
0.0
 11
27.67984218961176
 21
30.18881968519639
 31
0.0
  0
LINE
  5
16EC
330
16E8
100
AcDbEntity
  8
文字
 62
     0
370
    -2
100
AcDbLine
 10
26.42984218961176
 20
27.68881968519639
 30
0.0
 11
26.42984218961176
 21
22.27215301852972
 31
0.0
  0
LINE
  5
16ED
330
16E8
100
AcDbEntity
  8
文字
 62
     0
370
    -2
100
AcDbLine
 10
26.42984218961176
 20
32.18881968519639
 30
0.0
 11
26.42984218961176
 21
30.18881968519639
 31
0.0
  0
LINE
  5
16EE
330
16E8
100
AcDbEntity
  8
文字
 62
     0
370
    -2
100
AcDbLine
 10
26.42984218961176
 20
34.68881968519639
 30
0.0
 11
26.42984218961176
 21
37.18881968519639
 31
0.0
  0
SOLID
  5
16EF
330
16E8
100
AcDbEntity
  8
文字
 62
     0
100
AcDbTrace
 10
26.01317552294509
 20
34.68881968519639
 30
0.0
 11
26.84650885627843
 21
34.68881968519639
 31
0.0
 12
26.42984218961176
 22
32.18881968519639
 32
0.0
 13
26.42984218961176
 23
32.18881968519639
 33
0.0
  0
SOLID
  5
16F0
330
16E8
100
AcDbEntity
  8
文字
 62
     0
100
AcDbTrace
 10
26.84650885627843
 20
27.68881968519639
 30
0.0
 11
26.01317552294509
 21
27.68881968519639
 31
0.0
 12
26.42984218961176
 22
30.18881968519639
 32
0.0
 13
26.42984218961176
 23
30.18881968519639
 33
0.0
  0
MTEXT
  5
16F1
330
16E8
100
AcDbEntity
  8
文字
 62
     0
100
AcDbMText
 10
24.55484218961176
 20
23.73048635186305
 30
0.0
 40
2.5
 41
0.0
 46
0.0
 71
     5
 72
     1
  1
2
 11
0.0
 21
1.0
 31
0.0
 73
     1
 44
1.0
  0
POINT
  5
16F2
330
16E8
100
AcDbEntity
  8
Defpoints
 62
     0
100
AcDbPoint
 10
24.39060177681058
 20
32.18881968519639
 30
0.0
  0
POINT
  5
16F3
330
16E8
100
AcDbEntity
  8
Defpoints
 62
     0
100
AcDbPoint
 10
24.39060177681058
 20
30.18881968519639
 30
0.0
  0
POINT
  5
16F4
330
16E8
100
AcDbEntity
  8
Defpoints
 62
     0
100
AcDbPoint
 10
26.42984218961176
 20
30.18881968519639
 30
0.0
  0
ENDBLK
  5
16F5
330
16E8
100
AcDbEntity
  8
0
100
AcDbBlockEnd
  0
BLOCK
  5
16F9
330
16F8
100
AcDbEntity
  8
0
100
AcDbBlockBegin
  2
*D25
 70
     1
 10
0.0
 20
0.0
 30
0.0
  3
*D25
  1
*D26
  0
LINE
  5
16FA
330
16F8
100
AcDbEntity
  8
文字
 62
     0
370
    -2
100
AcDbLine
 10
130.7099013193107
 20
44.25968145827623
 30
0.0
 11
130.7099013193107
 21
2.354121512563374
 31
0.0
  0
LINE
  5
16FB
330
16F8
100
AcDbEntity
  8
文字
 62
     0
370
    -2
100
AcDbLine
 10
97.70990131931075
 20
44.25968145827623
 30
0.0
 11
97.70990131931075
 21
2.354121512563374
 31
0.0
  0
LINE
  5
16FC
330
16F8
100
AcDbEntity
  8
文字
 62
     0
370
    -2
100
AcDbLine
 10
128.2099013193107
 20
3.604121512563374
 30
0.0
 11
100.2099013193107
 21
3.604121512563374
 31
0.0
  0
SOLID
  5
16FD
330
16F8
100
AcDbEntity
  8
文字
 62
     0
100
AcDbTrace
 10
128.2099013193107
 20
3.187454845896708
 30
0.0
 11
128.2099013193107
 21
4.020788179230041
 31
0.0
 12
130.7099013193107
 22
3.604121512563374
 32
0.0
 13
130.7099013193107
 23
3.604121512563374
 33
0.0
  0
SOLID
  5
16FE
330
16F8
100
AcDbEntity
  8
文字
 62
     0
100
AcDbTrace
 10
100.2099013193107
 20
4.020788179230041
 30
0.0
 11
100.2099013193107
 21
3.187454845896708
 31
0.0
 12
97.70990131931075
 22
3.604121512563374
 32
0.0
 13
97.70990131931075
 23
3.604121512563374
 33
0.0
  0
MTEXT
  5
16FF
330
16F8
100
AcDbEntity
  8
文字
 62
     0
100
AcDbMText
 10
118.7097284274282
 20
5.479121512563374
 30
0.0
 40
2.5
 41
0.0
 46
0.0
 71
     5
 72
     1
  1
%%c33
 73
     1
 44
1.0
  0
POINT
  5
1700
330
16F8
100
AcDbEntity
  8
Defpoints
 62
     0
100
AcDbPoint
 10
130.7099013193107
 20
44.88468145827623
 30
0.0
  0
POINT
  5
1701
330
16F8
100
AcDbEntity
  8
Defpoints
 62
     0
100
AcDbPoint
 10
97.70990131931075
 20
44.88468145827623
 30
0.0
  0
POINT
  5
1702
330
16F8
100
AcDbEntity
  8
Defpoints
 62
     0
100
AcDbPoint
 10
97.70990131931075
 20
3.604121512563374
 30
0.0
  0
ENDBLK
  5
1703
330
16F8
100
AcDbEntity
  8
0
100
AcDbBlockEnd
  0
BLOCK
  5
1733
330
1732
100
AcDbEntity
  8
0
100
AcDbBlockBegin
  2
*D26
 70
     1
 10
0.0
 20
0.0
 30
0.0
  3
*D26
  1
*D27
  0
LINE
  5
1735
330
1732
100
AcDbEntity
  8
文字
 62
     0
370
    -2
100
AcDbLine
 10
35.59012290942377
 20
99.8220582766517
 30
0.0
 11
35.59012290942377
 21
71.79728366220121
 31
0.0
  0
LINE
  5
1736
330
1732
100
AcDbEntity
  8
文字
 62
     0
370
    -2
100
AcDbLine
 10
11.59012290942376
 20
99.8220582766517
 30
0.0
 11
11.59012290942376
 21
71.79728366220121
 31
0.0
  0
LINE
  5
1737
330
1732
100
AcDbEntity
  8
文字
 62
     0
370
    -2
100
AcDbLine
 10
33.09012290942377
 20
73.04728366220121
 30
0.0
 11
14.09012290942376
 21
73.04728366220121
 31
0.0
  0
SOLID
  5
1738
330
1732
100
AcDbEntity
  8
文字
 62
     0
100
AcDbTrace
 10
33.09012290942377
 20
72.63061699553454
 30
0.0
 11
33.09012290942377
 21
73.46395032886788
 31
0.0
 12
35.59012290942377
 22
73.04728366220121
 32
0.0
 13
35.59012290942377
 23
73.04728366220121
 33
0.0
  0
SOLID
  5
1739
330
1732
100
AcDbEntity
  8
文字
 62
     0
100
AcDbTrace
 10
14.09012290942376
 20
73.46395032886788
 30
0.0
 11
14.09012290942376
 21
72.63061699553454
 31
0.0
 12
11.59012290942376
 22
73.04728366220121
 32
0.0
 13
11.59012290942376
 23
73.04728366220121
 33
0.0
  0
MTEXT
  5
173A
330
1732
100
AcDbEntity
  8
文字
 62
     0
100
AcDbMText
 10
29.27701383126137
 20
74.92228366220121
 30
0.0
 40
2.5
 41
0.0
 46
0.0
 71
     5
 72
     1
  1
%%c24
 73
     1
 44
1.0
  0
POINT
  5
173B
330
1732
100
AcDbEntity
  8
Defpoints
 62
     0
100
AcDbPoint
 10
35.59012290942377
 20
100.4470582766517
 30
0.0
  0
POINT
  5
173C
330
1732
100
AcDbEntity
  8
Defpoints
 62
     0
100
AcDbPoint
 10
11.59012290942376
 20
100.4470582766517
 30
0.0
  0
POINT
  5
173D
330
1732
100
AcDbEntity
  8
Defpoints
 62
     0
100
AcDbPoint
 10
11.59012290942376
 20
73.04728366220121
 30
0.0
  0
ENDBLK
  5
1734
330
1732
100
AcDbEntity
  8
0
100
AcDbBlockEnd
  0
BLOCK
  5
173F
330
173E
100
AcDbEntity
  8
0
100
AcDbBlockBegin
  2
*D27
 70
     1
 10
0.0
 20
0.0
 30
0.0
  3
*D27
  1
*D28
  0
LINE
  5
1741
330
173E
100
AcDbEntity
  8
文字
 62
     0
370
    -2
100
AcDbLine
 10
26.59012290942376
 20
94.62205827665174
 30
0.0
 11
26.59012290942376
 21
82.41736616130912
 31
0.0
  0
LINE
  5
1742
330
173E
100
AcDbEntity
  8
文字
 62
     0
370
    -2
100
AcDbLine
 10
20.59012290942376
 20
94.62205827665174
 30
0.0
 11
20.59012290942376
 21
82.41736616130912
 31
0.0
  0
LINE
  5
1743
330
173E
100
AcDbEntity
  8
文字
 62
     0
370
    -2
100
AcDbLine
 10
26.59012290942376
 20
83.66736616130912
 30
0.0
 11
34.5067895760905
 21
83.66736616130912
 31
0.0
  0
LINE
  5
1744
330
173E
100
AcDbEntity
  8
文字
 62
     0
370
    -2
100
AcDbLine
 10
26.59012290942376
 20
83.66736616130912
 30
0.0
 11
20.59012290942376
 21
83.66736616130912
 31
0.0
  0
LINE
  5
1745
330
173E
100
AcDbEntity
  8
文字
 62
     0
370
    -2
100
AcDbLine
 10
29.09012290942376
 20
83.66736616130912
 30
0.0
 11
31.59012290942376
 21
83.66736616130912
 31
0.0
  0
LINE
  5
1746
330
173E
100
AcDbEntity
  8
文字
 62
     0
370
    -2
100
AcDbLine
 10
18.09012290942376
 20
83.66736616130912
 30
0.0
 11
15.59012290942376
 21
83.66736616130912
 31
0.0
  0
SOLID
  5
1747
330
173E
100
AcDbEntity
  8
文字
 62
     0
100
AcDbTrace
 10
29.09012290942376
 20
84.08403282797579
 30
0.0
 11
29.09012290942376
 21
83.25069949464245
 31
0.0
 12
26.59012290942376
 22
83.66736616130912
 32
0.0
 13
26.59012290942376
 23
83.66736616130912
 33
0.0
  0
SOLID
  5
1748
330
173E
100
AcDbEntity
  8
文字
 62
     0
100
AcDbTrace
 10
18.09012290942376
 20
83.25069949464245
 30
0.0
 11
18.09012290942376
 21
84.08403282797579
 31
0.0
 12
20.59012290942376
 22
83.66736616130912
 32
0.0
 13
20.59012290942376
 23
83.66736616130912
 33
0.0
  0
MTEXT
  5
1749
330
173E
100
AcDbEntity
  8
文字
 62
     0
100
AcDbMText
 10
33.04845624275717
 20
85.54236616130912
 30
0.0
 40
2.5
 41
0.0
 46
0.0
 71
     5
 72
     1
  1
6
 73
     1
 44
1.0
  0
POINT
  5
174A
330
173E
100
AcDbEntity
  8
Defpoints
 62
     0
100
AcDbPoint
 10
26.59012290942376
 20
95.24705827665174
 30
0.0
  0
POINT
  5
174B
330
173E
100
AcDbEntity
  8
Defpoints
 62
     0
100
AcDbPoint
 10
20.59012290942376
 20
95.24705827665174
 30
0.0
  0
POINT
  5
174C
330
173E
100
AcDbEntity
  8
Defpoints
 62
     0
100
AcDbPoint
 10
20.59012290942376
 20
83.66736616130912
 30
0.0
  0
ENDBLK
  5
1740
330
173E
100
AcDbEntity
  8
0
100
AcDbBlockEnd
  0
BLOCK
  5
174E
330
174D
100
AcDbEntity
  8
0
100
AcDbBlockBegin
  2
*D28
 70
     1
 10
0.0
 20
0.0
 30
0.0
  3
*D28
  1
*D29
  0
LINE
  5
1750
330
174D
100
AcDbEntity
  8
文字
 62
     0
370
    -2
100
AcDbLine
 10
40.09012290942377
 20
97.22205827665177
 30
0.0
 11
40.09012290942377
 21
65.05823859145536
 31
0.0
  0
LINE
  5
1751
330
174D
100
AcDbEntity
  8
文字
 62
     0
370
    -2
100
AcDbLine
 10
7.090122909423698
 20
97.22205827665177
 30
0.0
 11
7.090122909423698
 21
65.05823859145536
 31
0.0
  0
LINE
  5
1752
330
174D
100
AcDbEntity
  8
文字
 62
     0
370
    -2
100
AcDbLine
 10
37.59012290942377
 20
66.30823859145536
 30
0.0
 11
9.590122909423698
 21
66.30823859145536
 31
0.0
  0
SOLID
  5
1753
330
174D
100
AcDbEntity
  8
文字
 62
     0
100
AcDbTrace
 10
37.59012290942377
 20
65.89157192478869
 30
0.0
 11
37.59012290942377
 21
66.72490525812204
 31
0.0
 12
40.09012290942377
 22
66.30823859145536
 32
0.0
 13
40.09012290942377
 23
66.30823859145536
 33
0.0
  0
SOLID
  5
1754
330
174D
100
AcDbEntity
  8
文字
 62
     0
100
AcDbTrace
 10
9.590122909423698
 20
66.72490525812204
 30
0.0
 11
9.590122909423698
 21
65.89157192478869
 31
0.0
 12
7.090122909423698
 22
66.30823859145536
 32
0.0
 13
7.090122909423698
 23
66.30823859145536
 33
0.0
  0
MTEXT
  5
1755
330
174D
100
AcDbEntity
  8
文字
 62
     0
100
AcDbMText
 10
27.97216300152697
 20
68.18323859145536
 30
0.0
 40
2.5
 41
0.0
 46
0.0
 71
     5
 72
     1
  1
%%c33
 73
     1
 44
1.0
  0
POINT
  5
1756
330
174D
100
AcDbEntity
  8
Defpoints
 62
     0
100
AcDbPoint
 10
40.09012290942377
 20
97.84705827665177
 30
0.0
  0
POINT
  5
1757
330
174D
100
AcDbEntity
  8
Defpoints
 62
     0
100
AcDbPoint
 10
7.090122909423698
 20
97.84705827665177
 30
0.0
  0
POINT
  5
1758
330
174D
100
AcDbEntity
  8
Defpoints
 62
     0
100
AcDbPoint
 10
7.090122909423698
 20
66.30823859145536
 30
0.0
  0
ENDBLK
  5
174F
330
174D
100
AcDbEntity
  8
0
100
AcDbBlockEnd
  0
BLOCK
  5
175A
330
1759
100
AcDbEntity
  8
0
100
AcDbBlockBegin
  2
*D29
 70
     1
 10
0.0
 20
0.0
 30
0.0
  3
*D29
  1
*D30
  0
LINE
  5
175C
330
1759
100
AcDbEntity
  8
文字
 62
     0
370
    -2
100
AcDbLine
 10
10.96512290942376
 20
100.4470582766517
 30
0.0
 11
-8.763368157921617
 21
100.4470582766517
 31
0.0
  0
LINE
  5
175D
330
1759
100
AcDbEntity
  8
文字
 62
     0
370
    -2
100
AcDbLine
 10
10.96086864574521
 20
95.24705827665174
 30
0.0
 11
-8.763368157921619
 21
95.24705827665176
 31
0.0
  0
LINE
  5
175E
330
1759
100
AcDbEntity
  8
文字
 62
     0
370
    -2
100
AcDbLine
 10
-7.513368157921617
 20
100.4470582766517
 30
0.0
 11
-7.513368157921619
 21
95.24705827665176
 31
0.0
  0
LINE
  5
175F
330
1759
100
AcDbEntity
  8
文字
 62
     0
370
    -2
100
AcDbLine
 10
-7.513368157921616
 20
102.9470582766517
 30
0.0
 11
-7.513368157921615
 21
105.4470582766517
 31
0.0
  0
LINE
  5
1760
330
1759
100
AcDbEntity
  8
文字
 62
     0
370
    -2
100
AcDbLine
 10
-7.51336815792162
 20
92.74705827665176
 30
0.0
 11
-7.51336815792162
 21
90.24705827665176
 31
0.0
  0
SOLID
  5
1761
330
1759
100
AcDbEntity
  8
文字
 62
     0
100
AcDbTrace
 10
-7.930034824588283
 20
102.9470582766517
 30
0.0
 11
-7.096701491254949
 21
102.9470582766517
 31
0.0
 12
-7.513368157921617
 22
100.4470582766517
 32
0.0
 13
-7.513368157921617
 23
100.4470582766517
 33
0.0
  0
SOLID
  5
1762
330
1759
100
AcDbEntity
  8
文字
 62
     0
100
AcDbTrace
 10
-7.096701491254953
 20
92.74705827665176
 30
0.0
 11
-7.930034824588287
 21
92.74705827665176
 31
0.0
 12
-7.513368157921619
 22
95.24705827665176
 32
0.0
 13
-7.513368157921619
 23
95.24705827665176
 33
0.0
  0
MTEXT
  5
1763
330
1759
100
AcDbEntity
  8
文字
 62
     0
100
AcDbMText
 10
-9.388368157921619
 20
97.84705827665174
 30
0.0
 40
2.5
 41
0.0
 46
0.0
 71
     5
 72
     1
  1
5
 11
3.416070845000508E-16
 21
1.0
 31
0.0
 73
     1
 44
1.0
  0
POINT
  5
1764
330
1759
100
AcDbEntity
  8
Defpoints
 62
     0
100
AcDbPoint
 10
11.59012290942376
 20
100.4470582766517
 30
0.0
  0
POINT
  5
1765
330
1759
100
AcDbEntity
  8
Defpoints
 62
     0
100
AcDbPoint
 10
11.58586864574521
 20
95.24705827665174
 30
0.0
  0
POINT
  5
1766
330
1759
100
AcDbEntity
  8
Defpoints
 62
     0
100
AcDbPoint
 10
-7.513368157921619
 20
95.24705827665176
 30
0.0
  0
ENDBLK
  5
175B
330
1759
100
AcDbEntity
  8
0
100
AcDbBlockEnd
  0
BLOCK
  5
1768
330
1767
100
AcDbEntity
  8
0
100
AcDbBlockBegin
  2
*D30
 70
     1
 10
0.0
 20
0.0
 30
0.0
  3
*D30
  1
*D31
  0
LINE
  5
176A
330
1767
100
AcDbEntity
  8
文字
 62
     0
370
    -2
100
AcDbLine
 10
14.32607400088078
 20
97.24705827665174
 30
0.0
 11
16.99031441368196
 21
97.24705827665174
 31
0.0
  0
LINE
  5
176B
330
1767
100
AcDbEntity
  8
文字
 62
     0
370
    -2
100
AcDbLine
 10
14.32607400088078
 20
95.24705827665174
 30
0.0
 11
16.99031441368196
 21
95.24705827665174
 31
0.0
  0
LINE
  5
176C
330
1767
100
AcDbEntity
  8
文字
 62
     0
370
    -2
100
AcDbLine
 10
15.74031441368196
 20
92.74705827665174
 30
0.0
 11
15.74031441368196
 21
87.33039160998507
 31
0.0
  0
LINE
  5
176D
330
1767
100
AcDbEntity
  8
文字
 62
     0
370
    -2
100
AcDbLine
 10
15.74031441368196
 20
97.24705827665174
 30
0.0
 11
15.74031441368196
 21
95.24705827665174
 31
0.0
  0
LINE
  5
176E
330
1767
100
AcDbEntity
  8
文字
 62
     0
370
    -2
100
AcDbLine
 10
15.74031441368196
 20
99.74705827665174
 30
0.0
 11
15.74031441368196
 21
102.2470582766517
 31
0.0
  0
SOLID
  5
176F
330
1767
100
AcDbEntity
  8
文字
 62
     0
100
AcDbTrace
 10
15.32364774701529
 20
99.74705827665174
 30
0.0
 11
16.15698108034863
 21
99.74705827665174
 31
0.0
 12
15.74031441368196
 22
97.24705827665174
 32
0.0
 13
15.74031441368196
 23
97.24705827665174
 33
0.0
  0
SOLID
  5
1770
330
1767
100
AcDbEntity
  8
文字
 62
     0
100
AcDbTrace
 10
16.15698108034863
 20
92.74705827665174
 30
0.0
 11
15.32364774701529
 21
92.74705827665174
 31
0.0
 12
15.74031441368196
 22
95.24705827665174
 32
0.0
 13
15.74031441368196
 23
95.24705827665174
 33
0.0
  0
MTEXT
  5
1771
330
1767
100
AcDbEntity
  8
文字
 62
     0
100
AcDbMText
 10
13.86531441368196
 20
88.78872494331841
 30
0.0
 40
2.5
 41
0.0
 46
0.0
 71
     5
 72
     1
  1
2
 11
0.0
 21
1.0
 31
0.0
 73
     1
 44
1.0
  0
POINT
  5
1772
330
1767
100
AcDbEntity
  8
Defpoints
 62
     0
100
AcDbPoint
 10
13.70107400088078
 20
97.24705827665174
 30
0.0
  0
POINT
  5
1773
330
1767
100
AcDbEntity
  8
Defpoints
 62
     0
100
AcDbPoint
 10
13.70107400088078
 20
95.24705827665174
 30
0.0
  0
POINT
  5
1774
330
1767
100
AcDbEntity
  8
Defpoints
 62
     0
100
AcDbPoint
 10
15.74031441368196
 20
95.24705827665174
 30
0.0
  0
ENDBLK
  5
1769
330
1767
100
AcDbEntity
  8
0
100
AcDbBlockEnd
  0
BLOCK
  5
1776
330
1775
100
AcDbEntity
  8
0
100
AcDbBlockBegin
  2
*D31
 70
     1
 10
0.0
 20
0.0
 30
0.0
  3
*D31
  1
*D32
  0
LINE
  5
1778
330
1775
100
AcDbEntity
  8
文字
 62
     0
370
    -2
100
AcDbLine
 10
191.2817362263547
 20
110.7916027523126
 30
0.0
 11
191.2817362263547
 21
68.88604280659972
 31
0.0
  0
LINE
  5
1779
330
1775
100
AcDbEntity
  8
文字
 62
     0
370
    -2
100
AcDbLine
 10
158.2817362263547
 20
110.7916027523126
 30
0.0
 11
158.2817362263547
 21
68.88604280659972
 31
0.0
  0
LINE
  5
177A
330
1775
100
AcDbEntity
  8
文字
 62
     0
370
    -2
100
AcDbLine
 10
188.7817362263547
 20
70.13604280659972
 30
0.0
 11
160.7817362263547
 21
70.13604280659972
 31
0.0
  0
SOLID
  5
177B
330
1775
100
AcDbEntity
  8
文字
 62
     0
100
AcDbTrace
 10
188.7817362263547
 20
69.71937613993305
 30
0.0
 11
188.7817362263547
 21
70.55270947326639
 31
0.0
 12
191.2817362263547
 22
70.13604280659972
 32
0.0
 13
191.2817362263547
 23
70.13604280659972
 33
0.0
  0
SOLID
  5
177C
330
1775
100
AcDbEntity
  8
文字
 62
     0
100
AcDbTrace
 10
160.7817362263547
 20
70.55270947326639
 30
0.0
 11
160.7817362263547
 21
69.71937613993305
 31
0.0
 12
158.2817362263547
 22
70.13604280659972
 32
0.0
 13
158.2817362263547
 23
70.13604280659972
 33
0.0
  0
MTEXT
  5
177D
330
1775
100
AcDbEntity
  8
文字
 62
     0
100
AcDbMText
 10
179.2815633344721
 20
72.01104280659972
 30
0.0
 40
2.5
 41
0.0
 46
0.0
 71
     5
 72
     1
  1
%%c33
 73
     1
 44
1.0
  0
POINT
  5
177E
330
1775
100
AcDbEntity
  8
Defpoints
 62
     0
100
AcDbPoint
 10
191.2817362263547
 20
111.4166027523126
 30
0.0
  0
POINT
  5
177F
330
1775
100
AcDbEntity
  8
Defpoints
 62
     0
100
AcDbPoint
 10
158.2817362263547
 20
111.4166027523126
 30
0.0
  0
POINT
  5
1780
330
1775
100
AcDbEntity
  8
Defpoints
 62
     0
100
AcDbPoint
 10
158.2817362263547
 20
70.13604280659972
 30
0.0
  0
ENDBLK
  5
1777
330
1775
100
AcDbEntity
  8
0
100
AcDbBlockEnd
  0
BLOCK
  5
17A7
330
17A6
100
AcDbEntity
  8
0
100
AcDbBlockBegin
  2
*D32
 70
     1
 10
0.0
 20
0.0
 30
0.0
  3
*D32
  1
*D5
  0
LINE
  5
17A8
330
17A6
100
AcDbEntity
  8
文字
 62
     0
370
    -2
100
AcDbLine
 10
0.625
 20
37.0
 30
0.0
 11
30.22767716864182
 21
37.0
 31
0.0
  0
LINE
  5
17A9
330
17A6
100
AcDbEntity
  8
文字
 62
     0
370
    -2
100
AcDbLine
 10
6.164392014169408
 20
0.0
 30
0.0
 11
30.22767716864182
 21
-0.0000000000000015
 31
0.0
  0
LINE
  5
17AA
330
17A6
100
AcDbEntity
  8
文字
 62
     0
370
    -2
100
AcDbLine
 10
28.97767716864182
 20
34.5
 30
0.0
 11
28.97767716864182
 21
2.499999999999999
 31
0.0
  0
SOLID
  5
17AB
330
17A6
100
AcDbEntity
  8
文字
 62
     0
100
AcDbTrace
 10
29.39434383530849
 20
34.5
 30
0.0
 11
28.56101050197515
 21
34.5
 31
0.0
 12
28.97767716864182
 22
37.0
 32
0.0
 13
28.97767716864182
 23
37.0
 33
0.0
  0
SOLID
  5
17AC
330
17A6
100
AcDbEntity
  8
文字
 62
     0
100
AcDbTrace
 10
28.56101050197515
 20
2.499999999999999
 30
0.0
 11
29.39434383530849
 21
2.499999999999999
 31
0.0
 12
28.97767716864182
 22
-0.0000000000000014
 32
0.0
 13
28.97767716864182
 23
-0.0000000000000014
 33
0.0
  0
MTEXT
  5
17AD
330
17A6
100
AcDbEntity
  8
文字
 62
     0
100
AcDbMText
 10
27.10267716864182
 20
18.5
 30
0.0
 40
2.5
 41
0.0
 46
0.0
 71
     5
 72
     1
  1
37
 11
9.601928861622976E-17
 21
1.0
 31
0.0
 73
     1
 44
1.0
  0
POINT
  5
17AE
330
17A6
100
AcDbEntity
  8
Defpoints
 62
     0
100
AcDbPoint
 10
0.0
 20
37.0
 30
0.0
  0
POINT
  5
17AF
330
17A6
100
AcDbEntity
  8
Defpoints
 62
     0
100
AcDbPoint
 10
5.539392014169408
 20
0.0
 30
0.0
  0
POINT
  5
17B0
330
17A6
100
AcDbEntity
  8
Defpoints
 62
     0
100
AcDbPoint
 10
28.97767716864182
 20
-0.0000000000000014
 30
0.0
  0
ENDBLK
  5
17B1
330
17A6
100
AcDbEntity
  8
0
100
AcDbBlockEnd
  0
BLOCK
  5
17B9
330
17B8
100
AcDbEntity
  8
0
100
AcDbBlockBegin
  2
*D33
 70
     1
 10
0.0
 20
0.0
 30
0.0
  3
*D33
  1
*D35
  0
LINE
  5
17BB
330
17B8
100
AcDbEntity
  8
文字
 62
     0
370
    -2
100
AcDbLine
 10
119.4608709965636
 20
163.1299826243851
 30
0.0
 11
140.5005135144891
 21
163.1299826243851
 31
0.0
  0
LINE
  5
17BC
330
17B8
100
AcDbEntity
  8
文字
 62
     0
370
    -2
100
AcDbLine
 10
125.000263010733
 20
95.24705827665181
 30
0.0
 11
140.5005135144891
 21
95.24705827665181
 31
0.0
  0
LINE
  5
17BD
330
17B8
100
AcDbEntity
  8
文字
 62
     0
370
    -2
100
AcDbLine
 10
139.2505135144891
 20
160.6299826243851
 30
0.0
 11
139.2505135144891
 21
97.74705827665181
 31
0.0
  0
SOLID
  5
17BE
330
17B8
100
AcDbEntity
  8
文字
 62
     0
100
AcDbTrace
 10
139.6671801811558
 20
160.6299826243851
 30
0.0
 11
138.8338468478225
 21
160.6299826243851
 31
0.0
 12
139.2505135144891
 22
163.1299826243851
 32
0.0
 13
139.2505135144891
 23
163.1299826243851
 33
0.0
  0
SOLID
  5
17BF
330
17B8
100
AcDbEntity
  8
文字
 62
     0
100
AcDbTrace
 10
138.8338468478225
 20
97.74705827665181
 30
0.0
 11
139.6671801811558
 21
97.74705827665181
 31
0.0
 12
139.2505135144891
 22
95.24705827665181
 32
0.0
 13
139.2505135144891
 23
95.24705827665181
 33
0.0
  0
MTEXT
  5
17C0
330
17B8
100
AcDbEntity
  8
文字
 62
     0
370
    -3
100
AcDbMText
 10
137.3755135144891
 20
129.1885204505185
 30
0.0
 40
2.5
 41
0.0
 46
0.0
 71
     5
 72
     1
  1
67
 11
0.0
 21
1.0
 31
0.0
 73
     1
 44
1.0
  0
POINT
  5
17C1
330
17B8
100
AcDbEntity
  8
Defpoints
 62
     0
100
AcDbPoint
 10
118.8358709965636
 20
163.1299826243851
 30
0.0
  0
POINT
  5
17C2
330
17B8
100
AcDbEntity
  8
Defpoints
 62
     0
100
AcDbPoint
 10
124.375263010733
 20
95.24705827665181
 30
0.0
  0
POINT
  5
17C3
330
17B8
100
AcDbEntity
  8
Defpoints
 62
     0
100
AcDbPoint
 10
139.2505135144891
 20
95.24705827665181
 30
0.0
  0
ENDBLK
  5
17BA
330
17B8
100
AcDbEntity
  8
0
100
AcDbBlockEnd
  0
BLOCK
  5
17F4
330
17F3
100
AcDbEntity
  8
0
100
AcDbBlockBegin
  2
*D34
 70
     1
 10
0.0
 20
0.0
 30
0.0
  3
*D34
  1
*D61
  0
LINE
  5
17F5
330
17F3
100
AcDbEntity
  8
文字
 62
     0
370
    -2
100
AcDbLine
 10
25.05004976392537
 20
50.62500000000004
 30
0.0
 11
25.05004976392537
 21
69.38891581769842
 31
0.0
  0
LINE
  5
17F6
330
17F3
100
AcDbEntity
  8
文字
 62
     0
370
    -2
100
AcDbLine
 10
37.05004976392534
 20
50.62500000000004
 30
0.0
 11
37.05004976392534
 21
69.38891581769842
 31
0.0
  0
LINE
  5
17F7
330
17F3
100
AcDbEntity
  8
文字
 62
     0
370
    -2
100
AcDbLine
 10
27.55004976392537
 20
68.13891581769842
 30
0.0
 11
34.55004976392534
 21
68.13891581769842
 31
0.0
  0
SOLID
  5
17F8
330
17F3
100
AcDbEntity
  8
文字
 62
     0
100
AcDbTrace
 10
27.55004976392537
 20
68.55558248436509
 30
0.0
 11
27.55004976392537
 21
67.72224915103175
 31
0.0
 12
25.05004976392537
 22
68.13891581769842
 32
0.0
 13
25.05004976392537
 23
68.13891581769842
 33
0.0
  0
SOLID
  5
17F9
330
17F3
100
AcDbEntity
  8
文字
 62
     0
100
AcDbTrace
 10
34.55004976392534
 20
67.72224915103175
 30
0.0
 11
34.55004976392534
 21
68.55558248436509
 31
0.0
 12
37.05004976392534
 22
68.13891581769842
 32
0.0
 13
37.05004976392534
 23
68.13891581769842
 33
0.0
  0
MTEXT
  5
17FA
330
17F3
100
AcDbEntity
  8
文字
 62
     0
100
AcDbMText
 10
31.05004976392536
 20
70.01391581769842
 30
0.0
 40
2.5
 41
0.0
 46
0.0
 71
     5
 72
     1
  1
{\fArial|b0|i0|c0|p32;M }12
 73
     1
 44
1.0
  0
POINT
  5
17FB
330
17F3
100
AcDbEntity
  8
Defpoints
 62
     0
100
AcDbPoint
 10
25.05004976392537
 20
50.00000000000004
 30
0.0
  0
POINT
  5
17FC
330
17F3
100
AcDbEntity
  8
Defpoints
 62
     0
100
AcDbPoint
 10
37.05004976392534
 20
50.00000000000004
 30
0.0
  0
POINT
  5
17FD
330
17F3
100
AcDbEntity
  8
Defpoints
 62
     0
100
AcDbPoint
 10
37.05004976392534
 20
68.13891581769842
 30
0.0
  0
ENDBLK
  5
17FE
330
17F3
100
AcDbEntity
  8
0
100
AcDbBlockEnd
  0
BLOCK
  5
1803
330
1802
100
AcDbEntity
  8
0
100
AcDbBlockBegin
  2
*D35
 70
     1
 10
0.0
 20
0.0
 30
0.0
  3
*D35
  1
*D64
  0
LINE
  5
1804
330
1802
100
AcDbEntity
  8
文字
 62
     0
370
    -2
100
AcDbLine
 10
30.05004976392534
 20
52.62500000000004
 30
0.0
 11
30.05004976392534
 21
60.74481149179432
 31
0.0
  0
LINE
  5
1805
330
1802
100
AcDbEntity
  8
文字
 62
     0
370
    -2
100
AcDbLine
 10
32.05004976392534
 20
52.62500000000004
 30
0.0
 11
32.05004976392534
 21
60.74481149179432
 31
0.0
  0
LINE
  5
1806
330
1802
100
AcDbEntity
  8
文字
 62
     0
370
    -2
100
AcDbLine
 10
34.55004976392534
 20
59.49481149179432
 30
0.0
 11
39.966716430592
 21
59.49481149179432
 31
0.0
  0
LINE
  5
1807
330
1802
100
AcDbEntity
  8
文字
 62
     0
370
    -2
100
AcDbLine
 10
30.05004976392534
 20
59.49481149179432
 30
0.0
 11
32.05004976392534
 21
59.49481149179432
 31
0.0
  0
LINE
  5
1808
330
1802
100
AcDbEntity
  8
文字
 62
     0
370
    -2
100
AcDbLine
 10
27.55004976392534
 20
59.49481149179432
 30
0.0
 11
25.05004976392534
 21
59.49481149179432
 31
0.0
  0
SOLID
  5
1809
330
1802
100
AcDbEntity
  8
文字
 62
     0
100
AcDbTrace
 10
27.55004976392534
 20
59.07814482512766
 30
0.0
 11
27.55004976392534
 21
59.91147815846099
 31
0.0
 12
30.05004976392534
 22
59.49481149179432
 32
0.0
 13
30.05004976392534
 23
59.49481149179432
 33
0.0
  0
SOLID
  5
180A
330
1802
100
AcDbEntity
  8
文字
 62
     0
100
AcDbTrace
 10
34.55004976392534
 20
59.91147815846099
 30
0.0
 11
34.55004976392534
 21
59.07814482512766
 31
0.0
 12
32.05004976392534
 22
59.49481149179432
 32
0.0
 13
32.05004976392534
 23
59.49481149179432
 33
0.0
  0
MTEXT
  5
180B
330
1802
100
AcDbEntity
  8
文字
 62
     0
100
AcDbMText
 10
38.50838309725867
 20
61.36981149179432
 30
0.0
 40
2.5
 41
0.0
 46
0.0
 71
     5
 72
     1
  1
2
 73
     1
 44
1.0
  0
POINT
  5
180C
330
1802
100
AcDbEntity
  8
Defpoints
 62
     0
100
AcDbPoint
 10
30.05004976392534
 20
52.00000000000004
 30
0.0
  0
POINT
  5
180D
330
1802
100
AcDbEntity
  8
Defpoints
 62
     0
100
AcDbPoint
 10
32.05004976392534
 20
52.00000000000004
 30
0.0
  0
POINT
  5
180E
330
1802
100
AcDbEntity
  8
Defpoints
 62
     0
100
AcDbPoint
 10
32.05004976392534
 20
59.49481149179432
 30
0.0
  0
ENDBLK
  5
180F
330
1802
100
AcDbEntity
  8
0
100
AcDbBlockEnd
  0
BLOCK
  5
1814
330
1813
100
AcDbEntity
  8
0
100
AcDbBlockBegin
  2
*D36
 70
     1
 10
0.0
 20
0.0
 30
0.0
  3
*D36
  1
*D65
  0
LINE
  5
1815
330
1813
100
AcDbEntity
  8
文字
 62
     0
370
    -2
100
AcDbLine
 10
29.42504976392534
 20
52.00000000000004
 30
0.0
 11
17.19057790868399
 21
52.00000000000004
 31
0.0
  0
LINE
  5
1816
330
1813
100
AcDbEntity
  8
文字
 62
     0
370
    -2
100
AcDbLine
 10
29.42504976392534
 20
50.00000000000004
 30
0.0
 11
17.19057790868399
 21
50.00000000000004
 31
0.0
  0
LINE
  5
1817
330
1813
100
AcDbEntity
  8
文字
 62
     0
370
    -2
100
AcDbLine
 10
18.44057790868399
 20
47.50000000000004
 30
0.0
 11
18.44057790868399
 21
42.08333333333338
 31
0.0
  0
LINE
  5
1818
330
1813
100
AcDbEntity
  8
文字
 62
     0
370
    -2
100
AcDbLine
 10
18.44057790868399
 20
52.00000000000004
 30
0.0
 11
18.44057790868399
 21
50.00000000000004
 31
0.0
  0
LINE
  5
1819
330
1813
100
AcDbEntity
  8
文字
 62
     0
370
    -2
100
AcDbLine
 10
18.44057790868399
 20
54.50000000000004
 30
0.0
 11
18.44057790868399
 21
57.00000000000004
 31
0.0
  0
SOLID
  5
181A
330
1813
100
AcDbEntity
  8
文字
 62
     0
100
AcDbTrace
 10
18.02391124201732
 20
54.50000000000004
 30
0.0
 11
18.85724457535066
 21
54.50000000000004
 31
0.0
 12
18.44057790868399
 22
52.00000000000004
 32
0.0
 13
18.44057790868399
 23
52.00000000000004
 33
0.0
  0
SOLID
  5
181B
330
1813
100
AcDbEntity
  8
文字
 62
     0
100
AcDbTrace
 10
18.85724457535066
 20
47.50000000000004
 30
0.0
 11
18.02391124201732
 21
47.50000000000004
 31
0.0
 12
18.44057790868399
 22
50.00000000000004
 32
0.0
 13
18.44057790868399
 23
50.00000000000004
 33
0.0
  0
MTEXT
  5
181C
330
1813
100
AcDbEntity
  8
文字
 62
     0
100
AcDbMText
 10
16.56557790868399
 20
43.54166666666671
 30
0.0
 40
2.5
 41
0.0
 46
0.0
 71
     5
 72
     1
  1
2
 11
0.0
 21
1.0
 31
0.0
 73
     1
 44
1.0
  0
POINT
  5
181D
330
1813
100
AcDbEntity
  8
Defpoints
 62
     0
100
AcDbPoint
 10
30.05004976392534
 20
52.00000000000004
 30
0.0
  0
POINT
  5
181E
330
1813
100
AcDbEntity
  8
Defpoints
 62
     0
100
AcDbPoint
 10
30.05004976392534
 20
50.00000000000004
 30
0.0
  0
POINT
  5
181F
330
1813
100
AcDbEntity
  8
Defpoints
 62
     0
100
AcDbPoint
 10
18.44057790868399
 20
50.00000000000004
 30
0.0
  0
ENDBLK
  5
1820
330
1813
100
AcDbEntity
  8
0
100
AcDbBlockEnd
  0
BLOCK
  5
1828
330
1827
100
AcDbEntity
  8
0
100
AcDbBlockBegin
  2
*D37
 70
     1
 10
0.0
 20
0.0
 30
0.0
  3
*D37
  1
*D67
  0
LINE
  5
1829
330
1827
100
AcDbEntity
  8
文字
 62
     0
370
    -2
100
AcDbLine
 10
35.67504976392534
 20
52.00000000000004
 30
0.0
 11
65.27772693256716
 21
52.00000000000004
 31
0.0
  0
LINE
  5
182A
330
1827
100
AcDbEntity
  8
文字
 62
     0
370
    -2
100
AcDbLine
 10
41.21444177809485
 20
0.0
 30
0.0
 11
65.27772693256716
 21
-0.0000000000000015
 31
0.0
  0
LINE
  5
182B
330
1827
100
AcDbEntity
  8
文字
 62
     0
370
    -2
100
AcDbLine
 10
64.02772693256716
 20
49.50000000000004
 30
0.0
 11
64.02772693256716
 21
2.499999999999999
 31
0.0
  0
SOLID
  5
182C
330
1827
100
AcDbEntity
  8
文字
 62
     0
100
AcDbTrace
 10
64.44439359923383
 20
49.50000000000004
 30
0.0
 11
63.6110602659005
 21
49.50000000000004
 31
0.0
 12
64.02772693256716
 22
52.00000000000004
 32
0.0
 13
64.02772693256716
 23
52.00000000000004
 33
0.0
  0
SOLID
  5
182D
330
1827
100
AcDbEntity
  8
文字
 62
     0
100
AcDbTrace
 10
63.6110602659005
 20
2.499999999999999
 30
0.0
 11
64.44439359923383
 21
2.499999999999999
 31
0.0
 12
64.02772693256716
 22
-0.0000000000000014
 32
0.0
 13
64.02772693256716
 23
-0.0000000000000014
 33
0.0
  0
MTEXT
  5
182E
330
1827
100
AcDbEntity
  8
文字
 62
     0
100
AcDbMText
 10
62.15272693256716
 20
26.00000000000002
 30
0.0
 40
2.5
 41
0.0
 46
0.0
 71
     5
 72
     1
  1
52
 11
0.0
 21
1.0
 31
0.0
 73
     1
 44
1.0
  0
POINT
  5
182F
330
1827
100
AcDbEntity
  8
Defpoints
 62
     0
100
AcDbPoint
 10
35.05004976392534
 20
52.00000000000004
 30
0.0
  0
POINT
  5
1830
330
1827
100
AcDbEntity
  8
Defpoints
 62
     0
100
AcDbPoint
 10
40.58944177809485
 20
0.0
 30
0.0
  0
POINT
  5
1831
330
1827
100
AcDbEntity
  8
Defpoints
 62
     0
100
AcDbPoint
 10
64.02772693256716
 20
-0.0000000000000014
 30
0.0
  0
ENDBLK
  5
1832
330
1827
100
AcDbEntity
  8
0
100
AcDbBlockEnd
  0
BLOCK
  5
184C
330
184B
100
AcDbEntity
  8
0
100
AcDbBlockBegin
  2
*D38
 70
     1
 10
0.0
 20
0.0
 30
0.0
  3
*D38
  1
*D39
  0
LINE
  5
184E
330
184B
100
AcDbEntity
  8
文字
 62
     0
370
    -2
100
AcDbLine
 10
90.63983640515796
 20
161.7549826243851
 30
0.0
 11
90.63983640515796
 21
180.5188984420835
 31
0.0
  0
LINE
  5
184F
330
184B
100
AcDbEntity
  8
文字
 62
     0
370
    -2
100
AcDbLine
 10
102.6398364051579
 20
161.7549826243851
 30
0.0
 11
102.6398364051579
 21
180.5188984420835
 31
0.0
  0
LINE
  5
1850
330
184B
100
AcDbEntity
  8
文字
 62
     0
370
    -2
100
AcDbLine
 10
93.13983640515796
 20
179.2688984420835
 30
0.0
 11
100.1398364051579
 21
179.2688984420835
 31
0.0
  0
SOLID
  5
1851
330
184B
100
AcDbEntity
  8
文字
 62
     0
100
AcDbTrace
 10
93.13983640515796
 20
179.6855651087502
 30
0.0
 11
93.13983640515796
 21
178.8522317754168
 31
0.0
 12
90.63983640515796
 22
179.2688984420835
 32
0.0
 13
90.63983640515796
 23
179.2688984420835
 33
0.0
  0
SOLID
  5
1852
330
184B
100
AcDbEntity
  8
文字
 62
     0
100
AcDbTrace
 10
100.1398364051579
 20
178.8522317754168
 30
0.0
 11
100.1398364051579
 21
179.6855651087502
 31
0.0
 12
102.6398364051579
 22
179.2688984420835
 32
0.0
 13
102.6398364051579
 23
179.2688984420835
 33
0.0
  0
MTEXT
  5
1853
330
184B
100
AcDbEntity
  8
文字
 62
     0
370
    -3
100
AcDbMText
 10
96.63983640515792
 20
181.1438984420835
 30
0.0
 40
2.5
 41
0.0
 46
0.0
 71
     5
 72
     1
  1
{\fArial|b0|i0|c0|p32;M }12
 73
     1
 44
1.0
  0
POINT
  5
1854
330
184B
100
AcDbEntity
  8
Defpoints
 62
     0
100
AcDbPoint
 10
90.63983640515796
 20
161.1299826243851
 30
0.0
  0
POINT
  5
1855
330
184B
100
AcDbEntity
  8
Defpoints
 62
     0
100
AcDbPoint
 10
102.6398364051579
 20
161.1299826243851
 30
0.0
  0
POINT
  5
1856
330
184B
100
AcDbEntity
  8
Defpoints
 62
     0
100
AcDbPoint
 10
102.6398364051579
 20
179.2688984420835
 30
0.0
  0
ENDBLK
  5
184D
330
184B
100
AcDbEntity
  8
0
100
AcDbBlockEnd
  0
BLOCK
  5
1858
330
1857
100
AcDbEntity
  8
0
100
AcDbBlockBegin
  2
*D39
 70
     1
 10
0.0
 20
0.0
 30
0.0
  3
*D39
  1
*D40
  0
LINE
  5
185A
330
1857
100
AcDbEntity
  8
文字
 62
     0
370
    -2
100
AcDbLine
 10
95.63983640515794
 20
163.7549826243851
 30
0.0
 11
95.63983640515794
 21
171.8747941161794
 31
0.0
  0
LINE
  5
185B
330
1857
100
AcDbEntity
  8
文字
 62
     0
370
    -2
100
AcDbLine
 10
97.63983640515794
 20
163.7549826243851
 30
0.0
 11
97.63983640515794
 21
171.8747941161794
 31
0.0
  0
LINE
  5
185C
330
1857
100
AcDbEntity
  8
文字
 62
     0
370
    -2
100
AcDbLine
 10
100.1398364051579
 20
170.6247941161794
 30
0.0
 11
105.5565030718246
 21
170.6247941161794
 31
0.0
  0
LINE
  5
185D
330
1857
100
AcDbEntity
  8
文字
 62
     0
370
    -2
100
AcDbLine
 10
95.63983640515794
 20
170.6247941161794
 30
0.0
 11
97.63983640515794
 21
170.6247941161794
 31
0.0
  0
LINE
  5
185E
330
1857
100
AcDbEntity
  8
文字
 62
     0
370
    -2
100
AcDbLine
 10
93.13983640515794
 20
170.6247941161794
 30
0.0
 11
90.63983640515794
 21
170.6247941161794
 31
0.0
  0
SOLID
  5
185F
330
1857
100
AcDbEntity
  8
文字
 62
     0
100
AcDbTrace
 10
93.13983640515794
 20
170.2081274495127
 30
0.0
 11
93.13983640515794
 21
171.0414607828461
 31
0.0
 12
95.63983640515794
 22
170.6247941161794
 32
0.0
 13
95.63983640515794
 23
170.6247941161794
 33
0.0
  0
SOLID
  5
1860
330
1857
100
AcDbEntity
  8
文字
 62
     0
100
AcDbTrace
 10
100.1398364051579
 20
171.0414607828461
 30
0.0
 11
100.1398364051579
 21
170.2081274495127
 31
0.0
 12
97.63983640515794
 22
170.6247941161794
 32
0.0
 13
97.63983640515794
 23
170.6247941161794
 33
0.0
  0
MTEXT
  5
1861
330
1857
100
AcDbEntity
  8
文字
 62
     0
370
    -3
100
AcDbMText
 10
104.0981697384913
 20
172.4997941161794
 30
0.0
 40
2.5
 41
0.0
 46
0.0
 71
     5
 72
     1
  1
2
 73
     1
 44
1.0
  0
POINT
  5
1862
330
1857
100
AcDbEntity
  8
Defpoints
 62
     0
100
AcDbPoint
 10
95.63983640515794
 20
163.1299826243851
 30
0.0
  0
POINT
  5
1863
330
1857
100
AcDbEntity
  8
Defpoints
 62
     0
100
AcDbPoint
 10
97.63983640515794
 20
163.1299826243851
 30
0.0
  0
POINT
  5
1864
330
1857
100
AcDbEntity
  8
Defpoints
 62
     0
100
AcDbPoint
 10
97.63983640515794
 20
170.6247941161794
 30
0.0
  0
ENDBLK
  5
1859
330
1857
100
AcDbEntity
  8
0
100
AcDbBlockEnd
  0
BLOCK
  5
1866
330
1865
100
AcDbEntity
  8
0
100
AcDbBlockBegin
  2
*D40
 70
     1
 10
0.0
 20
0.0
 30
0.0
  3
*D40
  1
*D41
  0
LINE
  5
1868
330
1865
100
AcDbEntity
  8
文字
 62
     0
370
    -2
100
AcDbLine
 10
95.01483640515794
 20
163.1299826243851
 30
0.0
 11
82.78036454991658
 21
163.1299826243851
 31
0.0
  0
LINE
  5
1869
330
1865
100
AcDbEntity
  8
文字
 62
     0
370
    -2
100
AcDbLine
 10
95.01483640515794
 20
161.1299826243851
 30
0.0
 11
82.78036454991658
 21
161.1299826243851
 31
0.0
  0
LINE
  5
186A
330
1865
100
AcDbEntity
  8
文字
 62
     0
370
    -2
100
AcDbLine
 10
84.03036454991658
 20
158.6299826243851
 30
0.0
 11
84.03036454991658
 21
153.2133159577184
 31
0.0
  0
LINE
  5
186B
330
1865
100
AcDbEntity
  8
文字
 62
     0
370
    -2
100
AcDbLine
 10
84.03036454991658
 20
163.1299826243851
 30
0.0
 11
84.03036454991658
 21
161.1299826243851
 31
0.0
  0
LINE
  5
186C
330
1865
100
AcDbEntity
  8
文字
 62
     0
370
    -2
100
AcDbLine
 10
84.03036454991658
 20
165.6299826243851
 30
0.0
 11
84.03036454991658
 21
168.1299826243851
 31
0.0
  0
SOLID
  5
186D
330
1865
100
AcDbEntity
  8
文字
 62
     0
100
AcDbTrace
 10
83.61369788324991
 20
165.6299826243851
 30
0.0
 11
84.44703121658326
 21
165.6299826243851
 31
0.0
 12
84.03036454991658
 22
163.1299826243851
 32
0.0
 13
84.03036454991658
 23
163.1299826243851
 33
0.0
  0
SOLID
  5
186E
330
1865
100
AcDbEntity
  8
文字
 62
     0
100
AcDbTrace
 10
84.44703121658326
 20
158.6299826243851
 30
0.0
 11
83.61369788324991
 21
158.6299826243851
 31
0.0
 12
84.03036454991658
 22
161.1299826243851
 32
0.0
 13
84.03036454991658
 23
161.1299826243851
 33
0.0
  0
MTEXT
  5
186F
330
1865
100
AcDbEntity
  8
文字
 62
     0
370
    -3
100
AcDbMText
 10
82.15536454991658
 20
154.6716492910518
 30
0.0
 40
2.5
 41
0.0
 46
0.0
 71
     5
 72
     1
  1
2
 11
0.0
 21
1.0
 31
0.0
 73
     1
 44
1.0
  0
POINT
  5
1870
330
1865
100
AcDbEntity
  8
Defpoints
 62
     0
100
AcDbPoint
 10
95.63983640515794
 20
163.1299826243851
 30
0.0
  0
POINT
  5
1871
330
1865
100
AcDbEntity
  8
Defpoints
 62
     0
100
AcDbPoint
 10
95.63983640515794
 20
161.1299826243851
 30
0.0
  0
POINT
  5
1872
330
1865
100
AcDbEntity
  8
Defpoints
 62
     0
100
AcDbPoint
 10
84.03036454991658
 20
161.1299826243851
 30
0.0
  0
ENDBLK
  5
1867
330
1865
100
AcDbEntity
  8
0
100
AcDbBlockEnd
  0
BLOCK
  5
1874
330
1873
100
AcDbEntity
  8
0
100
AcDbBlockBegin
  2
*D41
 70
     1
 10
0.0
 20
0.0
 30
0.0
  3
*D41
  1
*D42
  0
LINE
  5
1876
330
1873
100
AcDbEntity
  8
文字
 62
     0
370
    -2
100
AcDbLine
 10
101.2648364051579
 20
163.1299826243851
 30
0.0
 11
130.8675135737998
 21
163.1299826243851
 31
0.0
  0
LINE
  5
1877
330
1873
100
AcDbEntity
  8
文字
 62
     0
370
    -2
100
AcDbLine
 10
106.8042284193274
 20
111.1299826243851
 30
0.0
 11
130.8675135737998
 21
111.1299826243851
 31
0.0
  0
LINE
  5
1878
330
1873
100
AcDbEntity
  8
文字
 62
     0
370
    -2
100
AcDbLine
 10
129.6175135737998
 20
160.6299826243851
 30
0.0
 11
129.6175135737998
 21
113.6299826243851
 31
0.0
  0
SOLID
  5
1879
330
1873
100
AcDbEntity
  8
文字
 62
     0
100
AcDbTrace
 10
130.0341802404665
 20
160.6299826243851
 30
0.0
 11
129.2008469071332
 21
160.6299826243851
 31
0.0
 12
129.6175135737998
 22
163.1299826243851
 32
0.0
 13
129.6175135737998
 23
163.1299826243851
 33
0.0
  0
SOLID
  5
187A
330
1873
100
AcDbEntity
  8
文字
 62
     0
100
AcDbTrace
 10
129.2008469071332
 20
113.6299826243851
 30
0.0
 11
130.0341802404665
 21
113.6299826243851
 31
0.0
 12
129.6175135737998
 22
111.1299826243851
 32
0.0
 13
129.6175135737998
 23
111.1299826243851
 33
0.0
  0
MTEXT
  5
187B
330
1873
100
AcDbEntity
  8
文字
 62
     0
370
    -3
100
AcDbMText
 10
127.7425135737998
 20
137.1299826243851
 30
0.0
 40
2.5
 41
0.0
 46
0.0
 71
     5
 72
     1
  1
52
 11
0.0
 21
1.0
 31
0.0
 73
     1
 44
1.0
  0
POINT
  5
187C
330
1873
100
AcDbEntity
  8
Defpoints
 62
     0
100
AcDbPoint
 10
100.6398364051579
 20
163.1299826243851
 30
0.0
  0
POINT
  5
187D
330
1873
100
AcDbEntity
  8
Defpoints
 62
     0
100
AcDbPoint
 10
106.1792284193274
 20
111.1299826243851
 30
0.0
  0
POINT
  5
187E
330
1873
100
AcDbEntity
  8
Defpoints
 62
     0
100
AcDbPoint
 10
129.6175135737998
 20
111.1299826243851
 30
0.0
  0
ENDBLK
  5
1875
330
1873
100
AcDbEntity
  8
0
100
AcDbBlockEnd
  0
BLOCK
  5
18E2
330
18E1
100
AcDbEntity
  8
0
100
AcDbBlockBegin
  2
*D42
 70
     1
 10
0.0
 20
0.0
 30
0.0
  3
*D42
  1
*D24
  0
LINE
  5
18E3
330
18E1
100
AcDbEntity
  8
文字
 62
     0
370
    -2
100
AcDbLine
 10
28.28454380495149
 20
24.80761063637807
 30
0.0
 11
54.13666069551249
 21
24.80761063637807
 31
0.0
  0
LINE
  5
18E4
330
18E1
100
AcDbEntity
  8
文字
 62
     0
370
    -2
100
AcDbLine
 10
36.94298802964212
 20
16.04169636768104
 30
0.0
 11
54.13666069551249
 21
16.04169636768103
 31
0.0
  0
LINE
  5
18E5
330
18E1
100
AcDbEntity
  8
文字
 62
     0
370
    -2
100
AcDbLine
 10
52.88666069551249
 20
22.30761063637807
 30
0.0
 11
52.88666069551249
 21
18.54169636768103
 31
0.0
  0
SOLID
  5
18E6
330
18E1
100
AcDbEntity
  8
文字
 62
     0
100
AcDbTrace
 10
53.30332736217915
 20
22.30761063637807
 30
0.0
 11
52.46999402884583
 21
22.30761063637807
 31
0.0
 12
52.88666069551249
 22
24.80761063637807
 32
0.0
 13
52.88666069551249
 23
24.80761063637807
 33
0.0
  0
SOLID
  5
18E7
330
18E1
100
AcDbEntity
  8
文字
 62
     0
100
AcDbTrace
 10
52.46999402884583
 20
18.54169636768103
 30
0.0
 11
53.30332736217915
 21
18.54169636768103
 31
0.0
 12
52.88666069551249
 22
16.04169636768103
 32
0.0
 13
52.88666069551249
 23
16.04169636768103
 33
0.0
  0
MTEXT
  5
18E8
330
18E1
100
AcDbEntity
  8
文字
 62
     0
370
    -3
100
AcDbMText
 10
51.01166069551249
 20
21.285859614132
 30
0.0
 40
2.5
 41
0.0
 46
0.0
 71
     5
 72
     1
  1
9
 11
0.0
 21
1.0
 31
0.0
 73
     1
 44
1.0
  0
POINT
  5
18E9
330
18E1
100
AcDbEntity
  8
Defpoints
 62
     0
100
AcDbPoint
 10
27.65954380495149
 20
24.80761063637807
 30
0.0
  0
POINT
  5
18EA
330
18E1
100
AcDbEntity
  8
Defpoints
 62
     0
100
AcDbPoint
 10
36.31798802964212
 20
16.04169636768104
 30
0.0
  0
POINT
  5
18EB
330
18E1
100
AcDbEntity
  8
Defpoints
 62
     0
100
AcDbPoint
 10
52.88666069551249
 20
16.04169636768104
 30
0.0
  0
ENDBLK
  5
18EC
330
18E1
100
AcDbEntity
  8
0
100
AcDbBlockEnd
  0
BLOCK
  5
18F4
330
18F3
100
AcDbEntity
  8
0
100
AcDbBlockBegin
  2
*D43
 70
     1
 10
0.0
 20
0.0
 30
0.0
  3
*D43
  1
*D61
  0
LINE
  5
18F5
330
18F3
100
AcDbEntity
  8
文字
 62
     0
370
    -2
100
AcDbLine
 10
7.631155039653954
 20
17.9789301392336
 30
0.0
 11
7.631155039653954
 21
0.0
 31
0.0
  0
LINE
  5
18F6
330
18F3
100
AcDbEntity
  8
文字
 62
     0
370
    -2
100
AcDbLine
 10
40.63115503965396
 20
17.97893013923354
 30
0.0
 11
40.63115503965396
 21
0.0
 31
0.0
  0
LINE
  5
18F7
330
18F3
100
AcDbEntity
  8
文字
 62
     0
370
    -2
100
AcDbLine
 10
10.13115503965395
 20
1.25
 30
0.0
 11
38.13115503965396
 21
1.25
 31
0.0
  0
SOLID
  5
18F8
330
18F3
100
AcDbEntity
  8
文字
 62
     0
100
AcDbTrace
 10
10.13115503965395
 20
1.666666666666667
 30
0.0
 11
10.13115503965395
 21
0.8333333333333333
 31
0.0
 12
7.631155039653954
 22
1.25
 32
0.0
 13
7.631155039653954
 23
1.25
 33
0.0
  0
SOLID
  5
18F9
330
18F3
100
AcDbEntity
  8
文字
 62
     0
100
AcDbTrace
 10
38.13115503965396
 20
0.8333333333333333
 30
0.0
 11
38.13115503965396
 21
1.666666666666667
 31
0.0
 12
40.63115503965396
 22
1.25
 32
0.0
 13
40.63115503965396
 23
1.25
 33
0.0
  0
MTEXT
  5
18FA
330
18F3
100
AcDbEntity
  8
文字
 62
     0
100
AcDbMText
 10
24.13115503965396
 20
3.125
 30
0.0
 40
2.5
 41
0.0
 46
0.0
 71
     5
 72
     1
  1
%%c33
 73
     1
 44
1.0
  0
POINT
  5
18FB
330
18F3
100
AcDbEntity
  8
Defpoints
 62
     0
100
AcDbPoint
 10
7.631155039653954
 20
18.6039301392336
 30
0.0
  0
POINT
  5
18FC
330
18F3
100
AcDbEntity
  8
Defpoints
 62
     0
100
AcDbPoint
 10
40.63115503965396
 20
18.60393013923354
 30
0.0
  0
POINT
  5
18FD
330
18F3
100
AcDbEntity
  8
Defpoints
 62
     0
100
AcDbPoint
 10
40.63115503965396
 20
1.25
 30
0.0
  0
ENDBLK
  5
18FE
330
18F3
100
AcDbEntity
  8
0
100
AcDbBlockEnd
  0
BLOCK
  5
1903
330
1902
100
AcDbEntity
  8
0
100
AcDbBlockBegin
  2
*D44
 70
     1
 10
0.0
 20
0.0
 30
0.0
  3
*D44
  1
*D62
  0
LINE
  5
1904
330
1902
100
AcDbEntity
  8
文字
 62
     0
370
    -2
100
AcDbLine
 10
9.506155039653951
 20
21.1039301392336
 30
0.0
 11
1.882500000000004
 21
21.1039301392336
 31
0.0
  0
LINE
  5
1905
330
1902
100
AcDbEntity
  8
文字
 62
     0
370
    -2
100
AcDbLine
 10
9.506155039653951
 20
16.1039301392336
 30
0.0
 11
1.882500000000004
 21
16.1039301392336
 31
0.0
  0
LINE
  5
1906
330
1902
100
AcDbEntity
  8
文字
 62
     0
370
    -2
100
AcDbLine
 10
3.132500000000004
 20
21.1039301392336
 30
0.0
 11
3.132500000000004
 21
16.1039301392336
 31
0.0
  0
LINE
  5
1907
330
1902
100
AcDbEntity
  8
文字
 62
     0
370
    -2
100
AcDbLine
 10
3.132500000000005
 20
23.6039301392336
 30
0.0
 11
3.132500000000005
 21
26.1039301392336
 31
0.0
  0
LINE
  5
1908
330
1902
100
AcDbEntity
  8
文字
 62
     0
370
    -2
100
AcDbLine
 10
3.132500000000004
 20
13.6039301392336
 30
0.0
 11
3.132500000000004
 21
11.1039301392336
 31
0.0
  0
SOLID
  5
1909
330
1902
100
AcDbEntity
  8
文字
 62
     0
100
AcDbTrace
 10
2.715833333333338
 20
23.6039301392336
 30
0.0
 11
3.549166666666671
 21
23.6039301392336
 31
0.0
 12
3.132500000000004
 22
21.1039301392336
 32
0.0
 13
3.132500000000004
 23
21.1039301392336
 33
0.0
  0
SOLID
  5
190A
330
1902
100
AcDbEntity
  8
文字
 62
     0
100
AcDbTrace
 10
3.54916666666667
 20
13.6039301392336
 30
0.0
 11
2.715833333333337
 21
13.6039301392336
 31
0.0
 12
3.132500000000004
 22
16.1039301392336
 32
0.0
 13
3.132500000000004
 23
16.1039301392336
 33
0.0
  0
MTEXT
  5
190B
330
1902
100
AcDbEntity
  8
文字
 62
     0
100
AcDbMText
 10
1.257500000000004
 20
18.6039301392336
 30
0.0
 40
2.5
 41
0.0
 46
0.0
 71
     5
 72
     1
  1
5
 11
8.881784197001253E-17
 21
1.0
 31
0.0
 73
     1
 44
1.0
  0
POINT
  5
190C
330
1902
100
AcDbEntity
  8
Defpoints
 62
     0
100
AcDbPoint
 10
10.13115503965395
 20
21.1039301392336
 30
0.0
  0
POINT
  5
190D
330
1902
100
AcDbEntity
  8
Defpoints
 62
     0
100
AcDbPoint
 10
10.13115503965395
 20
16.1039301392336
 30
0.0
  0
POINT
  5
190E
330
1902
100
AcDbEntity
  8
Defpoints
 62
     0
100
AcDbPoint
 10
3.132500000000004
 20
16.1039301392336
 30
0.0
  0
ENDBLK
  5
190F
330
1902
100
AcDbEntity
  8
0
100
AcDbBlockEnd
  0
BLOCK
  5
1923
330
1922
100
AcDbEntity
  8
0
100
AcDbBlockBegin
  2
*D45
 70
     1
 10
0.0
 20
0.0
 30
0.0
  3
*D45
  1
*D46
  0
LINE
  5
1925
330
1922
100
AcDbEntity
  8
文字
 62
     0
370
    -2
100
AcDbLine
 10
100.6909916546893
 20
104.0999441850398
 30
0.0
 11
126.5431085452503
 21
104.0999441850398
 31
0.0
  0
LINE
  5
1926
330
1922
100
AcDbEntity
  8
文字
 62
     0
370
    -2
100
AcDbLine
 10
109.34943587938
 20
95.33402991634273
 30
0.0
 11
126.5431085452503
 21
95.33402991634273
 31
0.0
  0
LINE
  5
1927
330
1922
100
AcDbEntity
  8
文字
 62
     0
370
    -2
100
AcDbLine
 10
125.2931085452503
 20
101.5999441850398
 30
0.0
 11
125.2931085452503
 21
97.83402991634273
 31
0.0
  0
SOLID
  5
1928
330
1922
100
AcDbEntity
  8
文字
 62
     0
100
AcDbTrace
 10
125.709775211917
 20
101.5999441850398
 30
0.0
 11
124.8764418785837
 21
101.5999441850398
 31
0.0
 12
125.2931085452503
 22
104.0999441850398
 32
0.0
 13
125.2931085452503
 23
104.0999441850398
 33
0.0
  0
SOLID
  5
1929
330
1922
100
AcDbEntity
  8
文字
 62
     0
100
AcDbTrace
 10
124.8764418785837
 20
97.83402991634273
 30
0.0
 11
125.709775211917
 21
97.83402991634273
 31
0.0
 12
125.2931085452503
 22
95.33402991634273
 32
0.0
 13
125.2931085452503
 23
95.33402991634273
 33
0.0
  0
MTEXT
  5
192A
330
1922
100
AcDbEntity
  8
文字
 62
     0
370
    -3
100
AcDbMText
 10
123.4181085452503
 20
100.5781931627937
 30
0.0
 40
2.5
 41
0.0
 46
0.0
 71
     5
 72
     1
  1
9
 11
0.0
 21
1.0
 31
0.0
 73
     1
 44
1.0
  0
POINT
  5
192B
330
1922
100
AcDbEntity
  8
Defpoints
 62
     0
100
AcDbPoint
 10
100.0659916546893
 20
104.0999441850398
 30
0.0
  0
POINT
  5
192C
330
1922
100
AcDbEntity
  8
Defpoints
 62
     0
100
AcDbPoint
 10
108.72443587938
 20
95.33402991634273
 30
0.0
  0
POINT
  5
192D
330
1922
100
AcDbEntity
  8
Defpoints
 62
     0
100
AcDbPoint
 10
125.2931085452503
 20
95.33402991634273
 30
0.0
  0
ENDBLK
  5
1924
330
1922
100
AcDbEntity
  8
0
100
AcDbBlockEnd
  0
BLOCK
  5
192F
330
192E
100
AcDbEntity
  8
0
100
AcDbBlockBegin
  2
*D46
 70
     1
 10
0.0
 20
0.0
 30
0.0
  3
*D46
  1
*D47
  0
LINE
  5
1931
330
192E
100
AcDbEntity
  8
文字
 62
     0
370
    -2
100
AcDbLine
 10
80.03760288939179
 20
97.27126368789528
 30
0.0
 11
80.03760288939179
 21
79.29233354866169
 31
0.0
  0
LINE
  5
1932
330
192E
100
AcDbEntity
  8
文字
 62
     0
370
    -2
100
AcDbLine
 10
113.0376028893918
 20
97.27126368789523
 30
0.0
 11
113.0376028893918
 21
79.29233354866169
 31
0.0
  0
LINE
  5
1933
330
192E
100
AcDbEntity
  8
文字
 62
     0
370
    -2
100
AcDbLine
 10
82.53760288939179
 20
80.54233354866169
 30
0.0
 11
110.5376028893918
 21
80.54233354866169
 31
0.0
  0
SOLID
  5
1934
330
192E
100
AcDbEntity
  8
文字
 62
     0
100
AcDbTrace
 10
82.53760288939179
 20
80.95900021532836
 30
0.0
 11
82.53760288939179
 21
80.12566688199502
 31
0.0
 12
80.03760288939179
 22
80.54233354866169
 32
0.0
 13
80.03760288939179
 23
80.54233354866169
 33
0.0
  0
SOLID
  5
1935
330
192E
100
AcDbEntity
  8
文字
 62
     0
100
AcDbTrace
 10
110.5376028893918
 20
80.12566688199502
 30
0.0
 11
110.5376028893918
 21
80.95900021532836
 31
0.0
 12
113.0376028893918
 22
80.54233354866169
 32
0.0
 13
113.0376028893918
 23
80.54233354866169
 33
0.0
  0
MTEXT
  5
1936
330
192E
100
AcDbEntity
  8
文字
 62
     0
370
    -3
100
AcDbMText
 10
96.53760288939179
 20
82.41733354866169
 30
0.0
 40
2.5
 41
0.0
 46
0.0
 71
     5
 72
     1
  1
%%c33
 73
     1
 44
1.0
  0
POINT
  5
1937
330
192E
100
AcDbEntity
  8
Defpoints
 62
     0
100
AcDbPoint
 10
80.03760288939179
 20
97.89626368789528
 30
0.0
  0
POINT
  5
1938
330
192E
100
AcDbEntity
  8
Defpoints
 62
     0
100
AcDbPoint
 10
113.0376028893918
 20
97.89626368789523
 30
0.0
  0
POINT
  5
1939
330
192E
100
AcDbEntity
  8
Defpoints
 62
     0
100
AcDbPoint
 10
113.0376028893918
 20
80.54233354866169
 30
0.0
  0
ENDBLK
  5
1930
330
192E
100
AcDbEntity
  8
0
100
AcDbBlockEnd
  0
BLOCK
  5
193B
330
193A
100
AcDbEntity
  8
0
100
AcDbBlockBegin
  2
*D47
 70
     1
 10
0.0
 20
0.0
 30
0.0
  3
*D47
  1
*D48
  0
LINE
  5
193D
330
193A
100
AcDbEntity
  8
文字
 62
     0
370
    -2
100
AcDbLine
 10
81.91260288939179
 20
100.3962636878953
 30
0.0
 11
74.28894784973785
 21
100.3962636878953
 31
0.0
  0
LINE
  5
193E
330
193A
100
AcDbEntity
  8
文字
 62
     0
370
    -2
100
AcDbLine
 10
81.91260288939179
 20
95.39626368789528
 30
0.0
 11
74.28894784973785
 21
95.39626368789528
 31
0.0
  0
LINE
  5
193F
330
193A
100
AcDbEntity
  8
文字
 62
     0
370
    -2
100
AcDbLine
 10
75.53894784973785
 20
100.3962636878953
 30
0.0
 11
75.53894784973785
 21
95.39626368789528
 31
0.0
  0
LINE
  5
1940
330
193A
100
AcDbEntity
  8
文字
 62
     0
370
    -2
100
AcDbLine
 10
75.53894784973785
 20
102.8962636878953
 30
0.0
 11
75.53894784973785
 21
105.3962636878953
 31
0.0
  0
LINE
  5
1941
330
193A
100
AcDbEntity
  8
文字
 62
     0
370
    -2
100
AcDbLine
 10
75.53894784973785
 20
92.89626368789528
 30
0.0
 11
75.53894784973785
 21
90.39626368789528
 31
0.0
  0
SOLID
  5
1942
330
193A
100
AcDbEntity
  8
文字
 62
     0
100
AcDbTrace
 10
75.12228118307118
 20
102.8962636878953
 30
0.0
 11
75.95561451640452
 21
102.8962636878953
 31
0.0
 12
75.53894784973785
 22
100.3962636878953
 32
0.0
 13
75.53894784973785
 23
100.3962636878953
 33
0.0
  0
SOLID
  5
1943
330
193A
100
AcDbEntity
  8
文字
 62
     0
100
AcDbTrace
 10
75.95561451640452
 20
92.89626368789528
 30
0.0
 11
75.12228118307118
 21
92.89626368789528
 31
0.0
 12
75.53894784973785
 22
95.39626368789528
 32
0.0
 13
75.53894784973785
 23
95.39626368789528
 33
0.0
  0
MTEXT
  5
1944
330
193A
100
AcDbEntity
  8
文字
 62
     0
370
    -3
100
AcDbMText
 10
73.66394784973785
 20
97.8962636878953
 30
0.0
 40
2.5
 41
0.0
 46
0.0
 71
     5
 72
     1
  1
5
 11
0.0
 21
1.0
 31
0.0
 73
     1
 44
1.0
  0
POINT
  5
1945
330
193A
100
AcDbEntity
  8
Defpoints
 62
     0
100
AcDbPoint
 10
82.53760288939179
 20
100.3962636878953
 30
0.0
  0
POINT
  5
1946
330
193A
100
AcDbEntity
  8
Defpoints
 62
     0
100
AcDbPoint
 10
82.53760288939179
 20
95.39626368789528
 30
0.0
  0
POINT
  5
1947
330
193A
100
AcDbEntity
  8
Defpoints
 62
     0
100
AcDbPoint
 10
75.53894784973785
 20
95.39626368789528
 30
0.0
  0
ENDBLK
  5
193C
330
193A
100
AcDbEntity
  8
0
100
AcDbBlockEnd
  0
BLOCK
  5
196E
330
196D
100
AcDbEntity
  8
0
100
AcDbBlockBegin
  2
*D48
 70
     1
 10
0.0
 20
0.0
 30
0.0
  3
*D48
  1
*D28
  0
LINE
  5
196F
330
196D
100
AcDbEntity
  8
文字
 62
     0
370
    -2
100
AcDbLine
 10
11.0
 20
12.20469211534262
 30
0.0
 11
11.0
 21
0.0
 31
0.0
  0
LINE
  5
1970
330
196D
100
AcDbEntity
  8
文字
 62
     0
370
    -2
100
AcDbLine
 10
5.0
 20
12.20469211534262
 30
0.0
 11
5.0
 21
0.0
 31
0.0
  0
LINE
  5
1971
330
196D
100
AcDbEntity
  8
文字
 62
     0
370
    -2
100
AcDbLine
 10
11.0
 20
1.25
 30
0.0
 11
18.91666666666675
 21
1.25
 31
0.0
  0
LINE
  5
1972
330
196D
100
AcDbEntity
  8
文字
 62
     0
370
    -2
100
AcDbLine
 10
11.0
 20
1.25
 30
0.0
 11
5.0
 21
1.25
 31
0.0
  0
LINE
  5
1973
330
196D
100
AcDbEntity
  8
文字
 62
     0
370
    -2
100
AcDbLine
 10
13.5
 20
1.25
 30
0.0
 11
16.0
 21
1.25
 31
0.0
  0
LINE
  5
1974
330
196D
100
AcDbEntity
  8
文字
 62
     0
370
    -2
100
AcDbLine
 10
2.5
 20
1.25
 30
0.0
 11
0.0
 21
1.25
 31
0.0
  0
SOLID
  5
1975
330
196D
100
AcDbEntity
  8
文字
 62
     0
100
AcDbTrace
 10
13.5
 20
1.666666666666667
 30
0.0
 11
13.5
 21
0.8333333333333333
 31
0.0
 12
11.0
 22
1.25
 32
0.0
 13
11.0
 23
1.25
 33
0.0
  0
SOLID
  5
1976
330
196D
100
AcDbEntity
  8
文字
 62
     0
100
AcDbTrace
 10
2.5
 20
0.8333333333333333
 30
0.0
 11
2.5
 21
1.666666666666667
 31
0.0
 12
5.0
 22
1.25
 32
0.0
 13
5.0
 23
1.25
 33
0.0
  0
MTEXT
  5
1977
330
196D
100
AcDbEntity
  8
文字
 62
     0
100
AcDbMText
 10
17.45833333333341
 20
3.125
 30
0.0
 40
2.5
 41
0.0
 46
0.0
 71
     5
 72
     1
  1
6
 73
     1
 44
1.0
  0
POINT
  5
1978
330
196D
100
AcDbEntity
  8
Defpoints
 62
     0
100
AcDbPoint
 10
11.0
 20
12.82969211534262
 30
0.0
  0
POINT
  5
1979
330
196D
100
AcDbEntity
  8
Defpoints
 62
     0
100
AcDbPoint
 10
5.0
 20
12.82969211534262
 30
0.0
  0
POINT
  5
197A
330
196D
100
AcDbEntity
  8
Defpoints
 62
     0
100
AcDbPoint
 10
5.0
 20
1.25
 30
0.0
  0
ENDBLK
  5
197B
330
196D
100
AcDbEntity
  8
0
100
AcDbBlockEnd
  0
BLOCK
  5
1983
330
1982
100
AcDbEntity
  8
0
100
AcDbBlockBegin
  2
*D49
 70
     1
 10
0.0
 20
0.0
 30
0.0
  3
*D49
  1
*D51
  0
LINE
  5
1985
330
1982
100
AcDbEntity
  8
文字
 62
     0
370
    -2
100
AcDbLine
 10
99.63351258114139
 20
94.68422603597091
 30
0.0
 11
99.63351258114139
 21
87.19050153039043
 31
0.0
  0
LINE
  5
1986
330
1982
100
AcDbEntity
  8
文字
 62
     0
370
    -2
100
AcDbLine
 10
93.63351258114139
 20
94.68422603597091
 30
0.0
 11
93.63351258114139
 21
87.19050153039043
 31
0.0
  0
LINE
  5
1987
330
1982
100
AcDbEntity
  8
文字
 62
     0
370
    -2
100
AcDbLine
 10
99.63351258114139
 20
88.44050153039043
 30
0.0
 11
107.9747487437611
 21
88.44050153039043
 31
0.0
  0
LINE
  5
1988
330
1982
100
AcDbEntity
  8
文字
 62
     0
370
    -2
100
AcDbLine
 10
99.63351258114139
 20
88.44050153039043
 30
0.0
 11
93.63351258114139
 21
88.44050153039043
 31
0.0
  0
LINE
  5
1989
330
1982
100
AcDbEntity
  8
文字
 62
     0
370
    -2
100
AcDbLine
 10
102.1335125811414
 20
88.44050153039043
 30
0.0
 11
104.6335125811414
 21
88.44050153039043
 31
0.0
  0
LINE
  5
198A
330
1982
100
AcDbEntity
  8
文字
 62
     0
370
    -2
100
AcDbLine
 10
91.13351258114139
 20
88.44050153039043
 30
0.0
 11
88.63351258114139
 21
88.44050153039043
 31
0.0
  0
SOLID
  5
198B
330
1982
100
AcDbEntity
  8
文字
 62
     0
100
AcDbTrace
 10
102.1335125811414
 20
88.8571681970571
 30
0.0
 11
102.1335125811414
 21
88.02383486372376
 31
0.0
 12
99.63351258114139
 22
88.44050153039043
 32
0.0
 13
99.63351258114139
 23
88.44050153039043
 33
0.0
  0
SOLID
  5
198C
330
1982
100
AcDbEntity
  8
文字
 62
     0
100
AcDbTrace
 10
91.13351258114139
 20
88.02383486372376
 30
0.0
 11
91.13351258114139
 21
88.8571681970571
 31
0.0
 12
93.63351258114139
 22
88.44050153039043
 32
0.0
 13
93.63351258114139
 23
88.44050153039043
 33
0.0
  0
MTEXT
  5
198D
330
1982
100
AcDbEntity
  8
文字
 62
     0
370
    -3
100
AcDbMText
 10
106.5164154104278
 20
90.31550153039043
 30
0.0
 40
2.5
 41
0.0
 46
0.0
 71
     5
 72
     1
  1
6
 73
     1
 44
1.0
  0
POINT
  5
198E
330
1982
100
AcDbEntity
  8
Defpoints
 62
     0
100
AcDbPoint
 10
99.63351258114139
 20
95.30922603597091
 30
0.0
  0
POINT
  5
198F
330
1982
100
AcDbEntity
  8
Defpoints
 62
     0
100
AcDbPoint
 10
93.63351258114139
 20
95.30922603597091
 30
0.0
  0
POINT
  5
1990
330
1982
100
AcDbEntity
  8
Defpoints
 62
     0
100
AcDbPoint
 10
93.63351258114139
 20
88.44050153039043
 30
0.0
  0
ENDBLK
  5
1984
330
1982
100
AcDbEntity
  8
0
100
AcDbBlockEnd
  0
BLOCK
  5
19C4
330
19C3
100
AcDbEntity
  8
0
100
AcDbBlockBegin
  2
*D50
 70
     1
 10
0.0
 20
0.0
 30
0.0
  3
*D50
  1
*D52
  0
LINE
  5
19C5
330
19C3
100
AcDbEntity
  8
文字
 62
     0
370
    -2
100
AcDbLine
 10
31.0
 20
40.90822081759369
 30
0.0
 11
31.0
 21
0.0
 31
0.0
  0
LINE
  5
19C6
330
19C3
100
AcDbEntity
  8
文字
 62
     0
370
    -2
100
AcDbLine
 10
9.0
 20
40.90822081759369
 30
0.0
 11
9.0
 21
0.0
 31
0.0
  0
LINE
  5
19C7
330
19C3
100
AcDbEntity
  8
文字
 62
     0
370
    -2
100
AcDbLine
 10
28.5
 20
1.25
 30
0.0
 11
11.5
 21
1.25
 31
0.0
  0
SOLID
  5
19C8
330
19C3
100
AcDbEntity
  8
文字
 62
     0
100
AcDbTrace
 10
28.5
 20
0.8333333333333333
 30
0.0
 11
28.5
 21
1.666666666666667
 31
0.0
 12
31.0
 22
1.25
 32
0.0
 13
31.0
 23
1.25
 33
0.0
  0
SOLID
  5
19C9
330
19C3
100
AcDbEntity
  8
文字
 62
     0
100
AcDbTrace
 10
11.5
 20
1.666666666666667
 30
0.0
 11
11.5
 21
0.8333333333333333
 31
0.0
 12
9.0
 22
1.25
 32
0.0
 13
9.0
 23
1.25
 33
0.0
  0
MTEXT
  5
19CA
330
19C3
100
AcDbEntity
  8
文字
 62
     0
100
AcDbMText
 10
20.0
 20
3.125
 30
0.0
 40
2.5
 41
0.0
 46
0.0
 71
     5
 72
     1
  1
%%c22
 73
     1
 44
1.0
  0
POINT
  5
19CB
330
19C3
100
AcDbEntity
  8
Defpoints
 62
     0
100
AcDbPoint
 10
31.0
 20
41.53322081759369
 30
0.0
  0
POINT
  5
19CC
330
19C3
100
AcDbEntity
  8
Defpoints
 62
     0
100
AcDbPoint
 10
9.0
 20
41.53322081759369
 30
0.0
  0
POINT
  5
19CD
330
19C3
100
AcDbEntity
  8
Defpoints
 62
     0
100
AcDbPoint
 10
9.0
 20
1.25
 30
0.0
  0
ENDBLK
  5
19CE
330
19C3
100
AcDbEntity
  8
0
100
AcDbBlockEnd
  0
BLOCK
  5
19E7
330
19E6
100
AcDbEntity
  8
0
100
AcDbBlockBegin
  2
*D51
 70
     1
 10
0.0
 20
0.0
 30
0.0
  3
*D51
  1
*D54
  0
LINE
  5
19E9
330
19E6
100
AcDbEntity
  8
文字
 62
     0
370
    -2
100
AcDbLine
 10
178.9054318911999
 20
121.2501146954842
 30
0.0
 11
178.9054318911999
 21
80.34189387789048
 31
0.0
  0
LINE
  5
19EA
330
19E6
100
AcDbEntity
  8
文字
 62
     0
370
    -2
100
AcDbLine
 10
156.9054318911999
 20
121.2501146954842
 30
0.0
 11
156.9054318911999
 21
80.34189387789048
 31
0.0
  0
LINE
  5
19EB
330
19E6
100
AcDbEntity
  8
文字
 62
     0
370
    -2
100
AcDbLine
 10
176.4054318911999
 20
81.59189387789048
 30
0.0
 11
159.4054318911999
 21
81.59189387789048
 31
0.0
  0
SOLID
  5
19EC
330
19E6
100
AcDbEntity
  8
文字
 62
     0
100
AcDbTrace
 10
176.4054318911999
 20
81.17522721122381
 30
0.0
 11
176.4054318911999
 21
82.00856054455716
 31
0.0
 12
178.9054318911999
 22
81.59189387789048
 32
0.0
 13
178.9054318911999
 23
81.59189387789048
 33
0.0
  0
SOLID
  5
19ED
330
19E6
100
AcDbEntity
  8
文字
 62
     0
100
AcDbTrace
 10
159.4054318911999
 20
82.00856054455716
 30
0.0
 11
159.4054318911999
 21
81.17522721122381
 31
0.0
 12
156.9054318911999
 22
81.59189387789048
 32
0.0
 13
156.9054318911999
 23
81.59189387789048
 33
0.0
  0
MTEXT
  5
19EE
330
19E6
100
AcDbEntity
  8
文字
 62
     0
370
    -3
100
AcDbMText
 10
167.9054318911999
 20
83.46689387789048
 30
0.0
 40
2.5
 41
0.0
 46
0.0
 71
     5
 72
     1
  1
%%c22
 73
     1
 44
1.0
  0
POINT
  5
19EF
330
19E6
100
AcDbEntity
  8
Defpoints
 62
     0
100
AcDbPoint
 10
178.9054318911999
 20
121.8751146954842
 30
0.0
  0
POINT
  5
19F0
330
19E6
100
AcDbEntity
  8
Defpoints
 62
     0
100
AcDbPoint
 10
156.9054318911999
 20
121.8751146954842
 30
0.0
  0
POINT
  5
19F1
330
19E6
100
AcDbEntity
  8
Defpoints
 62
     0
100
AcDbPoint
 10
156.9054318911999
 20
81.59189387789048
 30
0.0
  0
ENDBLK
  5
19E8
330
19E6
100
AcDbEntity
  8
0
100
AcDbBlockEnd
  0
ENDSEC
  0
SECTION
  2
ENTITIES
  0
LINE
  5
A5B
330
21
100
AcDbEntity
  8
実線
370
    -3
100
AcDbLine
 10
93.4846249324741
 20
104.1299826243851
 30
0.0
 11
99.79158541814066
 21
104.1299826243851
 31
0.0
  0
LINE
  5
A76
330
21
100
AcDbEntity
  8
中心線
370
    -3
100
AcDbLine
 10
96.63983640515801
 20
91.88404701149277
 30
0.0
 11
96.63983640515798
 21
198.1773131250367
 31
0.0
  0
MTEXT
  5
11F9
330
21
100
AcDbEntity
  8
文字
100
AcDbMText
 10
229.4131315167949
 20
143.9032343405189
 30
0.0
 40
2.5
 41
0.0
 46
0.0
 71
     7
 72
     1
  1

 73
     1
 44
1.0
  0
LINE
  5
13CE
330
21
100
AcDbEntity
  8
実線
370
    -3
100
AcDbLine
 10
90.639836405158
 20
104.1299826243851
 30
0.0
 11
90.139836405158
 21
105.1299826243851
 31
0.0
  0
LINE
  5
13CF
330
21
100
AcDbEntity
  8
実線
370
    -3
100
AcDbLine
 10
90.139836405158
 20
105.1299826243851
 30
0.0
 11
103.139836405158
 21
105.1299826243851
 31
0.0
  0
LINE
  5
13D0
330
21
100
AcDbEntity
  8
実線
370
    -3
100
AcDbLine
 10
103.139836405158
 20
105.1299826243851
 30
0.0
 11
102.639836405158
 21
104.1299826243851
 31
0.0
  0
LINE
  5
13D1
330
21
100
AcDbEntity
  8
実線
370
    -3
100
AcDbLine
 10
102.639836405158
 20
104.1299826243851
 30
0.0
 11
90.639836405158
 21
104.1299826243851
 31
0.0
  0
LWPOLYLINE
  5
13D2
330
21
100
AcDbEntity
  8
実線
370
    -3
100
AcDbPolyline
 90
        2
 70
     0
 43
0.0
 10
87.10044439098854
 20
111.1299826243851
 10
106.1792284193274
 20
111.1299826243851
  0
ARC
  5
13D4
102
{ACAD_REACTORS
330
142D
102
}
330
21
100
AcDbEntity
  8
実線
370
    -3
100
AcDbCircle
 10
96.639836405158
 20
108.1299826243851
 30
0.0
 40
10.0
100
AcDbArc
 50
342.5423968762779
 51
17.4576031237221
  0
LWPOLYLINE
  5
13D5
330
21
100
AcDbEntity
  8
実線
370
    -3
100
AcDbPolyline
 90
        2
 70
     0
 43
0.0
 10
106.1792284193274
 20
105.1299826243851
 10
87.10044439098854
 20
105.1299826243851
  0
ARC
  5
13D6
330
21
100
AcDbEntity
  8
実線
370
    -3
100
AcDbCircle
 10
96.639836405158
 20
108.1299826243851
 30
0.0
 40
10.0
100
AcDbArc
 50
162.5423968762779
 51
197.4576031237221
  0
DIMENSION
  5
1416
102
{ACAD_REACTORS
330
142D
102
}
102
{ACAD_XDICTIONARY
360
1423
102
}
330
21
100
AcDbEntity
  8
文字
370
    -3
100
AcDbDimension
280
     0
  2
*D3
 10
129.6175135737998
 20
111.1299826243851
 30
0.0
 11
127.7425135737998
 21
103.1885204505185
 31
0.0
 70
    32
  1
15
 71
     5
 42
15.88292434773328
 73
     0
 74
     0
 75
     0
  3
ISO-25
100
AcDbAlignedDimension
 13
110.5654821547625
 23
95.24705827665181
 33
0.0
 14
106.1792284193274
 24
111.1299826243851
 34
0.0
 50
90.0
100
AcDbRotatedDimension
  0
LEADER
  5
147E
330
21
100
AcDbEntity
  8
文字
370
    -3
100
AcDbLeader
  3
ISO-25
 73
     0
 40
2.6425
 41
5.625
 76
     3
 10
86.46592199704344
 20
107.6974332985667
 30
0.0
 10
73.22257760974355
 20
123.0646189252618
 30
0.0
 10
71.85257654573468
 20
123.0646189252618
 30
0.0
340
147F
1001
ACAD
1000
DSTYLE
1002
{
1070
   147
1040
0.625
1070
    77
1070
     1
1002
}
  0
MTEXT
  5
147F
102
{ACAD_REACTORS
330
147E
102
}
330
21
100
AcDbEntity
  8
文字
370
    -3
100
AcDbMText
 10
71.22757654573468
 20
123.6896189252618
 30
0.0
 40
2.5
 41
0.0
 46
0.0
 71
     9
 72
     1
  1
{\fArial|b0|i0|c0|p32;%%c20}
 73
     1
 44
1.0
  0
MTEXT
  5
14B4
330
21
100
AcDbEntity
  8
文字
100
AcDbMText
 10
127.5841542359041
 20
75.14853889856829
 30
0.0
 40
2.5
 41
0.0
 46
0.0
 71
     7
 72
     1
  1

 73
     1
 44
1.0
  0
LWPOLYLINE
  5
1836
330
21
100
AcDbEntity
  8
実線
370
    -3
100
AcDbPolyline
 90
        2
 70
     0
 43
0.0
 10
87.1004443909885
 20
111.1299826243851
 10
106.1792284193274
 20
111.1299826243851
  0
LWPOLYLINE
  5
1837
330
21
100
AcDbEntity
  8
実線
370
    -3
100
AcDbPolyline
 90
        3
 70
     0
 43
0.0
 10
95.63983640515794
 20
163.1299826243851
 10
92.63983640515796
 20
163.1299826243851
 10
90.63983640515796
 20
161.1299826243851
  0
LWPOLYLINE
  5
1838
102
{ACAD_REACTORS
330
1841
330
1844
102
}
330
21
100
AcDbEntity
  8
実線
370
    -3
100
AcDbPolyline
 90
        4
 70
     0
 43
0.0
 10
95.63983640515794
 20
163.1299826243851
 10
95.63983640515794
 20
161.1299826243851
 10
97.63983640515794
 20
161.1299826243851
 10
97.63983640515794
 20
163.1299826243851
  0
LINE
  5
1839
102
{ACAD_REACTORS
330
183E
102
}
330
21
100
AcDbEntity
  8
実線
370
    -3
100
AcDbLine
 10
90.63983640515796
 20
161.1299826243851
 30
0.0
 11
102.6398364051579
 21
161.1299826243851
 31
0.0
  0
LINE
  5
183A
330
21
100
AcDbEntity
  8
実線
370
    -3
100
AcDbLine
 10
92.63983640515796
 20
163.1299826243851
 30
0.0
 11
92.63983640515796
 21
111.1299826243851
 31
0.0
  0
LINE
  5
183B
330
21
100
AcDbEntity
  8
実線
370
    -3
100
AcDbLine
 10
100.6398364051579
 20
163.1299826243851
 30
0.0
 11
100.6398364051579
 21
111.1299826243851
 31
0.0
  0
DIMENSION
  5
183C
102
{ACAD_REACTORS
330
183E
102
}
102
{ACAD_XDICTIONARY
360
183D
102
}
330
21
100
AcDbEntity
  8
文字
370
    -3
100
AcDbDimension
280
     0
  2
*D38
 10
102.6398364051579
 20
179.2688984420835
 30
0.0
 11
96.63983640515792
 21
181.1438984420835
 31
0.0
 70
    32
  1
{\fArial|b0|i0|c0|p32;M }<>
 71
     5
 42
11.99999999999993
 73
     0
 74
     0
 75
     0
  3
ISO-25
100
AcDbAlignedDimension
 13
90.63983640515796
 23
161.1299826243851
 33
0.0
 14
102.6398364051579
 24
161.1299826243851
 34
0.0
100
AcDbRotatedDimension
  0
DIMENSION
  5
183F
102
{ACAD_REACTORS
330
1841
102
}
102
{ACAD_XDICTIONARY
360
1840
102
}
330
21
100
AcDbEntity
  8
文字
370
    -3
100
AcDbDimension
280
     0
  2
*D39
 10
97.63983640515794
 20
170.6247941161794
 30
0.0
 11
104.0981697384913
 21
172.4997941161794
 31
0.0
 70
    32
 71
     5
 42
2.0
 73
     0
 74
     0
 75
     0
  3
ISO-25
100
AcDbAlignedDimension
 13
95.63983640515794
 23
163.1299826243851
 33
0.0
 14
97.63983640515794
 24
163.1299826243851
 34
0.0
100
AcDbRotatedDimension
  0
DIMENSION
  5
1842
102
{ACAD_REACTORS
330
1844
102
}
102
{ACAD_XDICTIONARY
360
1843
102
}
330
21
100
AcDbEntity
  8
文字
370
    -3
100
AcDbDimension
280
     0
  2
*D40
 10
84.03036454991658
 20
161.1299826243851
 30
0.0
 11
82.15536454991658
 21
154.6716492910518
 31
0.0
 70
    32
 71
     5
 42
2.0
 73
     0
 74
     0
 75
     0
  3
ISO-25
100
AcDbAlignedDimension
 13
95.63983640515794
 23
163.1299826243851
 33
0.0
 14
95.63983640515794
 24
161.1299826243851
 34
0.0
 50
90.0
100
AcDbRotatedDimension
  0
LWPOLYLINE
  5
1846
102
{ACAD_REACTORS
330
184A
102
}
330
21
100
AcDbEntity
  8
実線
370
    -3
100
AcDbPolyline
 90
        3
 70
     0
 43
0.0
 10
102.6398364051579
 20
161.1299826243851
 10
100.6398364051579
 20
163.1299826243851
 10
97.63983640515794
 20
163.1299826243851
  0
LWPOLYLINE
  5
1847
330
21
100
AcDbEntity
  8
実線
370
    -3
100
AcDbPolyline
 90
        4
 70
     0
 43
0.0
 10
90.63983640515796
 20
161.1299826243851
 10
90.63983640515796
 20
111.1299826243851
 10
102.6398364051579
 20
111.1299826243851
 10
102.6398364051579
 20
161.1299826243851
  0
DIMENSION
  5
1848
102
{ACAD_REACTORS
330
184A
102
}
102
{ACAD_XDICTIONARY
360
1849
102
}
330
21
100
AcDbEntity
  8
文字
370
    -3
100
AcDbDimension
280
     0
  2
*D41
 10
129.6175135737998
 20
111.1299826243851
 30
0.0
 11
127.7425135737998
 21
137.1299826243851
 31
0.0
 70
    32
 71
     5
 42
52.0
 73
     0
 74
     0
 75
     0
  3
ISO-25
100
AcDbAlignedDimension
 13
100.6398364051579
 23
163.1299826243851
 33
0.0
 14
106.1792284193274
 24
111.1299826243851
 34
0.0
 50
90.0
100
AcDbRotatedDimension
  0
MTEXT
  5
18B2
330
21
100
AcDbEntity
  8
文字・寸法線
 62
     0
100
AcDbMText
 10
114.924026069726
 20
206.2289521264346
 30
0.0
 40
6.0
 41
0.0
 46
6.0
 71
     9
 72
     1
  1
{\fＭＳ ゴシック|b0|i0|c0|p0;S-SC1-3 M12X65}
 73
     1
 44
1.0
1001
ACAD
1000
ACAD_MTEXT_DEFINED_HEIGHT_BEGIN
1070
    46
1040
6.0
1000
ACAD_MTEXT_DEFINED_HEIGHT_END
  0
LINE
  5
1918
330
21
100
AcDbEntity
  8
実線
 62
     0
370
    -3
100
AcDbLine
 10
82.53760288939179
 20
100.3962636878953
 30
0.0
 11
110.5376028893918
 21
100.3962636878952
 31
0.0
  0
LINE
  5
1919
330
21
100
AcDbEntity
  8
実線
 62
     0
370
    -3
100
AcDbLine
 10
82.53760288939179
 20
95.39626368789528
 30
0.0
 11
110.5376028893918
 21
95.39626368789524
 31
0.0
  0
ARC
  5
191A
330
21
100
AcDbEntity
  8
実線
 62
     0
370
    -3
100
AcDbCircle
 10
110.5376028893918
 20
97.89626368789523
 30
0.0
 40
2.499999999999989
100
AcDbArc
 50
270.0
 51
90.0
  0
ARC
  5
191B
102
{ACAD_REACTORS
330
191F
102
}
330
21
100
AcDbEntity
  8
実線
 62
     0
370
    -3
100
AcDbCircle
 10
82.53760288939179
 20
97.89626368789528
 30
0.0
 40
2.5
100
AcDbArc
 50
90.0
 51
270.0
  0
DIMENSION
  5
191C
330
21
100
AcDbEntity
  8
文字
 62
     0
370
    -3
100
AcDbDimension
280
     0
  2
*D46
 10
113.0376028893918
 20
80.54233354866169
 30
0.0
 11
96.53760288939179
 21
82.41733354866169
 31
0.0
 70
    32
  1
%%c<>
 71
     5
 42
33.00000000000001
 73
     0
 74
     0
 75
     0
  3
ISO-25
100
AcDbAlignedDimension
 13
80.03760288939179
 23
97.89626368789528
 33
0.0
 14
113.0376028893918
 24
97.89626368789523
 34
0.0
100
AcDbRotatedDimension
  0
DIMENSION
  5
191D
102
{ACAD_REACTORS
330
191F
102
}
102
{ACAD_XDICTIONARY
360
191E
102
}
330
21
100
AcDbEntity
  8
文字
370
    -3
100
AcDbDimension
280
     0
  2
*D47
 10
75.53894784973785
 20
95.39626368789528
 30
0.0
 11
73.66394784973785
 21
97.8962636878953
 31
0.0
 70
    32
 71
     5
 42
5.000000000000014
 73
     0
 74
     0
 75
     0
  3
ISO-25
100
AcDbAlignedDimension
 13
82.53760288939179
 23
100.3962636878953
 33
0.0
 14
82.53760288939179
 24
95.39626368789528
 34
0.0
 50
90.0
100
AcDbRotatedDimension
  0
ARC
  5
1920
330
21
100
AcDbEntity
  8
実線
 62
     0
370
    -3
100
AcDbCircle
 10
96.0257517951655
 20
91.85357156937224
 30
0.0
 40
12.5
100
AcDbArc
 50
99.95896571345172
 51
137.6839500359245
  0
ARC
  5
1921
330
21
100
AcDbEntity
  8
実線
 62
     0
370
    -3
100
AcDbCircle
 10
97.42311996359444
 20
91.85357156937224
 30
0.0
 40
12.5
100
AcDbArc
 50
42.08396039430907
 51
80.08336653003892
  0
LINE
  5
19D6
330
21
100
AcDbEntity
  8
中心線
370
    -3
100
AcDbLine
 10
187.9054318911999
 20
121.8751146954842
 30
0.0
 11
147.9054318911999
 21
121.8751146954842
 31
0.0
  0
LINE
  5
19D7
330
21
100
AcDbEntity
  8
中心線
370
    -3
100
AcDbLine
 10
167.9054318911999
 20
141.8751146954843
 30
0.0
 11
167.9054318911999
 21
101.8751146954843
 31
0.0
  0
CIRCLE
  5
19D8
330
21
100
AcDbEntity
  8
実線
370
    -3
100
AcDbCircle
 10
167.9054318911999
 20
121.8751146954842
 30
0.0
 40
11.01774137471015
  0
CIRCLE
  5
19D9
330
21
100
AcDbEntity
  8
実線
370
    -3
100
AcDbCircle
 10
167.9054318911999
 20
121.8751146954842
 30
0.0
 40
6.0
  0
CIRCLE
  5
19DA
330
21
100
AcDbEntity
  8
実線
370
    -3
100
AcDbCircle
 10
167.9054318911999
 20
121.8751146954842
 30
0.0
 40
4.0
  0
LINE
  5
19DB
330
21
100
AcDbEntity
  8
実線
370
    -3
100
AcDbLine
 10
167.9054318911999
 20
121.8751146954842
 30
0.0
 11
166.9054318911999
 21
121.8751146954842
 31
0.0
  0
LINE
  5
19DC
330
21
100
AcDbEntity
  8
実線
370
    -3
100
AcDbLine
 10
166.9054318911999
 20
121.8751146954842
 30
0.0
 11
166.9054318911999
 21
127.7911944785839
 31
0.0
  0
LINE
  5
19DD
330
21
100
AcDbEntity
  8
実線
370
    -3
100
AcDbLine
 10
166.9054318911999
 20
121.8751146954842
 30
0.0
 11
166.9054318911999
 21
115.9590349123846
 31
0.0
  0
LINE
  5
19DE
330
21
100
AcDbEntity
  8
実線
370
    -3
100
AcDbLine
 10
168.9054318911999
 20
121.8751146954842
 30
0.0
 11
168.9054318911999
 21
127.7911944785839
 31
0.0
  0
LINE
  5
19DF
330
21
100
AcDbEntity
  8
実線
370
    -3
100
AcDbLine
 10
168.9054318911999
 20
121.8751146954842
 30
0.0
 11
168.9054318911999
 21
115.9590349123846
 31
0.0
  0
DIMENSION
  5
19E0
102
{ACAD_XDICTIONARY
360
19E1
102
}
330
21
100
AcDbEntity
  8
文字
370
    -3
100
AcDbDimension
280
     0
  2
*D51
 10
156.9054318911999
 20
81.59189387789048
 30
0.0
 11
167.9054318911999
 21
81.59189387789048
 31
0.0
 70
   160
  1
%%c<>
 71
     5
 42
22.0
 73
     0
 74
     0
 75
     0
  3
ISO-25
100
AcDbAlignedDimension
 13
178.9054318911999
 23
121.8751146954842
 33
0.0
 14
156.9054318911999
 24
121.8751146954842
 34
0.0
 50
-0.000000000000014
100
AcDbRotatedDimension
  0
CIRCLE
  5
19E2
330
21
100
AcDbEntity
  8
実線
 62
     0
370
    -3
100
AcDbCircle
 10
167.9478956428606
 20
121.8907766005426
 30
0.0
 40
16.5
  0
MTEXT
  5
19E3
102
{ACAD_REACTORS
330
19E4
102
}
330
21
100
AcDbEntity
  8
文字
 62
     0
370
    -3
100
AcDbMText
 10
189.0307701137911
 20
143.7154554066964
 30
0.0
 40
4.0
 41
0.0
 46
4.0
 71
     7
 72
     1
  1
{\fMS Gothic|b0|i0|c0|p0;頭部−付}
 73
     1
 44
1.0
1001
ACAD
1000
ACAD_MTEXT_DEFINED_HEIGHT_BEGIN
1070
    46
1040
4.0
1000
ACAD_MTEXT_DEFINED_HEIGHT_END
  0
LEADER
  5
19E4
102
{ACAD_XDICTIONARY
360
19E5
102
}
330
21
100
AcDbEntity
  8
文字
 62
     0
370
    -3
100
AcDbLeader
  3
ISO-25
 73
     0
 74
     0
 40
4.668
 41
17.628
 76
     3
 10
167.9054318911999
 20
121.8751146954844
 30
0.0
 10
186.5954367348494
 20
143.0904554066964
 30
0.0
 10
188.4057701137911
 20
143.0904554066964
 30
0.0
340
19E3
1001
ACAD
1000
DSTYLE
1002
{
1070
   147
1040
0.625
1070
    77
1070
     1
1002
}
  0
ENDSEC
  0
SECTION
  2
OBJECTS
  0
DICTIONARY
  5
C
330
0
100
AcDbDictionary
281
     1
  3
ACAD_COLOR
350
1C
  3
ACAD_DETAILVIEWSTYLE
350
166E
  3
ACAD_GROUP
350
D
  3
ACAD_IMAGE_VARS
350
1660
  3
ACAD_LAYOUT
350
1A
  3
ACAD_MATERIAL
350
1B
  3
ACAD_MLEADERSTYLE
350
166B
  3
ACAD_MLINESTYLE
350
17
  3
ACAD_PLOTSETTINGS
350
19
  3
ACAD_PLOTSTYLENAME
350
E
  3
ACAD_SCALELIST
350
1637
  3
ACAD_SECTIONVIEWSTYLE
350
166F
  3
ACAD_TABLESTYLE
350
165C
  3
ACAD_VISUALSTYLE
350
161E
  3
AcadDim
350
6E9
  3
ACDB_RECOMPOSE_DATA
350
19FD
  3
AcDbVariableDictionary
350
1665
  3
APPDATA
350
165E
  0
SUN
  5
165F
330
161D
100
AcDbSun
 90
        1
290
     0
 63
     7
421
 16777215
 40
1.0
291
     1
 91
  2455826
 92
 54000000
292
     0
 70
     2
 71
   256
280
     1
  0
DICTIONARY
  5
1423
330
1416
100
AcDbDictionary
280
     1
281
     1
  3
ACAD_DIMASSOC
360
142D
  0
DICTIONARY
  5
183D
330
183C
100
AcDbDictionary
280
     1
281
     1
  3
ACAD_DIMASSOC
360
183E
  0
DICTIONARY
  5
1840
330
183F
100
AcDbDictionary
280
     1
281
     1
  3
ACAD_DIMASSOC
360
1841
  0
DICTIONARY
  5
1843
330
1842
100
AcDbDictionary
280
     1
281
     1
  3
ACAD_DIMASSOC
360
1844
  0
DICTIONARY
  5
1849
330
1848
100
AcDbDictionary
280
     1
281
     1
  3
ACAD_DIMASSOC
360
184A
  0
DICTIONARY
  5
191E
330
191D
100
AcDbDictionary
280
     1
281
     1
  3
ACAD_DIMASSOC
360
191F
  0
DICTIONARY
  5
19E1
330
19E0
100
AcDbDictionary
280
     1
281
     1
  0
DICTIONARY
  5
19E5
330
19E4
100
AcDbDictionary
280
     1
281
     1
  0
DICTIONARY
  5
1C
102
{ACAD_REACTORS
330
C
102
}
330
C
100
AcDbDictionary
281
     1
  0
DICTIONARY
  5
166E
102
{ACAD_REACTORS
330
C
102
}
330
C
100
AcDbDictionary
281
     1
  0
DICTIONARY
  5
D
102
{ACAD_REACTORS
330
C
102
}
330
C
100
AcDbDictionary
281
     1
  0
RASTERVARIABLES
  5
1660
102
{ACAD_REACTORS
330
C
102
}
330
C
100
AcDbRasterVariables
 90
        0
 70
     1
 71
     1
 72
     1
  0
DICTIONARY
  5
1A
102
{ACAD_REACTORS
330
C
102
}
330
C
100
AcDbDictionary
281
     1
  3
Model
350
24
  3
Sheet1
350
1662
  0
DICTIONARY
  5
1B
102
{ACAD_REACTORS
330
C
102
}
330
C
100
AcDbDictionary
281
     1
  3
ByBlock
350
165A
  3
ByLayer
350
1659
  3
Global
350
165B
  0
DICTIONARY
  5
166B
102
{ACAD_REACTORS
330
C
102
}
330
C
100
AcDbDictionary
281
     1
  0
DICTIONARY
  5
17
102
{ACAD_REACTORS
330
C
102
}
330
C
100
AcDbDictionary
281
     1
  3
Standard
350
18
  0
DICTIONARY
  5
19
102
{ACAD_REACTORS
330
C
102
}
330
C
100
AcDbDictionary
281
     1
  0
ACDBDICTIONARYWDFLT
  5
E
102
{ACAD_REACTORS
330
C
102
}
330
C
100
AcDbDictionary
281
     1
  3
Normal
350
F
100
AcDbDictionaryWithDefault
340
F
  0
DICTIONARY
  5
1637
102
{ACAD_REACTORS
330
C
102
}
330
C
100
AcDbDictionary
281
     1
  3
A0
350
1638
  3
A1
350
1639
  3
A2
350
163A
  3
A3
350
163B
  3
A4
350
163C
  3
A5
350
163D
  3
A6
350
163E
  3
A7
350
163F
  3
A8
350
1640
  3
A9
350
1641
  3
B0
350
1642
  3
B1
350
1643
  3
B2
350
1644
  3
B3
350
1645
  3
B4
350
1646
  3
B5
350
1647
  3
B6
350
1648
  3
B7
350
1649
  3
B8
350
164A
  3
B9
350
164B
  3
C0
350
164C
  3
C1
350
164D
  3
C2
350
164E
  3
C3
350
164F
  3
C4
350
1650
  3
C5
350
1651
  3
C6
350
1652
  3
C7
350
1653
  3
C8
350
1654
  3
C9
350
1655
  3
D0
350
1656
  3
D1
350
1657
  3
D2
350
1658
  0
DICTIONARY
  5
166F
102
{ACAD_REACTORS
330
C
102
}
330
C
100
AcDbDictionary
281
     1
  0
DICTIONARY
  5
165C
102
{ACAD_REACTORS
330
C
102
}
330
C
100
AcDbDictionary
281
     1
  3
Standard
350
165D
  0
DICTIONARY
  5
161E
102
{ACAD_REACTORS
330
C
102
}
330
C
100
AcDbDictionary
281
     1
  3
2dWireframe
350
1623
  3
Basic
350
1626
  3
Brighten
350
162A
  3
ColorChange
350
162E
  3
Conceptual
350
1628
  3
Dim
350
1629
  3
EdgeColorOff
350
1631
  3
Facepattern
350
162D
  3
Flat
350
161F
  3
FlatWithEdges
350
1620
  3
Gouraud
350
1621
  3
GouraudWithEdges
350
1622
  3
Hidden
350
1625
  3
JitterOff
350
162F
  3
Linepattern
350
162C
  3
OverhangOff
350
1630
  3
Realistic
350
1627
  3
Shaded
350
1636
  3
Shaded with edges
350
1635
  3
Shades of Gray
350
1632
  3
Sketchy
350
1633
  3
Thicken
350
162B
  3
Wireframe
350
1624
  3
X-Ray
350
1634
  0
XRECORD
  5
6E9
102
{ACAD_REACTORS
330
C
102
}
330
C
100
AcDbXrecord
280
     1
 90
   990106
  3

 60
     0
 61
     0
 62
     1
 63
     3
 64
     1
 65
     0
 66
     0
 67
     3
 68
     1
 69
     0
 70
     0
 71
     0
 72
     0
 40
0.0
170
     2
340
0
  0
XRECORD
  5
19FD
102
{ACAD_REACTORS
330
C
102
}
330
C
100
AcDbXrecord
280
     1
 90
        1
330
165D
  0
DICTIONARY
  5
1665
102
{ACAD_REACTORS
330
C
102
}
330
C
100
AcDbDictionary
281
     1
  3
CANNOSCALE
350
1666
  3
CTABLESTYLE
350
166A
  3
MSLTSCALE
350
166C
  3
XCLIPFRAME
350
166D
  0
DICTIONARY
  5
165E
102
{ACAD_REACTORS
330
C
102
}
330
C
100
AcDbDictionary
281
     1
  0
DIMASSOC
  5
142D
102
{ACAD_REACTORS
330
1423
102
}
330
1423
100
AcDbDimAssoc
330
1416
 90
        2
 70
     0
 71
     0
  1
AcDbOsnapPointRef
 72
     1
331
13D4
 73
     2
 91
        0
 40
6.587877961194984
 10
0.0
 20
0.0
 30
2.000000000000000E+50
 75
     0
  0
DIMASSOC
  5
183E
102
{ACAD_REACTORS
330
183D
102
}
330
183D
100
AcDbDimAssoc
330
183C
 90
        3
 70
     0
 71
     0
  1
AcDbOsnapPointRef
 72
    13
331
1839
 73
     2
 91
        0
 40
0.0
 10
0.0
 20
0.0
 30
2.000000000000000E+50
 75
     0
  1
AcDbOsnapPointRef
 72
     1
331
1839
 73
     2
 91
        0
 40
1.0
 10
0.0
 20
0.0
 30
2.000000000000000E+50
 75
     0
  0
DIMASSOC
  5
1841
102
{ACAD_REACTORS
330
1840
102
}
330
1840
100
AcDbDimAssoc
330
183F
 90
        3
 70
     0
 71
     0
  1
AcDbOsnapPointRef
 72
    13
331
1838
 73
     2
 91
        1
 40
0.0
 10
0.0
 20
0.0
 30
2.000000000000000E+50
 75
     0
  1
AcDbOsnapPointRef
 72
     1
331
1838
 73
     2
 91
        3
 40
1.0
 10
0.0
 20
0.0
 30
2.000000000000000E+50
 75
     0
  0
DIMASSOC
  5
1844
102
{ACAD_REACTORS
330
1843
102
}
330
1843
100
AcDbDimAssoc
330
1842
 90
        3
 70
     0
 71
     0
  1
AcDbOsnapPointRef
 72
    13
331
1838
 73
     2
 91
        1
 40
0.0
 10
0.0
 20
0.0
 30
2.000000000000000E+50
 75
     0
  1
AcDbOsnapPointRef
 72
     1
331
1838
 73
     2
 91
        1
 40
1.0
 10
0.0
 20
0.0
 30
2.000000000000000E+50
 75
     0
  0
DIMASSOC
  5
184A
102
{ACAD_REACTORS
330
1849
102
}
330
1849
100
AcDbDimAssoc
330
1848
 90
        1
 70
     0
 71
     0
  1
AcDbOsnapPointRef
 72
     1
331
1846
 73
     2
 91
        1
 40
0.9999999999999999
 10
0.0
 20
0.0
 30
2.000000000000000E+50
 75
     0
  0
DIMASSOC
  5
191F
102
{ACAD_REACTORS
330
191E
102
}
330
191E
100
AcDbDimAssoc
330
191D
 90
        3
 70
     0
 71
     0
  1
AcDbOsnapPointRef
 72
    13
331
191B
 73
     2
 91
        0
 40
1.570796326794897
 10
0.0
 20
0.0
 30
2.000000000000000E+50
 75
     0
  1
AcDbOsnapPointRef
 72
     1
331
191B
 73
     2
 91
        0
 40
4.71238898038469
 10
0.0
 20
0.0
 30
2.000000000000000E+50
 75
     0
  0
LAYOUT
  5
24
102
{ACAD_REACTORS
330
1A
102
}
330
1A
100
AcDbPlotSettings
  1

  2
\\SF05\Brother HL-1440 series
  4
A4
  6

 40
6.72041654586792
 41
5.027085304260254
 42
6.889755249023438
 43
5.027069091796875
 44
209.9733276367188
 45
296.9259948730469
 46
-6.82
 47
-5.06
 48
0.0
 49
0.0
140
297.0000000000001
141
210.0
142
1.0
143
1.0
 70
 11956
 72
     1
 73
     1
 74
     4
  7

 75
    16
 76
     1
 77
     2
 78
   300
147
1.0
148
0.0
149
0.0
100
AcDbLayout
  1
Model
 70
     1
 71
     0
 10
0.0
 20
0.0
 11
12.0
 21
9.0
 12
0.0
 22
0.0
 32
0.0
 14
64.992026069726
 24
79.29233354866169
 34
0.0
 15
206.6587701137911
 25
212.2289521264346
 35
0.0
146
0.0
 13
0.0
 23
0.0
 33
0.0
 16
1.0
 26
0.0
 36
0.0
 17
0.0
 27
1.0
 37
0.0
 76
     0
330
21
331
161D
  0
LAYOUT
  5
1662
102
{ACAD_REACTORS
330
1A
102
}
330
1A
100
AcDbPlotSettings
  1

  2
none_device
  4

  6

 40
0.0
 41
0.0
 42
0.0
 43
0.0
 44
0.0
 45
0.0
 46
0.0
 47
0.0
 48
0.0
 49
0.0
140
0.0
141
0.0
142
1.0
143
1.0
 70
   688
 72
     1
 73
     0
 74
     5
  7

 75
    16
 76
     0
 77
     2
 78
   300
147
1.0
148
0.0
149
0.0
100
AcDbLayout
  1
Sheet1
 70
     1
 71
     1
 10
0.0
 20
0.0
 11
0.0
 21
0.0
 12
0.0
 22
0.0
 32
0.0
 14
0.0
 24
0.0
 34
0.0
 15
0.0
 25
0.0
 35
0.0
146
0.0
 13
0.0
 23
0.0
 33
0.0
 16
1.0
 26
0.0
 36
0.0
 17
0.0
 27
1.0
 37
0.0
 76
     0
330
1661
  0
MATERIAL
  5
165A
102
{ACAD_REACTORS
330
1B
102
}
330
1B
100
AcDbMaterial
  1
ByBlock
 72
     1
 94
      127
  0
MATERIAL
  5
1659
102
{ACAD_REACTORS
330
1B
102
}
330
1B
100
AcDbMaterial
  1
ByLayer
 72
     1
 94
      127
  0
MATERIAL
  5
165B
102
{ACAD_REACTORS
330
1B
102
}
330
1B
100
AcDbMaterial
  1
Global
 72
     1
 94
      127
  0
MLINESTYLE
  5
18
102
{ACAD_REACTORS
330
17
102
}
330
17
100
AcDbMlineStyle
  2
STANDARD
 70
     0
  3

 62
   256
 51
90.0
 52
90.0
 71
     2
 49
0.5
 62
   256
  6
BYLAYER
 49
-0.5
 62
   256
  6
BYLAYER
  0
ACDBPLACEHOLDER
  5
F
102
{ACAD_REACTORS
330
E
102
}
330
E
  0
SCALE
  5
1638
102
{ACAD_REACTORS
330
1637
102
}
330
1637
100
AcDbScale
 70
     0
300
1:1
140
1.0
141
1.0
290
     1
  0
SCALE
  5
1639
102
{ACAD_REACTORS
330
1637
102
}
330
1637
100
AcDbScale
 70
     0
300
1:2
140
1.0
141
2.0
290
     0
  0
SCALE
  5
163A
102
{ACAD_REACTORS
330
1637
102
}
330
1637
100
AcDbScale
 70
     0
300
1:4
140
1.0
141
4.0
290
     0
  0
SCALE
  5
163B
102
{ACAD_REACTORS
330
1637
102
}
330
1637
100
AcDbScale
 70
     0
300
1:5
140
1.0
141
5.0
290
     0
  0
SCALE
  5
163C
102
{ACAD_REACTORS
330
1637
102
}
330
1637
100
AcDbScale
 70
     0
300
1:8
140
1.0
141
8.0
290
     0
  0
SCALE
  5
163D
102
{ACAD_REACTORS
330
1637
102
}
330
1637
100
AcDbScale
 70
     0
300
1:10
140
1.0
141
10.0
290
     0
  0
SCALE
  5
163E
102
{ACAD_REACTORS
330
1637
102
}
330
1637
100
AcDbScale
 70
     0
300
1:16
140
1.0
141
16.0
290
     0
  0
SCALE
  5
163F
102
{ACAD_REACTORS
330
1637
102
}
330
1637
100
AcDbScale
 70
     0
300
1:20
140
1.0
141
20.0
290
     0
  0
SCALE
  5
1640
102
{ACAD_REACTORS
330
1637
102
}
330
1637
100
AcDbScale
 70
     0
300
1:30
140
1.0
141
30.0
290
     0
  0
SCALE
  5
1641
102
{ACAD_REACTORS
330
1637
102
}
330
1637
100
AcDbScale
 70
     0
300
1:40
140
1.0
141
40.0
290
     0
  0
SCALE
  5
1642
102
{ACAD_REACTORS
330
1637
102
}
330
1637
100
AcDbScale
 70
     0
300
1:50
140
1.0
141
50.0
290
     0
  0
SCALE
  5
1643
102
{ACAD_REACTORS
330
1637
102
}
330
1637
100
AcDbScale
 70
     0
300
1:100
140
1.0
141
100.0
290
     0
  0
SCALE
  5
1644
102
{ACAD_REACTORS
330
1637
102
}
330
1637
100
AcDbScale
 70
     0
300
2:1
140
2.0
141
1.0
290
     0
  0
SCALE
  5
1645
102
{ACAD_REACTORS
330
1637
102
}
330
1637
100
AcDbScale
 70
     0
300
4:1
140
4.0
141
1.0
290
     0
  0
SCALE
  5
1646
102
{ACAD_REACTORS
330
1637
102
}
330
1637
100
AcDbScale
 70
     0
300
8:1
140
8.0
141
1.0
290
     0
  0
SCALE
  5
1647
102
{ACAD_REACTORS
330
1637
102
}
330
1637
100
AcDbScale
 70
     0
300
10:1
140
10.0
141
1.0
290
     0
  0
SCALE
  5
1648
102
{ACAD_REACTORS
330
1637
102
}
330
1637
100
AcDbScale
 70
     0
300
100:1
140
100.0
141
1.0
290
     0
  0
SCALE
  5
1649
102
{ACAD_REACTORS
330
1637
102
}
330
1637
100
AcDbScale
 70
     0
300
1/128" = 1'-0"
140
0.0078125
141
12.0
290
     0
  0
SCALE
  5
164A
102
{ACAD_REACTORS
330
1637
102
}
330
1637
100
AcDbScale
 70
     0
300
1/64" = 1'-0"
140
0.015625
141
12.0
290
     0
  0
SCALE
  5
164B
102
{ACAD_REACTORS
330
1637
102
}
330
1637
100
AcDbScale
 70
     0
300
1/32" = 1'-0"
140
0.03125
141
12.0
290
     0
  0
SCALE
  5
164C
102
{ACAD_REACTORS
330
1637
102
}
330
1637
100
AcDbScale
 70
     0
300
1/16" = 1'-0"
140
0.0625
141
12.0
290
     0
  0
SCALE
  5
164D
102
{ACAD_REACTORS
330
1637
102
}
330
1637
100
AcDbScale
 70
     0
300
3/32" = 1'-0"
140
0.09375
141
12.0
290
     0
  0
SCALE
  5
164E
102
{ACAD_REACTORS
330
1637
102
}
330
1637
100
AcDbScale
 70
     0
300
1/8" = 1'-0"
140
0.125
141
12.0
290
     0
  0
SCALE
  5
164F
102
{ACAD_REACTORS
330
1637
102
}
330
1637
100
AcDbScale
 70
     0
300
3/16" = 1'-0"
140
0.1875
141
12.0
290
     0
  0
SCALE
  5
1650
102
{ACAD_REACTORS
330
1637
102
}
330
1637
100
AcDbScale
 70
     0
300
1/4" = 1'-0"
140
0.25
141
12.0
290
     0
  0
SCALE
  5
1651
102
{ACAD_REACTORS
330
1637
102
}
330
1637
100
AcDbScale
 70
     0
300
3/8" = 1'-0"
140
0.375
141
12.0
290
     0
  0
SCALE
  5
1652
102
{ACAD_REACTORS
330
1637
102
}
330
1637
100
AcDbScale
 70
     0
300
1/2" = 1'-0"
140
0.5
141
12.0
290
     0
  0
SCALE
  5
1653
102
{ACAD_REACTORS
330
1637
102
}
330
1637
100
AcDbScale
 70
     0
300
3/4" = 1'-0"
140
0.75
141
12.0
290
     0
  0
SCALE
  5
1654
102
{ACAD_REACTORS
330
1637
102
}
330
1637
100
AcDbScale
 70
     0
300
1" = 1'-0"
140
1.0
141
12.0
290
     0
  0
SCALE
  5
1655
102
{ACAD_REACTORS
330
1637
102
}
330
1637
100
AcDbScale
 70
     0
300
1-1/2" = 1'-0"
140
1.5
141
12.0
290
     0
  0
SCALE
  5
1656
102
{ACAD_REACTORS
330
1637
102
}
330
1637
100
AcDbScale
 70
     0
300
3" = 1'-0"
140
3.0
141
12.0
290
     0
  0
SCALE
  5
1657
102
{ACAD_REACTORS
330
1637
102
}
330
1637
100
AcDbScale
 70
     0
300
6" = 1'-0"
140
6.0
141
12.0
290
     0
  0
SCALE
  5
1658
102
{ACAD_REACTORS
330
1637
102
}
330
1637
100
AcDbScale
 70
     0
300
1'-0" = 1'-0"
140
12.0
141
12.0
290
     0
  0
TABLESTYLE
  5
165D
102
{ACAD_REACTORS
330
165C
102
}
102
{ACAD_XDICTIONARY
360
19FB
102
}
330
165C
100
AcDbTableStyle
  3
Standard
 70
     0
 71
     0
 40
0.06
 41
0.06
280
     0
281
     0
  7
Standard
140
4.5
170
     2
 62
     0
 63
   257
283
     0
 90
        4
 91
        0
  1

274
    -2
284
     1
 64
     0
275
    -2
285
     1
 65
     0
276
    -2
286
     1
 66
     0
277
    -2
287
     1
 67
     0
278
    -2
288
     1
 68
     0
279
    -2
289
     1
 69
     0
  7
Standard
140
6.0
170
     5
 62
     0
 63
   257
283
     0
 90
        4
 91
        0
  1

274
    -2
284
     1
 64
     0
275
    -2
285
     1
 65
     0
276
    -2
286
     1
 66
     0
277
    -2
287
     1
 67
     0
278
    -2
288
     1
 68
     0
279
    -2
289
     1
 69
     0
  7
Standard
140
4.5
170
     5
 62
     0
 63
   257
283
     0
 90
        4
 91
        0
  1

274
    -2
284
     1
 64
     0
275
    -2
285
     1
 65
     0
276
    -2
286
     1
 66
     0
277
    -2
287
     1
 67
     0
278
    -2
288
     1
 68
     0
279
    -2
289
     1
 69
     0
  0
VISUALSTYLE
  5
1623
102
{ACAD_REACTORS
330
161E
102
}
330
161E
100
AcDbVisualStyle
  2
2dWireframe
 70
     4
177
     3
291
     0
 70
    58
 90
        0
176
     1
 90
        2
176
     1
 90
        0
176
     1
 90
        0
176
     1
 40
0.6
176
     1
 40
30.0
176
     1
 62
     7
420
 16777215
176
     1
 90
        1
176
     1
 90
        4
176
     1
 62
     7
176
     1
 62
   257
176
     1
 90
        1
176
     1
 90
        1
176
     1
 40
1.0
176
     1
 90
        0
176
     1
 62
   257
176
     1
 40
1.0
176
     1
 90
        1
176
     1
 90
        6
176
     1
 90
        2
176
     1
 62
     7
176
     1
 90
        5
176
     1
 90
        0
176
     1
 90
        0
176
     1
290
     0
176
     1
 90
        1
176
     1
 40
0.0
176
     1
 90
        0
176
     1
290
     1
176
     1
290
     1
176
     1
290
     0
176
     1
290
     0
176
     1
290
     0
176
     1
290
     0
176
     1
290
     0
176
     1
290
     0
176
     1
290
     0
176
     1
 90
       50
176
     1
 40
0.0
176
     1
 40
1.0
176
     1
 90
        0
176
     1
 62
    18
420
        0
176
     1
 90
       50
176
     1
 90
        3
176
     1
 62
     5
420
      255
176
     1
290
     0
176
     1
 90
       50
176
     1
 90
       50
176
     1
 90
       50
176
     1
290
     0
176
     1
 90
       50
176
     1
 62
   256
176
     0
 40
1.0
176
     0
 90
        2
176
     1
  1
strokes_ogs.tif
176
     1
290
     0
176
     1
 40
1.0
176
     1
 40
1.0
176
     1
  0
VISUALSTYLE
  5
1626
102
{ACAD_REACTORS
330
161E
102
}
330
161E
100
AcDbVisualStyle
  2
Basic
 70
     7
177
     3
291
     1
 70
    58
 90
        1
176
     1
 90
        0
176
     1
 90
        1
176
     1
 90
        0
176
     1
 40
0.6
176
     1
 40
30.0
176
     1
 62
     7
420
 16777215
176
     1
 90
        0
176
     1
 90
        4
176
     1
 62
     7
176
     1
 62
   257
176
     1
 90
        1
176
     1
 90
        1
176
     1
 40
1.0
176
     1
 90
        8
176
     1
 62
     7
176
     1
 40
1.0
176
     1
 90
        1
176
     1
 90
        6
176
     1
 90
        2
176
     1
 62
     7
176
     1
 90
        5
176
     1
 90
        0
176
     1
 90
        0
176
     1
290
     0
176
     1
 90
        1
176
     1
 40
0.0
176
     1
 90
        0
176
     1
290
     0
176
     1
290
     1
176
     1
290
     1
176
     1
290
     0
176
     1
290
     0
176
     1
290
     0
176
     1
290
     0
176
     1
290
     0
176
     1
290
     0
176
     1
 90
       50
176
     1
 40
0.0
176
     1
 40
1.0
176
     1
 90
        0
176
     1
 62
    18
420
        0
176
     1
 90
       50
176
     1
 90
        3
176
     1
 62
     5
420
      255
176
     1
290
     0
176
     1
 90
       50
176
     1
 90
       50
176
     1
 90
       50
176
     1
290
     0
176
     1
 90
       50
176
     1
 62
   256
176
     0
 40
1.0
176
     0
 90
        2
176
     1
  1
strokes_ogs.tif
176
     1
290
     0
176
     1
 40
1.0
176
     1
 40
1.0
176
     1
  0
VISUALSTYLE
  5
162A
102
{ACAD_REACTORS
330
161E
102
}
330
161E
100
AcDbVisualStyle
  2
Brighten
 70
    12
177
     3
291
     1
 70
    58
 90
        2
176
     1
 90
        2
176
     1
 90
        0
176
     1
 90
        0
176
     1
 40
0.6
176
     1
 40
30.0
176
     1
 62
     7
420
 16777215
176
     1
 90
        1
176
     1
 90
        4
176
     1
 62
     7
176
     1
 62
   257
176
     1
 90
        1
176
     1
 90
        1
176
     1
 40
1.0
176
     1
 90
        8
176
     1
 62
     7
176
     1
 40
1.0
176
     1
 90
        1
176
     1
 90
        6
176
     1
 90
        2
176
     1
 62
     7
176
     1
 90
        5
176
     1
 90
        0
176
     1
 90
        0
176
     1
290
     0
176
     1
 90
        1
176
     1
 40
50.0
176
     1
 90
        0
176
     1
290
     0
176
     1
290
     1
176
     1
290
     1
176
     1
290
     0
176
     1
290
     0
176
     1
290
     0
176
     1
290
     0
176
     1
290
     0
176
     1
290
     0
176
     1
 90
       50
176
     1
 40
0.0
176
     1
 40
1.0
176
     1
 90
        0
176
     1
 62
    18
420
        0
176
     1
 90
       50
176
     1
 90
        3
176
     1
 62
     5
420
      255
176
     1
290
     0
176
     1
 90
       50
176
     1
 90
       50
176
     1
 90
       50
176
     1
290
     0
176
     1
 90
       50
176
     1
 62
   256
176
     0
 40
1.0
176
     0
 90
        2
176
     1
  1
strokes_ogs.tif
176
     1
290
     0
176
     1
 40
1.0
176
     1
 40
1.0
176
     1
  0
VISUALSTYLE
  5
162E
102
{ACAD_REACTORS
330
161E
102
}
330
161E
100
AcDbVisualStyle
  2
ColorChange
 70
    16
177
     3
291
     1
 70
    58
 90
        2
176
     1
 90
        2
176
     1
 90
        3
176
     1
 90
        0
176
     1
 40
0.6
176
     1
 40
30.0
176
     1
 62
     8
420
  8421504
176
     1
 90
        1
176
     1
 90
        4
176
     1
 62
     7
176
     1
 62
   257
176
     1
 90
        1
176
     1
 90
        1
176
     1
 40
1.0
176
     1
 90
        8
176
     1
 62
     8
420
  8421504
176
     1
 40
1.0
176
     1
 90
        1
176
     1
 90
        6
176
     1
 90
        2
176
     1
 62
     7
176
     1
 90
        5
176
     1
 90
        0
176
     1
 90
        0
176
     1
290
     0
176
     1
 90
        1
176
     1
 40
0.0
176
     1
 90
        0
176
     1
290
     0
176
     1
290
     1
176
     1
290
     1
176
     1
290
     0
176
     1
290
     0
176
     1
290
     0
176
     1
290
     0
176
     1
290
     0
176
     1
290
     0
176
     1
 90
       50
176
     1
 40
0.0
176
     1
 40
1.0
176
     1
 90
        0
176
     1
 62
    18
420
        0
176
     1
 90
       50
176
     1
 90
        3
176
     1
 62
     5
420
      255
176
     1
290
     0
176
     1
 90
       50
176
     1
 90
       50
176
     1
 90
       50
176
     1
290
     0
176
     1
 90
       50
176
     1
 62
   256
176
     0
 40
1.0
176
     0
 90
        2
176
     1
  1
strokes_ogs.tif
176
     1
290
     0
176
     1
 40
1.0
176
     1
 40
1.0
176
     1
  0
VISUALSTYLE
  5
1628
102
{ACAD_REACTORS
330
161E
102
}
330
161E
100
AcDbVisualStyle
  2
Conceptual
 70
     9
177
     3
291
     0
 70
    58
 90
        3
176
     1
 90
        2
176
     1
 90
        0
176
     1
 90
        0
176
     1
 40
0.6
176
     1
 40
30.0
176
     1
 62
     7
420
 16777215
176
     1
 90
        2
176
     1
 90
        2
176
     1
 62
     7
176
     1
 62
   257
176
     1
 90
        1
176
     1
 90
        1
176
     1
 40
179.0
176
     1
 90
        8
176
     1
 62
     7
176
     1
 40
1.0
176
     1
 90
        1
176
     1
 90
        6
176
     1
 90
        2
176
     1
 62
     7
176
     1
 90
        3
176
     1
 90
        0
176
     1
 90
        0
176
     1
290
     0
176
     1
 90
        1
176
     1
 40
0.0
176
     1
 90
        0
176
     1
290
     0
176
     1
290
     1
176
     1
290
     1
176
     1
290
     0
176
     1
290
     0
176
     1
290
     0
176
     1
290
     0
176
     1
290
     0
176
     1
290
     0
176
     1
 90
       50
176
     1
 40
0.0
176
     1
 40
1.0
176
     1
 90
        0
176
     1
 62
    18
420
        0
176
     1
 90
       50
176
     1
 90
        3
176
     1
 62
     5
420
      255
176
     1
290
     0
176
     1
 90
       50
176
     1
 90
       50
176
     1
 90
       50
176
     1
290
     0
176
     1
 90
       50
176
     1
 62
   256
176
     0
 40
1.0
176
     0
 90
        2
176
     1
  1
strokes_ogs.tif
176
     1
290
     0
176
     1
 40
1.0
176
     1
 40
1.0
176
     1
  0
VISUALSTYLE
  5
1629
102
{ACAD_REACTORS
330
161E
102
}
330
161E
100
AcDbVisualStyle
  2
Dim
 70
    11
177
     3
291
     1
 70
    58
 90
        2
176
     1
 90
        2
176
     1
 90
        0
176
     1
 90
        0
176
     1
 40
0.6
176
     1
 40
30.0
176
     1
 62
     7
420
 16777215
176
     1
 90
        1
176
     1
 90
        4
176
     1
 62
     7
176
     1
 62
   257
176
     1
 90
        1
176
     1
 90
        1
176
     1
 40
1.0
176
     1
 90
        8
176
     1
 62
     7
176
     1
 40
1.0
176
     1
 90
        1
176
     1
 90
        6
176
     1
 90
        2
176
     1
 62
     7
176
     1
 90
        5
176
     1
 90
        0
176
     1
 90
        0
176
     1
290
     0
176
     1
 90
        1
176
     1
 40
-50.0
176
     1
 90
        0
176
     1
290
     0
176
     1
290
     1
176
     1
290
     1
176
     1
290
     0
176
     1
290
     0
176
     1
290
     0
176
     1
290
     0
176
     1
290
     0
176
     1
290
     0
176
     1
 90
       50
176
     1
 40
0.0
176
     1
 40
1.0
176
     1
 90
        0
176
     1
 62
    18
420
        0
176
     1
 90
       50
176
     1
 90
        3
176
     1
 62
     5
420
      255
176
     1
290
     0
176
     1
 90
       50
176
     1
 90
       50
176
     1
 90
       50
176
     1
290
     0
176
     1
 90
       50
176
     1
 62
   256
176
     0
 40
1.0
176
     0
 90
        2
176
     1
  1
strokes_ogs.tif
176
     1
290
     0
176
     1
 40
1.0
176
     1
 40
1.0
176
     1
  0
VISUALSTYLE
  5
1631
102
{ACAD_REACTORS
330
161E
102
}
330
161E
100
AcDbVisualStyle
  2
EdgeColorOff
 70
    22
177
     3
291
     1
 70
    58
 90
        2
176
     0
 90
        2
176
     0
 90
        0
176
     0
 90
        0
176
     0
 40
0.6
176
     0
 40
30.0
176
     0
 62
     7
420
 16777215
176
     0
 90
        1
176
     0
 90
        4
176
     0
 62
     7
176
     0
 62
   257
176
     0
 90
        1
176
     0
 90
        1
176
     0
 40
1.0
176
     0
 90
        8
176
     2
 62
     7
176
     0
 40
1.0
176
     0
 90
        1
176
     0
 90
        6
176
     0
 90
        2
176
     0
 62
     7
176
     0
 90
        5
176
     0
 90
        0
176
     0
 90
        0
176
     0
290
     0
176
     0
 90
        1
176
     0
 40
0.0
176
     0
 90
        0
176
     0
290
     0
176
     0
290
     1
176
     0
290
     1
176
     0
290
     0
176
     0
290
     0
176
     0
290
     0
176
     0
290
     0
176
     0
290
     0
176
     0
290
     0
176
     0
 90
       50
176
     0
 40
0.0
176
     0
 40
1.0
176
     0
 90
        0
176
     0
 62
    18
420
        0
176
     0
 90
       50
176
     0
 90
        3
176
     0
 62
     5
420
      255
176
     0
290
     0
176
     0
 90
       50
176
     0
 90
       50
176
     0
 90
       50
176
     0
290
     0
176
     0
 90
       50
176
     0
 62
   256
176
     0
 40
1.0
176
     0
 90
        2
176
     0
  1
strokes_ogs.tif
176
     0
290
     0
176
     0
 40
1.0
176
     0
 40
1.0
176
     0
  0
VISUALSTYLE
  5
162D
102
{ACAD_REACTORS
330
161E
102
}
330
161E
100
AcDbVisualStyle
  2
Facepattern
 70
    15
177
     3
291
     1
 70
    58
 90
        2
176
     1
 90
        2
176
     1
 90
        0
176
     1
 90
        0
176
     1
 40
0.6
176
     1
 40
30.0
176
     1
 62
     7
420
 16777215
176
     1
 90
        1
176
     1
 90
        4
176
     1
 62
     7
176
     1
 62
   257
176
     1
 90
        1
176
     1
 90
        1
176
     1
 40
1.0
176
     1
 90
        8
176
     1
 62
     7
176
     1
 40
1.0
176
     1
 90
        1
176
     1
 90
        6
176
     1
 90
        2
176
     1
 62
     7
176
     1
 90
        5
176
     1
 90
        0
176
     1
 90
        0
176
     1
290
     0
176
     1
 90
        1
176
     1
 40
0.0
176
     1
 90
        0
176
     1
290
     0
176
     1
290
     1
176
     1
290
     1
176
     1
290
     0
176
     1
290
     0
176
     1
290
     0
176
     1
290
     0
176
     1
290
     0
176
     1
290
     0
176
     1
 90
       50
176
     1
 40
0.0
176
     1
 40
1.0
176
     1
 90
        0
176
     1
 62
    18
420
        0
176
     1
 90
       50
176
     1
 90
        3
176
     1
 62
     5
420
      255
176
     1
290
     0
176
     1
 90
       50
176
     1
 90
       50
176
     1
 90
       50
176
     1
290
     0
176
     1
 90
       50
176
     1
 62
   256
176
     0
 40
1.0
176
     0
 90
        2
176
     1
  1
strokes_ogs.tif
176
     1
290
     0
176
     1
 40
1.0
176
     1
 40
1.0
176
     1
  0
VISUALSTYLE
  5
161F
102
{ACAD_REACTORS
330
161E
102
}
330
161E
100
AcDbVisualStyle
  2
Flat
 70
     0
177
     3
291
     1
 70
    58
 90
        2
176
     1
 90
        1
176
     1
 90
        1
176
     1
 90
        2
176
     1
 40
0.6
176
     1
 40
30.0
176
     1
 62
     7
420
 16777215
176
     1
 90
        0
176
     1
 90
        0
176
     1
 62
     7
176
     1
 62
   257
176
     1
 90
        1
176
     1
 90
        1
176
     1
 40
1.0
176
     1
 90
        8
176
     1
 62
     7
176
     1
 40
1.0
176
     1
 90
        1
176
     1
 90
        6
176
     1
 90
        2
176
     1
 62
     7
176
     1
 90
        5
176
     1
 90
        0
176
     1
 90
        0
176
     1
290
     0
176
     1
 90
       13
176
     1
 40
0.0
176
     1
 90
        0
176
     1
290
     0
176
     1
290
     1
176
     1
290
     1
176
     1
290
     0
176
     1
290
     0
176
     1
290
     0
176
     1
290
     0
176
     1
290
     0
176
     1
290
     0
176
     1
 90
       50
176
     1
 40
0.0
176
     1
 40
1.0
176
     1
 90
        0
176
     1
 62
    18
420
        0
176
     1
 90
       50
176
     1
 90
        3
176
     1
 62
     5
420
      255
176
     1
290
     0
176
     1
 90
       50
176
     1
 90
       50
176
     1
 90
       50
176
     1
290
     0
176
     1
 90
       50
176
     1
 62
   256
176
     0
 40
1.0
176
     0
 90
        2
176
     1
  1
strokes_ogs.tif
176
     1
290
     0
176
     1
 40
1.0
176
     1
 40
1.0
176
     1
  0
VISUALSTYLE
  5
1620
102
{ACAD_REACTORS
330
161E
102
}
330
161E
100
AcDbVisualStyle
  2
FlatWithEdges
 70
     1
177
     3
291
     1
 70
    58
 90
        2
176
     1
 90
        1
176
     1
 90
        1
176
     1
 90
        2
176
     1
 40
0.6
176
     1
 40
30.0
176
     1
 62
     7
420
 16777215
176
     1
 90
        1
176
     1
 90
        0
176
     1
 62
     7
176
     1
 62
   257
176
     1
 90
        1
176
     1
 90
        1
176
     1
 40
1.0
176
     1
 90
        0
176
     1
 62
   257
176
     1
 40
1.0
176
     1
 90
        1
176
     1
 90
        6
176
     1
 90
        2
176
     1
 62
     7
176
     1
 90
        5
176
     1
 90
        0
176
     1
 90
        0
176
     1
290
     0
176
     1
 90
       13
176
     1
 40
0.0
176
     1
 90
        0
176
     1
290
     0
176
     1
290
     1
176
     1
290
     1
176
     1
290
     0
176
     1
290
     0
176
     1
290
     0
176
     1
290
     0
176
     1
290
     0
176
     1
290
     0
176
     1
 90
       50
176
     1
 40
0.0
176
     1
 40
1.0
176
     1
 90
        0
176
     1
 62
    18
420
        0
176
     1
 90
       50
176
     1
 90
        3
176
     1
 62
     5
420
      255
176
     1
290
     0
176
     1
 90
       50
176
     1
 90
       50
176
     1
 90
       50
176
     1
290
     0
176
     1
 90
       50
176
     1
 62
   256
176
     0
 40
1.0
176
     0
 90
        2
176
     1
  1
strokes_ogs.tif
176
     1
290
     0
176
     1
 40
1.0
176
     1
 40
1.0
176
     1
  0
VISUALSTYLE
  5
1621
102
{ACAD_REACTORS
330
161E
102
}
330
161E
100
AcDbVisualStyle
  2
Gouraud
 70
     2
177
     3
291
     1
 70
    58
 90
        2
176
     1
 90
        2
176
     1
 90
        1
176
     1
 90
        2
176
     1
 40
0.6
176
     1
 40
30.0
176
     1
 62
     7
420
 16777215
176
     1
 90
        0
176
     1
 90
        0
176
     1
 62
     7
176
     1
 62
   257
176
     1
 90
        1
176
     1
 90
        1
176
     1
 40
1.0
176
     1
 90
        0
176
     1
 62
     7
176
     1
 40
1.0
176
     1
 90
        1
176
     1
 90
        6
176
     1
 90
        2
176
     1
 62
     7
176
     1
 90
        5
176
     1
 90
        0
176
     1
 90
        0
176
     1
290
     0
176
     1
 90
       13
176
     1
 40
0.0
176
     1
 90
        0
176
     1
290
     0
176
     1
290
     1
176
     1
290
     1
176
     1
290
     0
176
     1
290
     0
176
     1
290
     0
176
     1
290
     0
176
     1
290
     0
176
     1
290
     0
176
     1
 90
       50
176
     1
 40
0.0
176
     1
 40
1.0
176
     1
 90
        0
176
     1
 62
    18
420
        0
176
     1
 90
       50
176
     1
 90
        3
176
     1
 62
     5
420
      255
176
     1
290
     0
176
     1
 90
       50
176
     1
 90
       50
176
     1
 90
       50
176
     1
290
     0
176
     1
 90
       50
176
     1
 62
   256
176
     0
 40
1.0
176
     0
 90
        2
176
     1
  1
strokes_ogs.tif
176
     1
290
     0
176
     1
 40
1.0
176
     1
 40
1.0
176
     1
  0
VISUALSTYLE
  5
1622
102
{ACAD_REACTORS
330
161E
102
}
330
161E
100
AcDbVisualStyle
  2
GouraudWithEdges
 70
     3
177
     3
291
     1
 70
    58
 90
        2
176
     1
 90
        2
176
     1
 90
        1
176
     1
 90
        2
176
     1
 40
0.6
176
     1
 40
30.0
176
     1
 62
     7
420
 16777215
176
     1
 90
        1
176
     1
 90
        0
176
     1
 62
     7
176
     1
 62
   257
176
     1
 90
        1
176
     1
 90
        1
176
     1
 40
1.0
176
     1
 90
        0
176
     1
 62
   257
176
     1
 40
1.0
176
     1
 90
        1
176
     1
 90
        6
176
     1
 90
        2
176
     1
 62
     7
176
     1
 90
        5
176
     1
 90
        0
176
     1
 90
        0
176
     1
290
     0
176
     1
 90
       13
176
     1
 40
0.0
176
     1
 90
        0
176
     1
290
     0
176
     1
290
     1
176
     1
290
     1
176
     1
290
     0
176
     1
290
     0
176
     1
290
     0
176
     1
290
     0
176
     1
290
     0
176
     1
290
     0
176
     1
 90
       50
176
     1
 40
0.0
176
     1
 40
1.0
176
     1
 90
        0
176
     1
 62
    18
420
        0
176
     1
 90
       50
176
     1
 90
        3
176
     1
 62
     5
420
      255
176
     1
290
     0
176
     1
 90
       50
176
     1
 90
       50
176
     1
 90
       50
176
     1
290
     0
176
     1
 90
       50
176
     1
 62
   256
176
     0
 40
1.0
176
     0
 90
        2
176
     1
  1
strokes_ogs.tif
176
     1
290
     0
176
     1
 40
1.0
176
     1
 40
1.0
176
     1
  0
VISUALSTYLE
  5
1625
102
{ACAD_REACTORS
330
161E
102
}
330
161E
100
AcDbVisualStyle
  2
Hidden
 70
     6
177
     3
291
     0
 70
    58
 90
        1
176
     1
 90
        2
176
     1
 90
        2
176
     1
 90
        0
176
     1
 40
0.6
176
     1
 40
30.0
176
     1
 62
     7
420
 16777215
176
     1
 90
        2
176
     1
 90
        2
176
     1
 62
     7
176
     1
 62
   257
176
     1
 90
        2
176
     1
 90
        1
176
     1
 40
40.0
176
     1
 90
        0
176
     1
 62
   257
176
     1
 40
1.0
176
     1
 90
        1
176
     1
 90
        6
176
     1
 90
        2
176
     1
 62
     7
176
     1
 90
        3
176
     1
 90
        0
176
     1
 90
        0
176
     1
290
     0
176
     1
 90
        1
176
     1
 40
0.0
176
     1
 90
        0
176
     1
290
     0
176
     1
290
     1
176
     1
290
     1
176
     1
290
     0
176
     1
290
     0
176
     1
290
     0
176
     1
290
     0
176
     1
290
     0
176
     1
290
     0
176
     1
 90
       50
176
     1
 40
0.0
176
     1
 40
1.0
176
     1
 90
        0
176
     1
 62
    18
420
        0
176
     1
 90
       50
176
     1
 90
        3
176
     1
 62
     5
420
      255
176
     1
290
     0
176
     1
 90
       50
176
     1
 90
       50
176
     1
 90
       50
176
     1
290
     0
176
     1
 90
       50
176
     1
 62
   256
176
     0
 40
1.0
176
     0
 90
        2
176
     1
  1
strokes_ogs.tif
176
     1
290
     0
176
     1
 40
1.0
176
     1
 40
1.0
176
     1
  0
VISUALSTYLE
  5
162F
102
{ACAD_REACTORS
330
161E
102
}
330
161E
100
AcDbVisualStyle
  2
JitterOff
 70
    20
177
     3
291
     1
 70
    58
 90
        2
176
     0
 90
        2
176
     0
 90
        0
176
     0
 90
        0
176
     0
 40
0.6
176
     0
 40
30.0
176
     0
 62
     7
420
 16777215
176
     0
 90
        1
176
     0
 90
        4
176
     0
 62
     7
176
     0
 62
   257
176
     0
 90
        1
176
     0
 90
        1
176
     0
 40
1.0
176
     0
 90
       10
176
     2
 62
     7
176
     0
 40
1.0
176
     0
 90
        1
176
     0
 90
        6
176
     0
 90
        2
176
     0
 62
     7
176
     0
 90
        5
176
     0
 90
        0
176
     0
 90
        0
176
     0
290
     0
176
     0
 90
        1
176
     0
 40
0.0
176
     0
 90
        0
176
     0
290
     0
176
     0
290
     1
176
     0
290
     1
176
     0
290
     0
176
     0
290
     0
176
     0
290
     0
176
     0
290
     0
176
     0
290
     0
176
     0
290
     0
176
     0
 90
       50
176
     0
 40
0.0
176
     0
 40
1.0
176
     0
 90
        0
176
     0
 62
    18
420
        0
176
     0
 90
       50
176
     0
 90
        3
176
     0
 62
     5
420
      255
176
     0
290
     0
176
     0
 90
       50
176
     0
 90
       50
176
     0
 90
       50
176
     0
290
     0
176
     0
 90
       50
176
     0
 62
   256
176
     0
 40
1.0
176
     0
 90
        2
176
     0
  1
strokes_ogs.tif
176
     0
290
     0
176
     0
 40
1.0
176
     0
 40
1.0
176
     0
  0
VISUALSTYLE
  5
162C
102
{ACAD_REACTORS
330
161E
102
}
330
161E
100
AcDbVisualStyle
  2
Linepattern
 70
    14
177
     3
291
     1
 70
    58
 90
        2
176
     1
 90
        2
176
     1
 90
        0
176
     1
 90
        0
176
     1
 40
0.6
176
     1
 40
30.0
176
     1
 62
     7
420
 16777215
176
     1
 90
        1
176
     1
 90
        4
176
     1
 62
     7
176
     1
 62
   257
176
     1
 90
        7
176
     1
 90
        7
176
     1
 40
1.0
176
     1
 90
        8
176
     1
 62
     7
176
     1
 40
1.0
176
     1
 90
        1
176
     1
 90
        6
176
     1
 90
        2
176
     1
 62
     7
176
     1
 90
        5
176
     1
 90
        0
176
     1
 90
        0
176
     1
290
     0
176
     1
 90
        1
176
     1
 40
0.0
176
     1
 90
        0
176
     1
290
     0
176
     1
290
     1
176
     1
290
     1
176
     1
290
     0
176
     1
290
     0
176
     1
290
     0
176
     1
290
     0
176
     1
290
     0
176
     1
290
     0
176
     1
 90
       50
176
     1
 40
0.0
176
     1
 40
1.0
176
     1
 90
        0
176
     1
 62
    18
420
        0
176
     1
 90
       50
176
     1
 90
        3
176
     1
 62
     5
420
      255
176
     1
290
     0
176
     1
 90
       50
176
     1
 90
       50
176
     1
 90
       50
176
     1
290
     0
176
     1
 90
       50
176
     1
 62
   256
176
     0
 40
1.0
176
     0
 90
        2
176
     1
  1
strokes_ogs.tif
176
     1
290
     0
176
     1
 40
1.0
176
     1
 40
1.0
176
     1
  0
VISUALSTYLE
  5
1630
102
{ACAD_REACTORS
330
161E
102
}
330
161E
100
AcDbVisualStyle
  2
OverhangOff
 70
    21
177
     3
291
     1
 70
    58
 90
        2
176
     0
 90
        2
176
     0
 90
        0
176
     0
 90
        0
176
     0
 40
0.6
176
     0
 40
30.0
176
     0
 62
     7
420
 16777215
176
     0
 90
        1
176
     0
 90
        4
176
     0
 62
     7
176
     0
 62
   257
176
     0
 90
        1
176
     0
 90
        1
176
     0
 40
1.0
176
     0
 90
        9
176
     2
 62
     7
176
     0
 40
1.0
176
     0
 90
        1
176
     0
 90
        6
176
     0
 90
        2
176
     0
 62
     7
176
     0
 90
        5
176
     0
 90
        0
176
     0
 90
        0
176
     0
290
     0
176
     0
 90
        1
176
     0
 40
0.0
176
     0
 90
        0
176
     0
290
     0
176
     0
290
     1
176
     0
290
     1
176
     0
290
     0
176
     0
290
     0
176
     0
290
     0
176
     0
290
     0
176
     0
290
     0
176
     0
290
     0
176
     0
 90
       50
176
     0
 40
0.0
176
     0
 40
1.0
176
     0
 90
        0
176
     0
 62
    18
420
        0
176
     0
 90
       50
176
     0
 90
        3
176
     0
 62
     5
420
      255
176
     0
290
     0
176
     0
 90
       50
176
     0
 90
       50
176
     0
 90
       50
176
     0
290
     0
176
     0
 90
       50
176
     0
 62
   256
176
     0
 40
1.0
176
     0
 90
        2
176
     0
  1
strokes_ogs.tif
176
     0
290
     0
176
     0
 40
1.0
176
     0
 40
1.0
176
     0
  0
VISUALSTYLE
  5
1627
102
{ACAD_REACTORS
330
161E
102
}
330
161E
100
AcDbVisualStyle
  2
Realistic
 70
     8
177
     3
291
     0
 70
    58
 90
        2
176
     1
 90
        3
176
     1
 90
        0
176
     1
 90
        2
176
     1
 40
0.6
176
     1
 40
30.0
176
     1
 62
     7
420
 16777215
176
     1
 90
        0
176
     1
 90
        0
176
     1
 62
     7
176
     1
 62
   257
176
     1
 90
        1
176
     1
 90
        1
176
     1
 40
1.0
176
     1
 90
        8
176
     1
 62
   257
176
     1
 40
1.0
176
     1
 90
        1
176
     1
 90
        6
176
     1
 90
        2
176
     1
 62
     7
176
     1
 90
        3
176
     1
 90
        0
176
     1
 90
        0
176
     1
290
     0
176
     1
 90
       13
176
     1
 40
0.0
176
     1
 90
        0
176
     1
290
     0
176
     1
290
     1
176
     1
290
     1
176
     1
290
     0
176
     1
290
     0
176
     1
290
     0
176
     1
290
     0
176
     1
290
     0
176
     1
290
     0
176
     1
 90
       50
176
     1
 40
0.0
176
     1
 40
1.0
176
     1
 90
        0
176
     1
 62
    18
420
        0
176
     1
 90
       50
176
     1
 90
        3
176
     1
 62
     5
420
      255
176
     1
290
     0
176
     1
 90
       50
176
     1
 90
       50
176
     1
 90
       50
176
     1
290
     0
176
     1
 90
       50
176
     1
 62
   256
176
     0
 40
1.0
176
     0
 90
        2
176
     1
  1
strokes_ogs.tif
176
     1
290
     0
176
     1
 40
1.0
176
     1
 40
1.0
176
     1
  0
VISUALSTYLE
  5
1636
102
{ACAD_REACTORS
330
161E
102
}
330
161E
100
AcDbVisualStyle
  2
Shaded
 70
    27
177
     3
291
     0
 70
    58
 90
        2
176
     1
 90
        2
176
     1
 90
        1
176
     1
 90
        2
176
     1
 40
0.6
176
     1
 40
30.0
176
     1
 62
     7
420
 16777215
176
     1
 90
        0
176
     1
 90
        4
176
     1
 62
     7
176
     1
 62
   257
176
     1
 90
        1
176
     1
 90
        1
176
     1
 40
1.0
176
     1
 90
        8
176
     1
 62
   257
176
     1
 40
1.0
176
     1
 90
        1
176
     1
 90
        6
176
     1
 90
        2
176
     1
 62
     8
420
  7895160
176
     1
 90
        3
176
     1
 90
        0
176
     1
 90
        0
176
     1
290
     0
176
     1
 90
        5
176
     1
 40
0.0
176
     1
 90
        0
176
     1
290
     0
176
     1
290
     1
176
     1
290
     1
176
     1
290
     0
176
     1
290
     0
176
     1
290
     0
176
     1
290
     0
176
     1
290
     0
176
     1
290
     0
176
     1
 90
       50
176
     1
 40
0.0
176
     1
 40
1.0
176
     1
 90
        0
176
     1
 62
    18
420
        0
176
     1
 90
       50
176
     1
 90
        3
176
     1
 62
     5
420
      255
176
     1
290
     0
176
     1
 90
       50
176
     1
 90
       50
176
     1
 90
       50
176
     1
290
     0
176
     1
 90
       50
176
     1
 62
   256
176
     0
 40
1.0
176
     0
 90
        2
176
     1
  1
strokes_ogs.tif
176
     1
290
     0
176
     1
 40
1.0
176
     1
 40
1.0
176
     1
  0
VISUALSTYLE
  5
1635
102
{ACAD_REACTORS
330
161E
102
}
330
161E
100
AcDbVisualStyle
  2
Shaded with edges
 70
    26
177
     3
291
     0
 70
    58
 90
        2
176
     1
 90
        2
176
     1
 90
        1
176
     1
 90
        2
176
     1
 40
0.6
176
     1
 40
30.0
176
     1
 62
     7
420
 16777215
176
     1
 90
        1
176
     1
 90
       10
176
     1
 62
     7
176
     1
 62
   257
176
     1
 90
        2
176
     1
 90
        1
176
     1
 40
1.0
176
     1
 90
        8
176
     1
 62
   257
176
     1
 40
1.0
176
     1
 90
        1
176
     1
 90
        6
176
     1
 90
        2
176
     1
 62
     7
176
     1
 90
        3
176
     1
 90
        0
176
     1
 90
        0
176
     1
290
     0
176
     1
 90
        5
176
     1
 40
0.0
176
     1
 90
        0
176
     1
290
     0
176
     1
290
     1
176
     1
290
     1
176
     1
290
     0
176
     1
290
     0
176
     1
290
     0
176
     1
290
     0
176
     1
290
     0
176
     1
290
     0
176
     1
 90
       50
176
     1
 40
0.0
176
     1
 40
1.0
176
     1
 90
        0
176
     1
 62
    18
420
        0
176
     1
 90
       50
176
     1
 90
        3
176
     1
 62
     5
420
      255
176
     1
290
     0
176
     1
 90
       50
176
     1
 90
       50
176
     1
 90
       50
176
     1
290
     0
176
     1
 90
       50
176
     1
 62
   256
176
     0
 40
1.0
176
     0
 90
        2
176
     1
  1
strokes_ogs.tif
176
     1
290
     0
176
     1
 40
1.0
176
     1
 40
1.0
176
     1
  0
VISUALSTYLE
  5
1632
102
{ACAD_REACTORS
330
161E
102
}
330
161E
100
AcDbVisualStyle
  2
Shades of Gray
 70
    23
177
     3
291
     0
 70
    58
 90
        2
176
     1
 90
        2
176
     1
 90
        3
176
     1
 90
        0
176
     1
 40
0.6
176
     1
 40
30.0
176
     1
 62
     7
420
 16777215
176
     1
 90
        2
176
     1
 90
        2
176
     1
 62
     7
176
     1
 62
     7
176
     1
 90
        1
176
     1
 90
        1
176
     1
 40
40.0
176
     1
 90
        8
176
     1
 62
     7
176
     1
 40
1.0
176
     1
 90
        1
176
     1
 90
        6
176
     1
 90
        2
176
     1
 62
     7
176
     1
 90
        3
176
     1
 90
        0
176
     1
 90
        0
176
     1
290
     0
176
     1
 90
        1
176
     1
 40
0.0
176
     1
 90
        0
176
     1
290
     0
176
     1
290
     1
176
     1
290
     1
176
     1
290
     0
176
     1
290
     0
176
     1
290
     0
176
     1
290
     0
176
     1
290
     0
176
     1
290
     0
176
     1
 90
       50
176
     1
 40
0.0
176
     1
 40
1.0
176
     1
 90
        0
176
     1
 62
    18
420
        0
176
     1
 90
       50
176
     1
 90
        3
176
     1
 62
     5
420
      255
176
     1
290
     0
176
     1
 90
       50
176
     1
 90
       50
176
     1
 90
       50
176
     1
290
     0
176
     1
 90
       50
176
     1
 62
   256
176
     0
 40
1.0
176
     0
 90
        2
176
     1
  1
strokes_ogs.tif
176
     1
290
     0
176
     1
 40
1.0
176
     1
 40
1.0
176
     1
  0
VISUALSTYLE
  5
1633
102
{ACAD_REACTORS
330
161E
102
}
330
161E
100
AcDbVisualStyle
  2
Sketchy
 70
    24
177
     3
291
     0
 70
    58
 90
        1
176
     1
 90
        2
176
     1
 90
        2
176
     1
 90
        0
176
     1
 40
0.6
176
     1
 40
30.0
176
     1
 62
     7
420
 16777215
176
     1
 90
        2
176
     1
 90
        2
176
     1
 62
     7
176
     1
 62
     7
176
     1
 90
        1
176
     1
 90
        1
176
     1
 40
40.0
176
     1
 90
       11
176
     1
 62
     7
176
     1
 40
1.0
176
     1
 90
        1
176
     1
 90
        6
176
     1
 90
        2
176
     1
 62
     7
176
     1
 90
        6
176
     1
 90
        0
176
     1
 90
        0
176
     1
290
     0
176
     1
 90
        1
176
     1
 40
0.0
176
     1
 90
        0
176
     1
290
     0
176
     1
290
     1
176
     1
290
     1
176
     1
290
     0
176
     1
290
     0
176
     1
290
     0
176
     1
290
     0
176
     1
290
     0
176
     1
290
     0
176
     1
 90
       50
176
     1
 40
0.0
176
     1
 40
1.0
176
     1
 90
        0
176
     1
 62
    18
420
        0
176
     1
 90
       50
176
     1
 90
        3
176
     1
 62
     5
420
      255
176
     1
290
     0
176
     1
 90
       50
176
     1
 90
       50
176
     1
 90
       50
176
     1
290
     0
176
     1
 90
       50
176
     1
 62
   256
176
     0
 40
1.0
176
     0
 90
        2
176
     1
  1
strokes_ogs.tif
176
     1
290
     0
176
     1
 40
1.0
176
     1
 40
1.0
176
     1
  0
VISUALSTYLE
  5
162B
102
{ACAD_REACTORS
330
161E
102
}
330
161E
100
AcDbVisualStyle
  2
Thicken
 70
    13
177
     3
291
     1
 70
    58
 90
        2
176
     1
 90
        2
176
     1
 90
        0
176
     1
 90
        0
176
     1
 40
0.6
176
     1
 40
30.0
176
     1
 62
     7
420
 16777215
176
     1
 90
        1
176
     1
 90
        4
176
     1
 62
     7
176
     1
 62
   257
176
     1
 90
        1
176
     1
 90
        1
176
     1
 40
1.0
176
     1
 90
       12
176
     1
 62
     7
176
     1
 40
1.0
176
     1
 90
        1
176
     1
 90
        6
176
     1
 90
        2
176
     1
 62
     7
176
     1
 90
        5
176
     1
 90
        0
176
     1
 90
        0
176
     1
290
     0
176
     1
 90
        1
176
     1
 40
0.0
176
     1
 90
        0
176
     1
290
     0
176
     1
290
     1
176
     1
290
     1
176
     1
290
     0
176
     1
290
     0
176
     1
290
     0
176
     1
290
     0
176
     1
290
     0
176
     1
290
     0
176
     1
 90
       50
176
     1
 40
0.0
176
     1
 40
1.0
176
     1
 90
        0
176
     1
 62
    18
420
        0
176
     1
 90
       50
176
     1
 90
        3
176
     1
 62
     5
420
      255
176
     1
290
     0
176
     1
 90
       50
176
     1
 90
       50
176
     1
 90
       50
176
     1
290
     0
176
     1
 90
       50
176
     1
 62
   256
176
     0
 40
1.0
176
     0
 90
        2
176
     1
  1
strokes_ogs.tif
176
     1
290
     0
176
     1
 40
1.0
176
     1
 40
1.0
176
     1
  0
VISUALSTYLE
  5
1624
102
{ACAD_REACTORS
330
161E
102
}
330
161E
100
AcDbVisualStyle
  2
Wireframe
 70
     5
177
     3
291
     0
 70
    58
 90
        0
176
     1
 90
        2
176
     1
 90
        0
176
     1
 90
        0
176
     1
 40
0.6
176
     1
 40
30.0
176
     1
 62
     7
420
 16777215
176
     1
 90
        1
176
     1
 90
        4
176
     1
 62
     7
176
     1
 62
   257
176
     1
 90
        1
176
     1
 90
        1
176
     1
 40
1.0
176
     1
 90
        0
176
     1
 62
   257
176
     1
 40
1.0
176
     1
 90
        1
176
     1
 90
        6
176
     1
 90
        2
176
     1
 62
     7
176
     1
 90
        3
176
     1
 90
        0
176
     1
 90
        0
176
     1
290
     0
176
     1
 90
        1
176
     1
 40
0.0
176
     1
 90
        0
176
     1
290
     0
176
     1
290
     1
176
     1
290
     1
176
     1
290
     0
176
     1
290
     0
176
     1
290
     0
176
     1
290
     0
176
     1
290
     0
176
     1
290
     0
176
     1
 90
       50
176
     1
 40
0.0
176
     1
 40
1.0
176
     1
 90
        0
176
     1
 62
    18
420
        0
176
     1
 90
       50
176
     1
 90
        3
176
     1
 62
     5
420
      255
176
     1
290
     0
176
     1
 90
       50
176
     1
 90
       50
176
     1
 90
       50
176
     1
290
     0
176
     1
 90
       50
176
     1
 62
   256
176
     0
 40
1.0
176
     0
 90
        2
176
     1
  1
strokes_ogs.tif
176
     1
290
     0
176
     1
 40
1.0
176
     1
 40
1.0
176
     1
  0
VISUALSTYLE
  5
1634
102
{ACAD_REACTORS
330
161E
102
}
330
161E
100
AcDbVisualStyle
  2
X-Ray
 70
    25
177
     3
291
     0
 70
    58
 90
        2
176
     1
 90
        2
176
     1
 90
        1
176
     1
 90
        1
176
     1
 40
0.5
176
     1
 40
30.0
176
     1
 62
     7
420
 16777215
176
     1
 90
        1
176
     1
 90
        0
176
     1
 62
     7
176
     1
 62
   257
176
     1
 90
        1
176
     1
 90
        1
176
     1
 40
1.0
176
     1
 90
        8
176
     1
 62
     7
176
     1
 40
1.0
176
     1
 90
        1
176
     1
 90
        6
176
     1
 90
        2
176
     1
 62
     7
176
     1
 90
        3
176
     1
 90
        0
176
     1
 90
        0
176
     1
290
     0
176
     1
 90
       13
176
     1
 40
0.0
176
     1
 90
        0
176
     1
290
     0
176
     1
290
     1
176
     1
290
     1
176
     1
290
     0
176
     1
290
     0
176
     1
290
     0
176
     1
290
     0
176
     1
290
     0
176
     1
290
     0
176
     1
 90
       50
176
     1
 40
0.0
176
     1
 40
1.0
176
     1
 90
        0
176
     1
 62
    18
420
        0
176
     1
 90
       50
176
     1
 90
        3
176
     1
 62
     5
420
      255
176
     1
290
     0
176
     1
 90
       50
176
     1
 90
       50
176
     1
 90
       50
176
     1
290
     0
176
     1
 90
       50
176
     1
 62
   256
176
     0
 40
1.0
176
     0
 90
        2
176
     1
  1
strokes_ogs.tif
176
     1
290
     0
176
     1
 40
1.0
176
     1
 40
1.0
176
     1
  0
DICTIONARYVAR
  5
1666
102
{ACAD_REACTORS
330
1665
102
}
330
1665
100
DictionaryVariables
280
     0
  1
1:1
  0
DICTIONARYVAR
  5
166A
102
{ACAD_REACTORS
330
1665
102
}
330
1665
100
DictionaryVariables
280
     0
  1
Standard
  0
DICTIONARYVAR
  5
166C
102
{ACAD_REACTORS
330
1665
102
}
330
1665
100
DictionaryVariables
280
     0
  1
0
  0
DICTIONARYVAR
  5
166D
102
{ACAD_REACTORS
330
1665
102
}
330
1665
100
DictionaryVariables
280
     0
  1
0
  0
DICTIONARY
  5
19FB
330
165D
100
AcDbDictionary
280
     1
281
     1
  3
ACAD_ROUNDTRIP_2008_TABLESTYLE_CELLSTYLEMAP
360
19FC
  0
CELLSTYLEMAP
  5
19FC
102
{ACAD_REACTORS
330
19FB
102
}
330
19FB
100
AcDbCellStyleMap
 90
        3
300
CELLSTYLE
  1
TABLEFORMAT_BEGIN
 90
        5
170
     1
 91
        0
 92
        0
 62
   257
 93
        1
300
CONTENTFORMAT
  1
CONTENTFORMAT_BEGIN
 90
        0
 91
        0
 92
        4
 93
        0
300

 40
0.0
140
1.0
 94
        5
 62
     0
340
11
144
6.0
309
CONTENTFORMAT_END
171
     1
301
MARGIN
  1
CELLMARGIN_BEGIN
 40
1.5
 40
1.5
 40
1.5
 40
1.5
 40
1.5
 40
1.5
309
CELLMARGIN_END
 94
        6
 95
        1
302
GRIDFORMAT
  1
GRIDFORMAT_BEGIN
 90
        0
 91
        1
 62
     0
 92
       -2
340
14
 93
        0
 40
0.045
309
GRIDFORMAT_END
 95
        2
302
GRIDFORMAT
  1
GRIDFORMAT_BEGIN
 90
        0
 91
        1
 62
     0
 92
       -2
340
14
 93
        0
 40
0.045
309
GRIDFORMAT_END
 95
        4
302
GRIDFORMAT
  1
GRIDFORMAT_BEGIN
 90
        0
 91
        1
 62
     0
 92
       -2
340
14
 93
        0
 40
0.045
309
GRIDFORMAT_END
 95
        8
302
GRIDFORMAT
  1
GRIDFORMAT_BEGIN
 90
        0
 91
        1
 62
     0
 92
       -2
340
14
 93
        0
 40
0.045
309
GRIDFORMAT_END
 95
       16
302
GRIDFORMAT
  1
GRIDFORMAT_BEGIN
 90
        0
 91
        1
 62
     0
 92
       -2
340
14
 93
        0
 40
0.045
309
GRIDFORMAT_END
 95
       32
302
GRIDFORMAT
  1
GRIDFORMAT_BEGIN
 90
        0
 91
        1
 62
     0
 92
       -2
340
14
 93
        0
 40
0.045
309
GRIDFORMAT_END
309
TABLEFORMAT_END
  1
CELLSTYLE_BEGIN
 90
        1
 91
        1
300
_TITLE
309
CELLSTYLE_END
300
CELLSTYLE
  1
TABLEFORMAT_BEGIN
 90
        5
170
     1
 91
        0
 92
        0
 62
   257
 93
        1
300
CONTENTFORMAT
  1
CONTENTFORMAT_BEGIN
 90
        0
 91
        0
 92
        4
 93
        0
300

 40
0.0
140
1.0
 94
        5
 62
     0
340
11
144
4.5
309
CONTENTFORMAT_END
171
     1
301
MARGIN
  1
CELLMARGIN_BEGIN
 40
1.5
 40
1.5
 40
1.5
 40
1.5
 40
1.5
 40
1.5
309
CELLMARGIN_END
 94
        6
 95
        1
302
GRIDFORMAT
  1
GRIDFORMAT_BEGIN
 90
        0
 91
        1
 62
     0
 92
       -2
340
14
 93
        0
 40
0.045
309
GRIDFORMAT_END
 95
        2
302
GRIDFORMAT
  1
GRIDFORMAT_BEGIN
 90
        0
 91
        1
 62
     0
 92
       -2
340
14
 93
        0
 40
0.045
309
GRIDFORMAT_END
 95
        4
302
GRIDFORMAT
  1
GRIDFORMAT_BEGIN
 90
        0
 91
        1
 62
     0
 92
       -2
340
14
 93
        0
 40
0.045
309
GRIDFORMAT_END
 95
        8
302
GRIDFORMAT
  1
GRIDFORMAT_BEGIN
 90
        0
 91
        1
 62
     0
 92
       -2
340
14
 93
        0
 40
0.045
309
GRIDFORMAT_END
 95
       16
302
GRIDFORMAT
  1
GRIDFORMAT_BEGIN
 90
        0
 91
        1
 62
     0
 92
       -2
340
14
 93
        0
 40
0.045
309
GRIDFORMAT_END
 95
       32
302
GRIDFORMAT
  1
GRIDFORMAT_BEGIN
 90
        0
 91
        1
 62
     0
 92
       -2
340
14
 93
        0
 40
0.045
309
GRIDFORMAT_END
309
TABLEFORMAT_END
  1
CELLSTYLE_BEGIN
 90
        2
 91
        1
300
_HEADER
309
CELLSTYLE_END
300
CELLSTYLE
  1
TABLEFORMAT_BEGIN
 90
        5
170
     1
 91
        0
 92
        0
 62
   257
 93
        1
300
CONTENTFORMAT
  1
CONTENTFORMAT_BEGIN
 90
        0
 91
        0
 92
        4
 93
        0
300

 40
0.0
140
1.0
 94
        2
 62
     0
340
11
144
4.5
309
CONTENTFORMAT_END
171
     1
301
MARGIN
  1
CELLMARGIN_BEGIN
 40
1.5
 40
1.5
 40
1.5
 40
1.5
 40
1.5
 40
1.5
309
CELLMARGIN_END
 94
        6
 95
        1
302
GRIDFORMAT
  1
GRIDFORMAT_BEGIN
 90
        0
 91
        1
 62
     0
 92
       -2
340
14
 93
        0
 40
0.045
309
GRIDFORMAT_END
 95
        2
302
GRIDFORMAT
  1
GRIDFORMAT_BEGIN
 90
        0
 91
        1
 62
     0
 92
       -2
340
14
 93
        0
 40
0.045
309
GRIDFORMAT_END
 95
        4
302
GRIDFORMAT
  1
GRIDFORMAT_BEGIN
 90
        0
 91
        1
 62
     0
 92
       -2
340
14
 93
        0
 40
0.045
309
GRIDFORMAT_END
 95
        8
302
GRIDFORMAT
  1
GRIDFORMAT_BEGIN
 90
        0
 91
        1
 62
     0
 92
       -2
340
14
 93
        0
 40
0.045
309
GRIDFORMAT_END
 95
       16
302
GRIDFORMAT
  1
GRIDFORMAT_BEGIN
 90
        0
 91
        1
 62
     0
 92
       -2
340
14
 93
        0
 40
0.045
309
GRIDFORMAT_END
 95
       32
302
GRIDFORMAT
  1
GRIDFORMAT_BEGIN
 90
        0
 91
        1
 62
     0
 92
       -2
340
14
 93
        0
 40
0.045
309
GRIDFORMAT_END
309
TABLEFORMAT_END
  1
CELLSTYLE_BEGIN
 90
        3
 91
        2
300
_DATA
309
CELLSTYLE_END
  0
ENDSEC
  0
EOF
