  0
SECTION
  2
HEADER
  9
$ACADVER
  1
AC1024
  9
$ACADMAINTVER
 70
     6
  9
$DWGCODEPAGE
  3
ANSI_932
  9
$LASTSAVEDBY
  1
AKIHIROMURAKAMI
  9
$INSBASE
 10
0.0
 20
0.0
 30
0.0
  9
$EXTMIN
 10
44.93184613056792
 20
47.5150646672305
 30
0.0
  9
$EXTMAX
 10
232.0457382620901
 20
207.7172582092608
 30
0.0
  9
$LIMMIN
 10
0.0
 20
0.0
  9
$LIMMAX
 10
420.0
 20
297.0
  9
$ORTHOMODE
 70
     0
  9
$REGENMODE
 70
     1
  9
$FILLMODE
 70
     1
  9
$QTEXTMODE
 70
     0
  9
$MIRRTEXT
 70
     0
  9
$LTSCALE
 40
0.2
  9
$ATTMODE
 70
     1
  9
$TEXTSIZE
 40
3.0
  9
$TRACEWID
 40
1.0
  9
$TEXTSTYLE
  7
Standard
  9
$CLAYER
  8
文字
  9
$CELTYPE
  6
ByLayer
  9
$CECOLOR
 62
   256
  9
$CELTSCALE
 40
1.0
  9
$DISPSILH
 70
     0
  9
$DIMSCALE
 40
1.0
  9
$DIMASZ
 40
2.5
  9
$DIMEXO
 40
0.625
  9
$DIMDLI
 40
3.75
  9
$DIMRND
 40
0.0
  9
$DIMDLE
 40
0.0
  9
$DIMEXE
 40
1.25
  9
$DIMTP
 40
0.0
  9
$DIMTM
 40
0.0
  9
$DIMTXT
 40
2.5
  9
$DIMCEN
 40
2.5
  9
$DIMTSZ
 40
0.0
  9
$DIMTOL
 70
     0
  9
$DIMLIM
 70
     0
  9
$DIMTIH
 70
     0
  9
$DIMTOH
 70
     0
  9
$DIMSE1
 70
     0
  9
$DIMSE2
 70
     0
  9
$DIMTAD
 70
     1
  9
$DIMZIN
 70
     8
  9
$DIMBLK
  1

  9
$DIMASO
 70
     1
  9
$DIMSHO
 70
     1
  9
$DIMPOST
  1

  9
$DIMAPOST
  1

  9
$DIMALT
 70
     0
  9
$DIMALTD
 70
     3
  9
$DIMALTF
 40
0.03937007874016
  9
$DIMLFAC
 40
1.0
  9
$DIMTOFL
 70
     1
  9
$DIMTVP
 40
0.0
  9
$DIMTIX
 70
     0
  9
$DIMSOXD
 70
     0
  9
$DIMSAH
 70
     0
  9
$DIMBLK1
  1

  9
$DIMBLK2
  1

  9
$DIMSTYLE
  2
ISO-25
  9
$DIMCLRD
 70
     0
  9
$DIMCLRE
 70
     0
  9
$DIMCLRT
 70
     0
  9
$DIMTFAC
 40
1.0
  9
$DIMGAP
 40
0.625
  9
$DIMJUST
 70
     0
  9
$DIMSD1
 70
     0
  9
$DIMSD2
 70
     0
  9
$DIMTOLJ
 70
     0
  9
$DIMTZIN
 70
     8
  9
$DIMALTZ
 70
     0
  9
$DIMALTTZ
 70
     0
  9
$DIMUPT
 70
     0
  9
$DIMDEC
 70
     2
  9
$DIMTDEC
 70
     2
  9
$DIMALTU
 70
     2
  9
$DIMALTTD
 70
     3
  9
$DIMTXSTY
  7
Standard
  9
$DIMAUNIT
 70
     0
  9
$DIMADEC
 70
     0
  9
$DIMALTRND
 40
0.0
  9
$DIMAZIN
 70
     0
  9
$DIMDSEP
 70
    46
  9
$DIMATFIT
 70
     3
  9
$DIMFRAC
 70
     0
  9
$DIMLDRBLK
  1

  9
$DIMLUNIT
 70
     2
  9
$DIMLWD
 70
    -2
  9
$DIMLWE
 70
    -2
  9
$DIMTMOVE
 70
     0
  9
$DIMFXL
 40
1.0
  9
$DIMFXLON
 70
     0
  9
$DIMJOGANG
 40
0.7853981633974483
  9
$DIMTFILL
 70
     0
  9
$DIMTFILLCLR
 70
     0
  9
$DIMARCSYM
 70
     0
  9
$DIMLTYPE
  6

  9
$DIMLTEX1
  6

  9
$DIMLTEX2
  6

  9
$DIMTXTDIRECTION
 70
     0
  9
$LUNITS
 70
     2
  9
$LUPREC
 70
     4
  9
$SKETCHINC
 40
1.0
  9
$FILLETRAD
 40
3.0
  9
$AUNITS
 70
     0
  9
$AUPREC
 70
     0
  9
$MENU
  1
.
  9
$ELEVATION
 40
0.0
  9
$PELEVATION
 40
0.0
  9
$THICKNESS
 40
0.0
  9
$LIMCHECK
 70
     0
  9
$CHAMFERA
 40
2.0
  9
$CHAMFERB
 40
2.0
  9
$CHAMFERC
 40
0.0
  9
$CHAMFERD
 40
0.0
  9
$SKPOLY
 70
     0
  9
$TDCREATE
 40
2452936.788310359
  9
$TDUCREATE
 40
2452936.413310359
  9
$TDUPDATE
 40
2458715.736635694
  9
$TDUUPDATE
 40
2458715.361635694
  9
$TDINDWG
 40
0.5702663426
  9
$TDUSRTIMER
 40
0.0039329977
  9
$USRTIMER
 70
     1
  9
$ANGBASE
 50
0.0
  9
$ANGDIR
 70
     0
  9
$PDMODE
 70
     0
  9
$PDSIZE
 40
0.0
  9
$PLINEWID
 40
0.0
  9
$SPLFRAME
 70
     0
  9
$SPLINETYPE
 70
     6
  9
$SPLINESEGS
 70
     8
  9
$HANDSEED
  5
C55
  9
$SURFTAB1
 70
     6
  9
$SURFTAB2
 70
     6
  9
$SURFTYPE
 70
     6
  9
$SURFU
 70
     6
  9
$SURFV
 70
     6
  9
$UCSBASE
  2

  9
$UCSNAME
  2

  9
$UCSORG
 10
0.0
 20
0.0
 30
0.0
  9
$UCSXDIR
 10
1.0
 20
0.0
 30
0.0
  9
$UCSYDIR
 10
0.0
 20
1.0
 30
0.0
  9
$UCSORTHOREF
  2

  9
$UCSORTHOVIEW
 70
     0
  9
$UCSORGTOP
 10
0.0
 20
0.0
 30
0.0
  9
$UCSORGBOTTOM
 10
0.0
 20
0.0
 30
0.0
  9
$UCSORGLEFT
 10
0.0
 20
0.0
 30
0.0
  9
$UCSORGRIGHT
 10
0.0
 20
0.0
 30
0.0
  9
$UCSORGFRONT
 10
0.0
 20
0.0
 30
0.0
  9
$UCSORGBACK
 10
0.0
 20
0.0
 30
0.0
  9
$PUCSBASE
  2

  9
$PUCSNAME
  2

  9
$PUCSORG
 10
0.0
 20
0.0
 30
0.0
  9
$PUCSXDIR
 10
1.0
 20
0.0
 30
0.0
  9
$PUCSYDIR
 10
0.0
 20
1.0
 30
0.0
  9
$PUCSORTHOREF
  2

  9
$PUCSORTHOVIEW
 70
     0
  9
$PUCSORGTOP
 10
0.0
 20
0.0
 30
0.0
  9
$PUCSORGBOTTOM
 10
0.0
 20
0.0
 30
0.0
  9
$PUCSORGLEFT
 10
0.0
 20
0.0
 30
0.0
  9
$PUCSORGRIGHT
 10
0.0
 20
0.0
 30
0.0
  9
$PUCSORGFRONT
 10
0.0
 20
0.0
 30
0.0
  9
$PUCSORGBACK
 10
0.0
 20
0.0
 30
0.0
  9
$USERI1
 70
     0
  9
$USERI2
 70
     0
  9
$USERI3
 70
     0
  9
$USERI4
 70
     0
  9
$USERI5
 70
     0
  9
$USERR1
 40
0.0
  9
$USERR2
 40
0.0
  9
$USERR3
 40
0.0
  9
$USERR4
 40
0.0
  9
$USERR5
 40
0.0
  9
$WORLDVIEW
 70
     1
  9
$SHADEDGE
 70
     3
  9
$SHADEDIF
 70
    70
  9
$TILEMODE
 70
     1
  9
$MAXACTVP
 70
    64
  9
$PINSBASE
 10
0.0
 20
0.0
 30
0.0
  9
$PLIMCHECK
 70
     0
  9
$PEXTMIN
 10
0.0
 20
0.0
 30
0.0
  9
$PEXTMAX
 10
0.0
 20
0.0
 30
0.0
  9
$PLIMMIN
 10
-6.35
 20
-6.35
  9
$PLIMMAX
 10
413.8083333333333
 20
290.6888888888888
  9
$UNITMODE
 70
     0
  9
$VISRETAIN
 70
     1
  9
$PLINEGEN
 70
     0
  9
$PSLTSCALE
 70
     1
  9
$TREEDEPTH
 70
  3020
  9
$CMLSTYLE
  2
Standard
  9
$CMLJUST
 70
     0
  9
$CMLSCALE
 40
20.0
  9
$PROXYGRAPHICS
 70
     1
  9
$MEASUREMENT
 70
     1
  9
$CELWEIGHT
370
    -1
  9
$ENDCAPS
280
     0
  9
$JOINSTYLE
280
     0
  9
$LWDISPLAY
290
     0
  9
$INSUNITS
 70
     4
  9
$HYPERLINKBASE
  1

  9
$STYLESHEET
  1

  9
$XEDIT
290
     1
  9
$CEPSNTYPE
380
     0
  9
$PSTYLEMODE
290
     1
  9
$FINGERPRINTGUID
  2
{86E58535-AB5B-4AFE-AB1B-6758AAB7EA7D}
  9
$VERSIONGUID
  2
{5C85A1B9-2C8D-48B4-829D-85051DD4690A}
  9
$EXTNAMES
290
     1
  9
$PSVPSCALE
 40
0.0
  9
$OLESTARTUP
290
     0
  9
$SORTENTS
280
   127
  9
$INDEXCTL
280
     0
  9
$HIDETEXT
280
     1
  9
$XCLIPFRAME
280
     0
  9
$HALOGAP
280
     0
  9
$OBSCOLOR
 70
   257
  9
$OBSLTYPE
280
     0
  9
$INTERSECTIONDISPLAY
280
     0
  9
$INTERSECTIONCOLOR
 70
   257
  9
$DIMASSOC
280
     2
  9
$PROJECTNAME
  1

  9
$CAMERADISPLAY
290
     0
  9
$LENSLENGTH
 40
50.0
  9
$CAMERAHEIGHT
 40
0.0
  9
$STEPSPERSEC
 40
2.0
  9
$STEPSIZE
 40
6.0
  9
$3DDWFPREC
 40
2.0
  9
$PSOLWIDTH
 40
0.25
  9
$PSOLHEIGHT
 40
4.0
  9
$LOFTANG1
 40
1.570796326794897
  9
$LOFTANG2
 40
1.570796326794897
  9
$LOFTMAG1
 40
0.0
  9
$LOFTMAG2
 40
0.0
  9
$LOFTPARAM
 70
     7
  9
$LOFTNORMALS
280
     1
  9
$LATITUDE
 40
37.795
  9
$LONGITUDE
 40
-122.394
  9
$NORTHDIRECTION
 40
0.0
  9
$TIMEZONE
 70
 -8000
  9
$LIGHTGLYPHDISPLAY
280
     1
  9
$TILEMODELIGHTSYNCH
280
     1
  9
$SOLIDHIST
280
     1
  9
$SHOWHIST
280
     1
  9
$DWFFRAME
280
     2
  9
$DGNFRAME
280
     2
  9
$REALWORLDSCALE
290
     1
  9
$INTERFERECOLOR
 62
   256
  9
$CSHADOW
280
     0
  9
$SHADOWPLANELOCATION
 40
0.0
  0
ENDSEC
  0
SECTION
  2
CLASSES
  0
CLASS
  1
ACDBDICTIONARYWDFLT
  2
AcDbDictionaryWithDefault
  3
ObjectDBX Classes
 90
        0
 91
        3
280
     0
281
     0
  0
CLASS
  1
DIMASSOC
  2
AcDbDimAssoc
  3
"AcDbDimAssoc|Product Desc:     AcDim ARX App For Dimension|Company:          Autodesk, Inc.|WEB Address:      www.autodesk.com"
 90
        0
 91
        3
280
     0
281
     0
  0
CLASS
  1
VISUALSTYLE
  2
AcDbVisualStyle
  3
ObjectDBX Classes
 90
     4095
 91
        3
280
     0
281
     0
  0
CLASS
  1
SCALE
  2
AcDbScale
  3
ObjectDBX Classes
 90
     1153
 91
        3
280
     0
281
     0
  0
CLASS
  1
MATERIAL
  2
AcDbMaterial
  3
ObjectDBX Classes
 90
     1153
 91
        3
280
     0
281
     0
  0
CLASS
  1
TABLESTYLE
  2
AcDbTableStyle
  3
ObjectDBX Classes
 90
     4095
 91
        3
280
     0
281
     0
  0
CLASS
  1
SUN
  2
AcDbSun
  3
SCENEOE
 90
     1153
 91
        3
280
     0
281
     0
  0
CLASS
  1
RASTERVARIABLES
  2
AcDbRasterVariables
  3
ISM
 90
        0
 91
        3
280
     0
281
     0
  0
CLASS
  1
DICTIONARYVAR
  2
AcDbDictionaryVar
  3
ObjectDBX Classes
 90
        0
 91
        3
280
     0
281
     0
  0
CLASS
  1
CELLSTYLEMAP
  2
AcDbCellStyleMap
  3
ObjectDBX Classes
 90
     1152
 91
        3
280
     0
281
     0
  0
CLASS
  1
MLEADERSTYLE
  2
AcDbMLeaderStyle
  3
ACDB_MLEADERSTYLE_CLASS
 90
     4095
 91
        3
280
     0
281
     0
  0
ENDSEC
  0
SECTION
  2
TABLES
  0
TABLE
  2
VPORT
  5
8
330
0
100
AcDbSymbolTable
 70
     1
  0
VPORT
  5
B50
330
8
100
AcDbSymbolTableRecord
100
AcDbViewportTableRecord
  2
*Active
 70
     0
 10
0.0
 20
0.0
 11
1.0
 21
1.0
 12
210.6029908195706
 22
103.4323014750774
 13
0.0
 23
0.0
 14
10.0
 24
10.0
 15
10.0
 25
10.0
 16
0.0
 26
0.0
 36
1.0
 17
0.0
 27
0.0
 37
0.0
 40
319.1528074470132
 41
1.762376237623762
 42
50.0
 43
0.0
 44
0.0
 50
0.0
 51
0.0
 71
    16
 72
  1000
 73
     1
 74
     3
 75
     0
 76
     0
 77
     0
 78
     0
281
     0
 65
     1
110
0.0
120
0.0
130
0.0
111
1.0
121
0.0
131
0.0
112
0.0
122
1.0
132
0.0
 79
     0
146
0.0
348
B56
 60
     3
 61
     5
292
     1
282
     1
141
0.0
142
0.0
 63
   256
361
B92
  0
ENDTAB
  0
TABLE
  2
LTYPE
  5
5
330
0
100
AcDbSymbolTable
 70
     6
  0
LTYPE
  5
14
330
5
100
AcDbSymbolTableRecord
100
AcDbLinetypeTableRecord
  2
ByBlock
 70
     0
  3

 72
    65
 73
     0
 40
0.0
  0
LTYPE
  5
15
330
5
100
AcDbSymbolTableRecord
100
AcDbLinetypeTableRecord
  2
ByLayer
 70
     0
  3

 72
    65
 73
     0
 40
0.0
  0
LTYPE
  5
16
330
5
100
AcDbSymbolTableRecord
100
AcDbLinetypeTableRecord
  2
Continuous
 70
     0
  3
Solid line
 72
    65
 73
     0
 40
0.0
  0
LTYPE
  5
35
330
5
100
AcDbSymbolTableRecord
100
AcDbLinetypeTableRecord
  2
ACAD_ISO08W100
 70
     0
  3
ISO long-dash short-dash ____ __ ____ __ ____ _
 72
    65
 73
     4
 40
36.0
 49
24.0
 74
     0
 49
-3.0
 74
     0
 49
6.0
 74
     0
 49
-3.0
 74
     0
  0
LTYPE
  5
127
330
5
100
AcDbSymbolTableRecord
100
AcDbLinetypeTableRecord
  2
HIDDENX2
 70
     0
  3
Hidden (2x) ____ ____ ____ ____ ____ ____ ____
 72
    65
 73
     2
 40
19.05
 49
12.7
 74
     0
 49
-6.35
 74
     0
  0
LTYPE
  5
5EC
330
5
100
AcDbSymbolTableRecord
100
AcDbLinetypeTableRecord
  2
CENTER
 70
     0
  3
Center ____ _ ____ _ ____ _ ____ _ ____ _ ____
 72
    65
 73
     4
 40
50.8
 49
31.75
 74
     0
 49
-6.35
 74
     0
 49
6.35
 74
     0
 49
-6.35
 74
     0
  0
LTYPE
  5
5ED
330
5
100
AcDbSymbolTableRecord
100
AcDbLinetypeTableRecord
  2
ACAD_ISO02W100
 70
     0
  3
ISO dash __ __ __ __ __ __ __ __ __ __ __ __ __
 72
    65
 73
     2
 40
15.0
 49
12.0
 74
     0
 49
-3.0
 74
     0
  0
LTYPE
  5
605
330
5
100
AcDbSymbolTableRecord
100
AcDbLinetypeTableRecord
  2
DASHED
 70
     0
  3
Dashed __ __ __ __ __ __ __ __ __ __ __ __ __ _
 72
    65
 73
     2
 40
19.05
 49
12.7
 74
     0
 49
-6.35
 74
     0
  0
ENDTAB
  0
TABLE
  2
LAYER
  5
2
330
0
100
AcDbSymbolTable
 70
    10
  0
LAYER
  5
10
330
2
100
AcDbSymbolTableRecord
100
AcDbLayerTableRecord
  2
0
 70
     0
 62
     7
  6
Continuous
370
    -3
390
F
347
B8E
  0
LAYER
  5
2E
330
2
100
AcDbSymbolTableRecord
100
AcDbLayerTableRecord
  2
枠
 70
     0
 62
     1
  6
Continuous
370
    30
390
F
347
B8E
  0
LAYER
  5
2F
330
2
100
AcDbSymbolTableRecord
100
AcDbLayerTableRecord
  2
文字
 70
     0
 62
     7
  6
Continuous
370
    30
390
F
347
B8E
  0
LAYER
  5
36
330
2
100
AcDbSymbolTableRecord
100
AcDbLayerTableRecord
  2
中心線
 70
     0
 62
     7
  6
CENTER
370
    30
390
F
347
B8E
  0
LAYER
  5
52
330
2
100
AcDbSymbolTableRecord
100
AcDbLayerTableRecord
  2
隠れ線
 70
     0
 62
     2
  6
Continuous
290
     0
370
    -3
390
F
347
B8E
  0
LAYER
  5
128
330
2
100
AcDbSymbolTableRecord
100
AcDbLayerTableRecord
  2
実線
 70
     0
 62
     7
  6
Continuous
370
    50
390
F
347
B8E
  0
LAYER
  5
129
330
2
100
AcDbSymbolTableRecord
100
AcDbLayerTableRecord
  2
破線
 70
     0
 62
     7
  6
DASHED
370
    20
390
F
347
B8E
  0
LAYER
  5
693
330
2
100
AcDbSymbolTableRecord
100
AcDbLayerTableRecord
  2
Defpoints
 70
     0
 62
     7
  6
Continuous
290
     0
370
    -3
390
F
347
B8E
  0
LAYER
  5
9BF
330
2
100
AcDbSymbolTableRecord
100
AcDbLayerTableRecord
  2
center
 70
     0
 62
     7
  6
ACAD_ISO08W100
370
    -3
390
F
347
B8E
  0
LAYER
  5
BAF
330
2
100
AcDbSymbolTableRecord
100
AcDbLayerTableRecord
  2
文字・寸法線
 70
     0
 62
     7
  6
Continuous
370
    -3
390
F
347
B8E
  0
ENDTAB
  0
TABLE
  2
STYLE
  5
3
330
0
100
AcDbSymbolTable
 70
     2
  0
STYLE
  5
11
330
3
100
AcDbSymbolTableRecord
100
AcDbTextStyleTableRecord
  2
Standard
 70
     0
 40
0.0
 41
1.0
 50
0.0
 71
     0
 42
3.0
  3
txt.shx
  4
bigfont.shx
  0
STYLE
  5
34
330
3
100
AcDbSymbolTableRecord
100
AcDbTextStyleTableRecord
  2

 70
     1
 40
0.0
 41
1.0
 50
0.0
 71
     0
 42
2.5
  3
ltypeshp.shx
  4

  0
ENDTAB
  0
TABLE
  2
VIEW
  5
6
330
0
100
AcDbSymbolTable
 70
     0
  0
ENDTAB
  0
TABLE
  2
UCS
  5
7
330
0
100
AcDbSymbolTable
 70
     0
  0
ENDTAB
  0
TABLE
  2
APPID
  5
9
330
0
100
AcDbSymbolTable
 70
     1
  0
APPID
  5
12
330
9
100
AcDbSymbolTableRecord
100
AcDbRegAppTableRecord
  2
ACAD
 70
     0
  0
ENDTAB
  0
TABLE
  2
DIMSTYLE
  5
A
330
0
100
AcDbSymbolTable
 70
     1
100
AcDbDimStyleTable
  0
DIMSTYLE
105
29
102
{ACAD_REACTORS
330
6C3
330
930
330
949
330
9F2
330
AD1
330
AE9
330
C2C
330
C32
102
}
330
A
100
AcDbSymbolTableRecord
100
AcDbDimStyleTableRecord
  2
ISO-25
 70
     0
 41
2.5
 42
0.625
 43
3.75
 44
1.25
 73
     0
 74
     0
 77
     1
 78
     8
140
2.5
141
2.5
143
0.03937007874016
147
0.625
171
     3
172
     1
178
     0
271
     2
272
     2
274
     3
283
     0
284
     8
340
11
  0
ENDTAB
  0
TABLE
  2
BLOCK_RECORD
  5
1
330
0
100
AcDbSymbolTable
 70
    12
  0
BLOCK_RECORD
  5
21
330
1
100
AcDbSymbolTableRecord
100
AcDbBlockTableRecord
  2
*Model_Space
340
24
 70
     0
280
     1
281
     0
  0
BLOCK_RECORD
  5
B9A
330
1
100
AcDbSymbolTableRecord
100
AcDbBlockTableRecord
  2
*Paper_Space
340
B9B
 70
     0
280
     1
281
     0
  0
BLOCK_RECORD
  5
6C4
330
1
100
AcDbSymbolTableRecord
100
AcDbBlockTableRecord
  2
*D0
340
0
 70
     0
280
     1
281
     0
  0
BLOCK_RECORD
  5
8AD
330
1
100
AcDbSymbolTableRecord
100
AcDbBlockTableRecord
  2
*D1
340
0
 70
     0
280
     1
281
     0
  0
BLOCK_RECORD
  5
931
330
1
100
AcDbSymbolTableRecord
100
AcDbBlockTableRecord
  2
*D2
340
0
 70
     0
280
     1
281
     0
  0
BLOCK_RECORD
  5
94A
330
1
100
AcDbSymbolTableRecord
100
AcDbBlockTableRecord
  2
*D3
340
0
 70
     0
280
     1
281
     0
  0
BLOCK_RECORD
  5
A1E
330
1
100
AcDbSymbolTableRecord
100
AcDbBlockTableRecord
  2
*D4
340
0
 70
     0
280
     1
281
     0
  0
BLOCK_RECORD
  5
AD2
330
1
100
AcDbSymbolTableRecord
100
AcDbBlockTableRecord
  2
*D5
340
0
 70
     0
280
     1
281
     0
  0
BLOCK_RECORD
  5
AEA
330
1
100
AcDbSymbolTableRecord
100
AcDbBlockTableRecord
  2
*D6
340
0
 70
     0
280
     1
281
     0
  0
BLOCK_RECORD
  5
B28
330
1
100
AcDbSymbolTableRecord
100
AcDbBlockTableRecord
  2
*D7
340
0
 70
     0
280
     1
281
     0
  0
BLOCK_RECORD
  5
C05
330
1
100
AcDbSymbolTableRecord
100
AcDbBlockTableRecord
  2
*D8
340
0
 70
     0
280
     1
281
     0
  0
BLOCK_RECORD
  5
C17
330
1
100
AcDbSymbolTableRecord
100
AcDbBlockTableRecord
  2
*D9
340
0
 70
     0
280
     1
281
     0
  0
BLOCK_RECORD
  5
C35
330
1
100
AcDbSymbolTableRecord
100
AcDbBlockTableRecord
  2
*D10
340
0
 70
     0
280
     1
281
     0
  0
BLOCK_RECORD
  5
C41
330
1
100
AcDbSymbolTableRecord
100
AcDbBlockTableRecord
  2
*D11
340
0
 70
     0
280
     1
281
     0
  0
ENDTAB
  0
ENDSEC
  0
SECTION
  2
BLOCKS
  0
BLOCK
  5
22
330
21
100
AcDbEntity
  8
0
100
AcDbBlockBegin
  2
*Model_Space
 70
     0
 10
0.0
 20
0.0
 30
0.0
  3
*Model_Space
  1
*Model_Space
  0
ENDBLK
  5
23
330
21
100
AcDbEntity
  8
0
100
AcDbBlockEnd
  0
BLOCK
  5
B9C
330
B9A
100
AcDbEntity
 67
     1
  8
0
100
AcDbBlockBegin
  2
*Paper_Space
 70
     0
 10
0.0
 20
0.0
 30
0.0
  3
*Paper_Space
  1
*Paper_Space
  0
ENDBLK
  5
B9D
330
B9A
100
AcDbEntity
 67
     1
  8
0
100
AcDbBlockEnd
  0
BLOCK
  5
6CF
330
6C4
100
AcDbEntity
  8
0
370
    30
100
AcDbBlockBegin
  2
*D0
 70
     1
 10
0.0
 20
0.0
 30
0.0
  3
*D0
  1
*D1
  0
LINE
  5
85A
330
6C4
100
AcDbEntity
  8
文字
 62
     0
370
    -2
100
AcDbLine
 10
106.0633025909753
 20
86.17778419700053
 30
0.0
 11
139.3179534981718
 21
86.17778419700053
 31
0.0
  0
LINE
  5
85B
330
6C4
100
AcDbEntity
  8
文字
 62
     0
370
    -2
100
AcDbLine
 10
106.0633025909753
 20
94.21331810293327
 30
0.0
 11
139.3179534981718
 21
94.21331810293327
 31
0.0
  0
LINE
  5
85C
330
6C4
100
AcDbEntity
  8
文字
 62
     0
370
    -2
100
AcDbLine
 10
138.0679534981718
 20
88.67778419700053
 30
0.0
 11
138.0679534981718
 21
91.71331810293327
 31
0.0
  0
SOLID
  5
85D
330
6C4
100
AcDbEntity
  8
文字
 62
     0
370
    30
100
AcDbTrace
 10
137.6512868315052
 20
88.67778419700053
 30
0.0
 11
138.4846201648385
 21
88.67778419700053
 31
0.0
 12
138.0679534981718
 22
86.17778419700053
 32
0.0
 13
138.0679534981718
 23
86.17778419700053
 33
0.0
  0
SOLID
  5
85E
330
6C4
100
AcDbEntity
  8
文字
 62
     0
370
    30
100
AcDbTrace
 10
137.6512868315052
 20
91.71331810293327
 30
0.0
 11
138.4846201648385
 21
91.71331810293327
 31
0.0
 12
138.0679534981718
 22
94.21331810293327
 32
0.0
 13
138.0679534981718
 23
94.21331810293327
 33
0.0
  0
MTEXT
  5
85F
330
6C4
100
AcDbEntity
  8
文字
 62
     0
100
AcDbMText
 10
136.1929534981718
 20
90.19555114996692
 30
0.0
 40
2.5
 41
0.0
 46
0.0
 71
     5
 72
     1
  1
8
 11
6.123031769111886E-17
 21
1.0
 31
0.0
 73
     1
 44
1.0
  0
POINT
  5
860
330
6C4
100
AcDbEntity
  8
Defpoints
 62
     0
370
    30
100
AcDbPoint
 10
105.4383025909753
 20
86.17778419700053
 30
0.0
  0
POINT
  5
861
330
6C4
100
AcDbEntity
  8
Defpoints
 62
     0
370
    30
100
AcDbPoint
 10
105.4383025909753
 20
94.21331810293327
 30
0.0
  0
POINT
  5
862
330
6C4
100
AcDbEntity
  8
Defpoints
 62
     0
370
    30
100
AcDbPoint
 10
138.0679534981718
 20
94.21331810293327
 30
0.0
  0
ENDBLK
  5
6D0
330
6C4
100
AcDbEntity
  8
0
370
    30
100
AcDbBlockEnd
  0
BLOCK
  5
8B7
330
8AD
100
AcDbEntity
  8
0
100
AcDbBlockBegin
  2
*D1
 70
     1
 10
0.0
 20
0.0
 30
0.0
  3
*D1
  1
*D2
  0
LINE
  5
8C4
330
8AD
100
AcDbEntity
  8
文字
 62
     0
370
    -2
100
AcDbLine
 10
201.6198287998888
 20
107.7229665591597
 30
0.0
 11
201.6198287998888
 21
69.90949830411887
 31
0.0
  0
LINE
  5
8C5
330
8AD
100
AcDbEntity
  8
文字
 62
     0
370
    -2
100
AcDbLine
 10
220.585785142768
 20
107.7229665591597
 30
0.0
 11
220.585785142768
 21
69.90949830411887
 31
0.0
  0
LINE
  5
8C6
330
8AD
100
AcDbEntity
  8
文字
 62
     0
370
    -2
100
AcDbLine
 10
204.1198287998888
 20
71.15949830411887
 30
0.0
 11
218.085785142768
 21
71.15949830411887
 31
0.0
  0
SOLID
  5
8C7
330
8AD
100
AcDbEntity
  8
文字
 62
     0
100
AcDbTrace
 10
204.1198287998888
 20
71.57616497078554
 30
0.0
 11
204.1198287998888
 21
70.7428316374522
 31
0.0
 12
201.6198287998888
 22
71.15949830411887
 32
0.0
 13
201.6198287998888
 23
71.15949830411887
 33
0.0
  0
SOLID
  5
8C8
330
8AD
100
AcDbEntity
  8
文字
 62
     0
100
AcDbTrace
 10
218.085785142768
 20
71.57616497078554
 30
0.0
 11
218.085785142768
 21
70.7428316374522
 31
0.0
 12
220.585785142768
 22
71.15949830411887
 32
0.0
 13
220.585785142768
 23
71.15949830411887
 33
0.0
  0
MTEXT
  5
8C9
330
8AD
100
AcDbEntity
  8
文字
 62
     0
100
AcDbMText
 10
211.1028069713284
 20
73.03449830411887
 30
0.0
 40
2.5
 41
0.0
 46
0.0
 71
     5
 72
     1
  1
19
 73
     1
 44
1.0
  0
POINT
  5
8CA
330
8AD
100
AcDbEntity
  8
Defpoints
 62
     0
100
AcDbPoint
 10
201.6198287998888
 20
108.3479665591597
 30
0.0
  0
POINT
  5
8CB
330
8AD
100
AcDbEntity
  8
Defpoints
 62
     0
100
AcDbPoint
 10
220.585785142768
 20
108.3479665591597
 30
0.0
  0
POINT
  5
8CC
330
8AD
100
AcDbEntity
  8
Defpoints
 62
     0
100
AcDbPoint
 10
220.585785142768
 20
71.15949830411887
 30
0.0
  0
ENDBLK
  5
8B8
330
8AD
100
AcDbEntity
  8
0
100
AcDbBlockEnd
  0
BLOCK
  5
93B
330
931
100
AcDbEntity
  8
0
370
    20
100
AcDbBlockBegin
  2
*D2
 70
     1
 10
0.0
 20
0.0
 30
0.0
  3
*D2
  1
*D3
  0
LINE
  5
97B
330
931
100
AcDbEntity
  8
文字
 62
     0
370
    -2
100
AcDbLine
 10
99.11330259097528
 20
144.2133181029333
 30
0.0
 11
139.3179534981718
 21
144.2133181029333
 31
0.0
  0
LINE
  5
97C
330
931
100
AcDbEntity
  8
文字
 62
     0
370
    -2
100
AcDbLine
 10
106.0633025909753
 20
94.21331810293327
 30
0.0
 11
139.3179534981718
 21
94.21331810293327
 31
0.0
  0
LINE
  5
97D
330
931
100
AcDbEntity
  8
文字
 62
     0
370
    -2
100
AcDbLine
 10
138.0679534981718
 20
141.7133181029333
 30
0.0
 11
138.0679534981718
 21
96.71331810293327
 31
0.0
  0
SOLID
  5
97E
330
931
100
AcDbEntity
  8
文字
 62
     0
100
AcDbTrace
 10
138.4846201648384
 20
141.7133181029333
 30
0.0
 11
137.6512868315051
 21
141.7133181029333
 31
0.0
 12
138.0679534981718
 22
144.2133181029333
 32
0.0
 13
138.0679534981718
 23
144.2133181029333
 33
0.0
  0
SOLID
  5
97F
330
931
100
AcDbEntity
  8
文字
 62
     0
100
AcDbTrace
 10
137.6512868315051
 20
96.71331810293327
 30
0.0
 11
138.4846201648384
 21
96.71331810293327
 31
0.0
 12
138.0679534981718
 22
94.21331810293327
 32
0.0
 13
138.0679534981718
 23
94.21331810293327
 33
0.0
  0
MTEXT
  5
980
330
931
100
AcDbEntity
  8
文字
 62
     0
100
AcDbMText
 10
136.1929534981718
 20
119.2133181029333
 30
0.0
 40
2.5
 41
0.0
 46
0.0
 71
     5
 72
     1
  1
50
 11
0.0
 21
1.0
 31
0.0
 73
     1
 44
1.0
  0
POINT
  5
981
330
931
100
AcDbEntity
  8
Defpoints
 62
     0
100
AcDbPoint
 10
98.48830259097528
 20
144.2133181029333
 30
0.0
  0
POINT
  5
982
330
931
100
AcDbEntity
  8
Defpoints
 62
     0
100
AcDbPoint
 10
105.4383025909753
 20
94.21331810293327
 30
0.0
  0
POINT
  5
983
330
931
100
AcDbEntity
  8
Defpoints
 62
     0
100
AcDbPoint
 10
138.0679534981718
 20
94.21331810293327
 30
0.0
  0
ENDBLK
  5
93C
330
931
100
AcDbEntity
  8
0
370
    20
100
AcDbBlockEnd
  0
BLOCK
  5
954
330
94A
100
AcDbEntity
  8
0
100
AcDbBlockBegin
  2
*D3
 70
     1
 10
0.0
 20
0.0
 30
0.0
  3
*D3
  1
*D4
  0
LINE
  5
961
330
94A
100
AcDbEntity
  8
文字
 62
     0
370
    -2
100
AcDbLine
 10
88.48830259097528
 20
142.6085387001629
 30
0.0
 11
88.48830259097528
 21
155.8058758598315
 31
0.0
  0
LINE
  5
962
330
94A
100
AcDbEntity
  8
文字
 62
     0
370
    -2
100
AcDbLine
 10
100.4883025909753
 20
142.6085387001629
 30
0.0
 11
100.4883025909753
 21
155.8058758598315
 31
0.0
  0
LINE
  5
963
330
94A
100
AcDbEntity
  8
文字
 62
     0
370
    -2
100
AcDbLine
 10
90.98830259097528
 20
154.5558758598315
 30
0.0
 11
97.9883025909753
 21
154.5558758598315
 31
0.0
  0
SOLID
  5
964
330
94A
100
AcDbEntity
  8
文字
 62
     0
100
AcDbTrace
 10
90.98830259097528
 20
154.9725425264981
 30
0.0
 11
90.98830259097528
 21
154.1392091931648
 31
0.0
 12
88.48830259097528
 22
154.5558758598315
 32
0.0
 13
88.48830259097528
 23
154.5558758598315
 33
0.0
  0
SOLID
  5
965
330
94A
100
AcDbEntity
  8
文字
 62
     0
100
AcDbTrace
 10
97.9883025909753
 20
154.1392091931648
 30
0.0
 11
97.9883025909753
 21
154.9725425264981
 31
0.0
 12
100.4883025909753
 22
154.5558758598315
 32
0.0
 13
100.4883025909753
 23
154.5558758598315
 33
0.0
  0
MTEXT
  5
966
330
94A
100
AcDbEntity
  8
文字
 62
     0
100
AcDbMText
 10
94.48830259097528
 20
156.4308758598315
 30
0.0
 40
2.5
 41
0.0
 46
0.0
 71
     5
 72
     1
  1
{\fArial|b0|i0|c0|p32;M}12
 73
     1
 44
1.0
  0
POINT
  5
967
330
94A
100
AcDbEntity
  8
Defpoints
 62
     0
100
AcDbPoint
 10
88.48830259097528
 20
141.9835387001629
 30
0.0
  0
POINT
  5
968
330
94A
100
AcDbEntity
  8
Defpoints
 62
     0
100
AcDbPoint
 10
100.4883025909753
 20
141.9835387001629
 30
0.0
  0
POINT
  5
969
330
94A
100
AcDbEntity
  8
Defpoints
 62
     0
100
AcDbPoint
 10
100.4883025909753
 20
154.5558758598315
 30
0.0
  0
ENDBLK
  5
955
330
94A
100
AcDbEntity
  8
0
100
AcDbBlockEnd
  0
BLOCK
  5
A28
330
A1E
100
AcDbEntity
  8
0
100
AcDbBlockBegin
  2
*D4
 70
     1
 10
0.0
 20
0.0
 30
0.0
  3
*D4
  1
*D5
  0
LINE
  5
B13
330
A1E
100
AcDbEntity
  8
文字
 62
     0
370
    -2
100
AcDbLine
 10
124.5185820024882
 20
71.46043641337464
 30
0.0
 11
124.5185820024882
 21
47.5150646672305
 31
0.0
  0
LINE
  5
B14
330
A1E
100
AcDbEntity
  8
文字
 62
     0
370
    -2
100
AcDbLine
 10
64.51858200248824
 20
71.46043641337464
 30
0.0
 11
64.51858200248824
 21
47.5150646672305
 31
0.0
  0
LINE
  5
B15
330
A1E
100
AcDbEntity
  8
文字
 62
     0
370
    -2
100
AcDbLine
 10
122.0185820024882
 20
48.7650646672305
 30
0.0
 11
67.01858200248824
 21
48.7650646672305
 31
0.0
  0
SOLID
  5
B16
330
A1E
100
AcDbEntity
  8
文字
 62
     0
100
AcDbTrace
 10
122.0185820024882
 20
49.18173133389717
 30
0.0
 11
122.0185820024882
 21
48.34839800056384
 31
0.0
 12
124.5185820024882
 22
48.7650646672305
 32
0.0
 13
124.5185820024882
 23
48.7650646672305
 33
0.0
  0
SOLID
  5
B17
330
A1E
100
AcDbEntity
  8
文字
 62
     0
100
AcDbTrace
 10
67.01858200248824
 20
49.18173133389717
 30
0.0
 11
67.01858200248824
 21
48.34839800056384
 31
0.0
 12
64.51858200248824
 22
48.7650646672305
 32
0.0
 13
64.51858200248824
 23
48.7650646672305
 33
0.0
  0
MTEXT
  5
B18
330
A1E
100
AcDbEntity
  8
文字
 62
     0
100
AcDbMText
 10
94.51858200248824
 20
50.6400646672305
 30
0.0
 40
2.5
 41
0.0
 46
0.0
 71
     5
 72
     1
  1
%%c60
 73
     1
 44
1.0
  0
POINT
  5
B19
330
A1E
100
AcDbEntity
  8
Defpoints
 62
     0
100
AcDbPoint
 10
124.5185820024882
 20
72.08543641337464
 30
0.0
  0
POINT
  5
B1A
330
A1E
100
AcDbEntity
  8
Defpoints
 62
     0
100
AcDbPoint
 10
64.51858200248824
 20
72.08543641337464
 30
0.0
  0
POINT
  5
B1B
330
A1E
100
AcDbEntity
  8
Defpoints
 62
     0
100
AcDbPoint
 10
64.51858200248824
 20
48.7650646672305
 30
0.0
  0
ENDBLK
  5
A29
330
A1E
100
AcDbEntity
  8
0
100
AcDbBlockEnd
  0
BLOCK
  5
ADC
330
AD2
100
AcDbEntity
  8
0
100
AcDbBlockBegin
  2
*D5
 70
     1
 10
0.0
 20
0.0
 30
0.0
  3
*D5
  1
*D7
  0
LINE
  5
B01
330
AD2
100
AcDbEntity
  8
文字
 62
     0
370
    -2
100
AcDbLine
 10
106.6883025909753
 20
86.17778419700053
 30
0.0
 11
139.3179534981718
 21
86.17778419700053
 31
0.0
  0
LINE
  5
B02
330
AD2
100
AcDbEntity
  8
文字
 62
     0
370
    -2
100
AcDbLine
 10
124.1435820024883
 20
68.33543641337464
 30
0.0
 11
139.3179534981718
 21
68.33543641337464
 31
0.0
  0
LINE
  5
B03
330
AD2
100
AcDbEntity
  8
文字
 62
     0
370
    -2
100
AcDbLine
 10
138.0679534981718
 20
83.67778419700053
 30
0.0
 11
138.0679534981718
 21
70.83543641337464
 31
0.0
  0
SOLID
  5
B04
330
AD2
100
AcDbEntity
  8
文字
 62
     0
100
AcDbTrace
 10
137.6512868315052
 20
83.67778419700053
 30
0.0
 11
138.4846201648385
 21
83.67778419700053
 31
0.0
 12
138.0679534981718
 22
86.17778419700053
 32
0.0
 13
138.0679534981718
 23
86.17778419700053
 33
0.0
  0
SOLID
  5
B05
330
AD2
100
AcDbEntity
  8
文字
 62
     0
100
AcDbTrace
 10
137.6512868315052
 20
70.83543641337464
 30
0.0
 11
138.4846201648385
 21
70.83543641337464
 31
0.0
 12
138.0679534981718
 22
68.33543641337464
 32
0.0
 13
138.0679534981718
 23
68.33543641337464
 33
0.0
  0
MTEXT
  5
B06
330
AD2
100
AcDbEntity
  8
文字
 62
     0
100
AcDbMText
 10
136.1929534981718
 20
77.2566103051876
 30
0.0
 40
2.5
 41
0.0
 46
0.0
 71
     5
 72
     1
  1
18
 11
6.123031769111886E-17
 21
1.0
 31
0.0
 73
     1
 44
1.0
  0
POINT
  5
B07
330
AD2
100
AcDbEntity
  8
Defpoints
 62
     0
100
AcDbPoint
 10
106.0633025909753
 20
86.17778419700053
 30
0.0
  0
POINT
  5
B08
330
AD2
100
AcDbEntity
  8
Defpoints
 62
     0
100
AcDbPoint
 10
123.5185820024883
 20
68.33543641337464
 30
0.0
  0
POINT
  5
B09
330
AD2
100
AcDbEntity
  8
Defpoints
 62
     0
100
AcDbPoint
 10
138.0679534981718
 20
68.33543641337464
 30
0.0
  0
ENDBLK
  5
ADD
330
AD2
100
AcDbEntity
  8
0
100
AcDbBlockEnd
  0
BLOCK
  5
AF4
330
AEA
100
AcDbEntity
  8
0
100
AcDbBlockBegin
  2
*D6
 70
     1
 10
0.0
 20
0.0
 30
0.0
  3
*D6
  1
*D8
  0
LINE
  5
AF7
330
AEA
100
AcDbEntity
  8
文字
 62
     0
370
    -2
100
AcDbLine
 10
63.89358200248824
 20
77.83543641337464
 30
0.0
 11
46.80684613056792
 21
77.83543641337464
 31
0.0
  0
LINE
  5
AF8
330
AEA
100
AcDbEntity
  8
文字
 62
     0
370
    -2
100
AcDbLine
 10
64.89358200248824
 20
68.33543641337464
 30
0.0
 11
46.80684613056792
 21
68.33543641337464
 31
0.0
  0
LINE
  5
AF9
330
AEA
100
AcDbEntity
  8
文字
 62
     0
370
    -2
100
AcDbLine
 10
48.05684613056792
 20
75.33543641337464
 30
0.0
 11
48.05684613056792
 21
70.83543641337464
 31
0.0
  0
SOLID
  5
AFA
330
AEA
100
AcDbEntity
  8
文字
 62
     0
100
AcDbTrace
 10
47.64017946390126
 20
75.33543641337464
 30
0.0
 11
48.47351279723458
 21
75.33543641337464
 31
0.0
 12
48.05684613056792
 22
77.83543641337464
 32
0.0
 13
48.05684613056792
 23
77.83543641337464
 33
0.0
  0
SOLID
  5
AFB
330
AEA
100
AcDbEntity
  8
文字
 62
     0
100
AcDbTrace
 10
47.64017946390126
 20
70.83543641337464
 30
0.0
 11
48.47351279723458
 21
70.83543641337464
 31
0.0
 12
48.05684613056792
 22
68.33543641337464
 32
0.0
 13
48.05684613056792
 23
68.33543641337464
 33
0.0
  0
MTEXT
  5
AFC
330
AEA
100
AcDbEntity
  8
文字
 62
     0
100
AcDbMText
 10
46.18184613056791
 20
73.08543641337465
 30
0.0
 40
2.5
 41
0.0
 46
0.0
 71
     5
 72
     1
  1
9.5
 11
6.123031769111886E-17
 21
1.0
 31
0.0
 73
     1
 44
1.0
  0
POINT
  5
AFD
330
AEA
100
AcDbEntity
  8
Defpoints
 62
     0
100
AcDbPoint
 10
64.51858200248824
 20
77.83543641337464
 30
0.0
  0
POINT
  5
AFE
330
AEA
100
AcDbEntity
  8
Defpoints
 62
     0
100
AcDbPoint
 10
65.51858200248824
 20
68.33543641337464
 30
0.0
  0
POINT
  5
AFF
330
AEA
100
AcDbEntity
  8
Defpoints
 62
     0
100
AcDbPoint
 10
48.05684613056792
 20
68.33543641337464
 30
0.0
  0
ENDBLK
  5
AF5
330
AEA
100
AcDbEntity
  8
0
100
AcDbBlockEnd
  0
BLOCK
  5
B32
330
B28
100
AcDbEntity
  8
0
100
AcDbBlockBegin
  2
*D7
 70
     1
 10
0.0
 20
0.0
 30
0.0
  3
*D7
  1
*D9
  0
LINE
  5
B3F
330
B28
100
AcDbEntity
  8
文字
 62
     0
370
    -2
100
AcDbLine
 10
189.8028069713284
 20
113.1979665591597
 30
0.0
 11
189.8028069713284
 21
60.26166039162109
 31
0.0
  0
LINE
  5
B40
330
B28
100
AcDbEntity
  8
文字
 62
     0
370
    -2
100
AcDbLine
 10
232.4028069713284
 20
113.1979665591597
 30
0.0
 11
232.4028069713284
 21
60.26166039162109
 31
0.0
  0
LINE
  5
B41
330
B28
100
AcDbEntity
  8
文字
 62
     0
370
    -2
100
AcDbLine
 10
192.3028069713284
 20
61.51166039162109
 30
0.0
 11
229.9028069713284
 21
61.51166039162109
 31
0.0
  0
SOLID
  5
B42
330
B28
100
AcDbEntity
  8
文字
 62
     0
100
AcDbTrace
 10
192.3028069713284
 20
61.92832705828776
 30
0.0
 11
192.3028069713284
 21
61.09499372495443
 31
0.0
 12
189.8028069713284
 22
61.51166039162109
 32
0.0
 13
189.8028069713284
 23
61.51166039162109
 33
0.0
  0
SOLID
  5
B43
330
B28
100
AcDbEntity
  8
文字
 62
     0
100
AcDbTrace
 10
229.9028069713284
 20
61.92832705828776
 30
0.0
 11
229.9028069713284
 21
61.09499372495443
 31
0.0
 12
232.4028069713284
 22
61.51166039162109
 32
0.0
 13
232.4028069713284
 23
61.51166039162109
 33
0.0
  0
MTEXT
  5
B44
330
B28
100
AcDbEntity
  8
文字
 62
     0
100
AcDbMText
 10
211.1028069713284
 20
63.38666039162109
 30
0.0
 40
2.5
 41
0.0
 46
0.0
 71
     5
 72
     1
  1
%%c42.6
 73
     1
 44
1.0
  0
POINT
  5
B45
330
B28
100
AcDbEntity
  8
Defpoints
 62
     0
100
AcDbPoint
 10
189.8028069713284
 20
113.8229665591597
 30
0.0
  0
POINT
  5
B46
330
B28
100
AcDbEntity
  8
Defpoints
 62
     0
100
AcDbPoint
 10
232.4028069713284
 20
113.8229665591597
 30
0.0
  0
POINT
  5
B47
330
B28
100
AcDbEntity
  8
Defpoints
 62
     0
100
AcDbPoint
 10
232.4028069713284
 20
61.51166039162109
 30
0.0
  0
ENDBLK
  5
B33
330
B28
100
AcDbEntity
  8
0
100
AcDbBlockEnd
  0
BLOCK
  5
C06
330
C05
100
AcDbEntity
  8
0
370
    20
100
AcDbBlockBegin
  2
*D8
 70
     1
 10
0.0
 20
0.0
 30
0.0
  3
*D8
  1
*D2
  0
LINE
  5
C07
330
C05
100
AcDbEntity
  8
文字
 62
     0
370
    -2
100
AcDbLine
 10
31.214970341336
 20
48.5512001737457
 30
0.0
 11
31.214970341336
 21
9.02404487037046
 31
0.0
  0
LINE
  5
C08
330
C05
100
AcDbEntity
  8
文字
 62
     0
370
    -2
100
AcDbLine
 10
50.18092668421519
 20
48.5512001737457
 30
0.0
 11
50.18092668421519
 21
9.02404487037046
 31
0.0
  0
LINE
  5
C09
330
C05
100
AcDbEntity
  8
文字
 62
     0
370
    -2
100
AcDbLine
 10
33.714970341336
 20
10.27404487037046
 30
0.0
 11
47.68092668421519
 21
10.27404487037046
 31
0.0
  0
SOLID
  5
C0A
330
C05
100
AcDbEntity
  8
文字
 62
     0
100
AcDbTrace
 10
33.714970341336
 20
10.69071153703713
 30
0.0
 11
33.714970341336
 21
9.857378203703794
 31
0.0
 12
31.214970341336
 22
10.27404487037046
 32
0.0
 13
31.214970341336
 23
10.27404487037046
 33
0.0
  0
SOLID
  5
C0B
330
C05
100
AcDbEntity
  8
文字
 62
     0
100
AcDbTrace
 10
47.68092668421519
 20
9.857378203703794
 30
0.0
 11
47.68092668421519
 21
10.69071153703713
 31
0.0
 12
50.18092668421519
 22
10.27404487037046
 32
0.0
 13
50.18092668421519
 23
10.27404487037046
 33
0.0
  0
MTEXT
  5
C0C
330
C05
100
AcDbEntity
  8
文字
 62
     0
100
AcDbMText
 10
40.6979485127756
 20
12.14904487037046
 30
0.0
 40
2.5
 41
0.0
 46
0.0
 71
     5
 72
     1
  1
19
 73
     1
 44
1.0
  0
POINT
  5
C0D
330
C05
100
AcDbEntity
  8
Defpoints
 62
     0
100
AcDbPoint
 10
31.214970341336
 20
49.1762001737457
 30
0.0
  0
POINT
  5
C0E
330
C05
100
AcDbEntity
  8
Defpoints
 62
     0
100
AcDbPoint
 10
50.18092668421519
 20
49.1762001737457
 30
0.0
  0
POINT
  5
C0F
330
C05
100
AcDbEntity
  8
Defpoints
 62
     0
100
AcDbPoint
 10
50.18092668421519
 20
10.27404487037046
 30
0.0
  0
ENDBLK
  5
C10
330
C05
100
AcDbEntity
  8
0
370
    20
100
AcDbBlockEnd
  0
BLOCK
  5
C18
330
C17
100
AcDbEntity
  8
0
100
AcDbBlockBegin
  2
*D9
 70
     1
 10
0.0
 20
0.0
 30
0.0
  3
*D9
  1
*D9
  0
LINE
  5
C19
330
C17
100
AcDbEntity
  8
文字
 62
     0
370
    -2
100
AcDbLine
 10
19.39871794612628
 20
54.02620017374569
 30
0.0
 11
19.39871794612628
 21
0.0
 31
0.0
  0
LINE
  5
C1A
330
C17
100
AcDbEntity
  8
文字
 62
     0
370
    -2
100
AcDbLine
 10
62.39744706537903
 20
53.9382625658067
 30
0.0
 11
62.39744706537903
 21
0.0
 31
0.0
  0
LINE
  5
C1B
330
C17
100
AcDbEntity
  8
文字
 62
     0
370
    -2
100
AcDbLine
 10
21.89871794612628
 20
1.25
 30
0.0
 11
59.89744706537903
 21
1.25
 31
0.0
  0
SOLID
  5
C1C
330
C17
100
AcDbEntity
  8
文字
 62
     0
100
AcDbTrace
 10
21.89871794612628
 20
1.666666666666667
 30
0.0
 11
21.89871794612628
 21
0.8333333333333333
 31
0.0
 12
19.39871794612628
 22
1.25
 32
0.0
 13
19.39871794612628
 23
1.25
 33
0.0
  0
SOLID
  5
C1D
330
C17
100
AcDbEntity
  8
文字
 62
     0
100
AcDbTrace
 10
59.89744706537903
 20
0.8333333333333333
 30
0.0
 11
59.89744706537903
 21
1.666666666666667
 31
0.0
 12
62.39744706537903
 22
1.25
 32
0.0
 13
62.39744706537903
 23
1.25
 33
0.0
  0
MTEXT
  5
C1E
330
C17
100
AcDbEntity
  8
文字
 62
     0
100
AcDbMText
 10
40.89808250575265
 20
3.125
 30
0.0
 40
2.5
 41
0.0
 46
0.0
 71
     5
 72
     1
  1
%%c43
 73
     1
 44
1.0
  0
POINT
  5
C1F
330
C17
100
AcDbEntity
  8
Defpoints
 62
     0
100
AcDbPoint
 10
19.39871794612628
 20
54.65120017374569
 30
0.0
  0
POINT
  5
C20
330
C17
100
AcDbEntity
  8
Defpoints
 62
     0
100
AcDbPoint
 10
62.39744706537903
 20
54.5632625658067
 30
0.0
  0
POINT
  5
C21
330
C17
100
AcDbEntity
  8
Defpoints
 62
     0
100
AcDbPoint
 10
62.39744706537903
 20
1.25
 30
0.0
  0
ENDBLK
  5
C22
330
C17
100
AcDbEntity
  8
0
100
AcDbBlockEnd
  0
BLOCK
  5
C36
330
C35
100
AcDbEntity
  8
0
100
AcDbBlockBegin
  2
*D10
 70
     1
 10
0.0
 20
0.0
 30
0.0
  3
*D10
  1
*D11
  0
LINE
  5
C38
330
C35
100
AcDbEntity
  8
文字
 62
     0
370
    -2
100
AcDbLine
 10
183.3918813405311
 20
97.05209121605492
 30
0.0
 11
183.3918813405311
 21
57.52493591267968
 31
0.0
  0
LINE
  5
C39
330
C35
100
AcDbEntity
  8
文字
 62
     0
370
    -2
100
AcDbLine
 10
202.3578376834103
 20
97.05209121605492
 30
0.0
 11
202.3578376834103
 21
57.52493591267968
 31
0.0
  0
LINE
  5
C3A
330
C35
100
AcDbEntity
  8
文字
 62
     0
370
    -2
100
AcDbLine
 10
185.8918813405311
 20
58.77493591267968
 30
0.0
 11
199.8578376834103
 21
58.77493591267968
 31
0.0
  0
SOLID
  5
C3B
330
C35
100
AcDbEntity
  8
文字
 62
     0
100
AcDbTrace
 10
185.8918813405311
 20
59.19160257934634
 30
0.0
 11
185.8918813405311
 21
58.35826924601302
 31
0.0
 12
183.3918813405311
 22
58.77493591267968
 32
0.0
 13
183.3918813405311
 23
58.77493591267968
 33
0.0
  0
SOLID
  5
C3C
330
C35
100
AcDbEntity
  8
文字
 62
     0
100
AcDbTrace
 10
199.8578376834103
 20
58.35826924601302
 30
0.0
 11
199.8578376834103
 21
59.19160257934634
 31
0.0
 12
202.3578376834103
 22
58.77493591267968
 32
0.0
 13
202.3578376834103
 23
58.77493591267968
 33
0.0
  0
MTEXT
  5
C3D
330
C35
100
AcDbEntity
  8
文字
 62
     0
100
AcDbMText
 10
192.8748595119707
 20
60.64993591267968
 30
0.0
 40
2.5
 41
0.0
 46
0.0
 71
     5
 72
     1
  1
19
 73
     1
 44
1.0
  0
POINT
  5
C3E
330
C35
100
AcDbEntity
  8
Defpoints
 62
     0
100
AcDbPoint
 10
183.3918813405311
 20
97.67709121605492
 30
0.0
  0
POINT
  5
C3F
330
C35
100
AcDbEntity
  8
Defpoints
 62
     0
100
AcDbPoint
 10
202.3578376834103
 20
97.67709121605492
 30
0.0
  0
POINT
  5
C40
330
C35
100
AcDbEntity
  8
Defpoints
 62
     0
100
AcDbPoint
 10
202.3578376834103
 20
58.77493591267968
 30
0.0
  0
ENDBLK
  5
C37
330
C35
100
AcDbEntity
  8
0
100
AcDbBlockEnd
  0
BLOCK
  5
C42
330
C41
100
AcDbEntity
  8
0
100
AcDbBlockBegin
  2
*D11
 70
     1
 10
0.0
 20
0.0
 30
0.0
  3
*D11
  1
*D12
  0
LINE
  5
C44
330
C41
100
AcDbEntity
  8
文字
 62
     0
370
    -2
100
AcDbLine
 10
171.5756289453214
 20
102.5270912160549
 30
0.0
 11
171.5756289453214
 21
48.50089104230922
 31
0.0
  0
LINE
  5
C45
330
C41
100
AcDbEntity
  8
文字
 62
     0
370
    -2
100
AcDbLine
 10
214.5743580645741
 20
102.4391536081159
 30
0.0
 11
214.5743580645741
 21
48.50089104230922
 31
0.0
  0
LINE
  5
C46
330
C41
100
AcDbEntity
  8
文字
 62
     0
370
    -2
100
AcDbLine
 10
174.0756289453214
 20
49.75089104230922
 30
0.0
 11
212.0743580645741
 21
49.75089104230922
 31
0.0
  0
SOLID
  5
C47
330
C41
100
AcDbEntity
  8
文字
 62
     0
100
AcDbTrace
 10
174.0756289453214
 20
50.16755770897588
 30
0.0
 11
174.0756289453214
 21
49.33422437564256
 31
0.0
 12
171.5756289453214
 22
49.75089104230922
 32
0.0
 13
171.5756289453214
 23
49.75089104230922
 33
0.0
  0
SOLID
  5
C48
330
C41
100
AcDbEntity
  8
文字
 62
     0
100
AcDbTrace
 10
212.0743580645741
 20
49.33422437564256
 30
0.0
 11
212.0743580645741
 21
50.16755770897588
 31
0.0
 12
214.5743580645741
 22
49.75089104230922
 32
0.0
 13
214.5743580645741
 23
49.75089104230922
 33
0.0
  0
MTEXT
  5
C49
330
C41
100
AcDbEntity
  8
文字
 62
     0
100
AcDbMText
 10
193.0749935049477
 20
51.62589104230922
 30
0.0
 40
2.5
 41
0.0
 46
0.0
 71
     5
 72
     1
  1
%%c43
 73
     1
 44
1.0
  0
POINT
  5
C4A
330
C41
100
AcDbEntity
  8
Defpoints
 62
     0
100
AcDbPoint
 10
171.5756289453214
 20
103.1520912160549
 30
0.0
  0
POINT
  5
C4B
330
C41
100
AcDbEntity
  8
Defpoints
 62
     0
100
AcDbPoint
 10
214.5743580645741
 20
103.0641536081159
 30
0.0
  0
POINT
  5
C4C
330
C41
100
AcDbEntity
  8
Defpoints
 62
     0
100
AcDbPoint
 10
214.5743580645741
 20
49.75089104230922
 30
0.0
  0
ENDBLK
  5
C43
330
C41
100
AcDbEntity
  8
0
100
AcDbBlockEnd
  0
ENDSEC
  0
SECTION
  2
ENTITIES
  0
LINE
  5
62F
330
21
100
AcDbEntity
  8
実線
100
AcDbLine
 10
90.52766159348829
 20
86.64946679583329
 30
0.0
 11
90.48830259097528
 21
86.64946679583329
 31
0.0
  0
LINE
  5
63B
330
21
100
AcDbEntity
  8
実線
100
AcDbLine
 10
98.4883025909753
 20
86.64946679583328
 30
0.0
 11
98.44894358846221
 21
86.64946679583328
 31
0.0
  0
LWPOLYLINE
  5
663
102
{ACAD_REACTORS
330
947
102
}
330
21
100
AcDbEntity
  8
実線
100
AcDbPolyline
 90
        4
 70
     0
 43
0.0
 10
105.4383025909753
 20
88.21331810293327
 10
105.4383025909753
 20
94.21331810293327
 10
83.53830259097529
 20
94.21331810293327
 10
83.53830259097529
 20
88.21331810293327
  0
LINE
  5
664
330
21
100
AcDbEntity
  8
実線
100
AcDbLine
 10
100.4383025909753
 20
94.21331810293327
 30
0.0
 11
100.4383025909753
 21
87.21331810293326
 31
0.0
  0
LINE
  5
665
330
21
100
AcDbEntity
  8
実線
100
AcDbLine
 10
88.53830259097529
 20
94.21331810293327
 30
0.0
 11
88.53830259097529
 21
87.21331810293327
 31
0.0
  0
ARC
  5
669
330
21
100
AcDbEntity
  8
実線
100
AcDbCircle
 10
86.03830259097529
 20
89.78324680269061
 30
0.0
 40
3.58532195511595
100
AcDbArc
 50
225.7902212344514
 51
314.2097787655486
  0
ARC
  5
66B
330
21
100
AcDbEntity
  8
実線
100
AcDbCircle
 10
102.9383025909753
 20
89.7133181029333
 30
0.0
 40
3.535533905932768
100
AcDbArc
 50
225.0000000000004
 51
314.9999999999998
  0
LINE
  5
66C
330
21
100
AcDbEntity
  8
実線
100
AcDbLine
 10
105.4383025909753
 20
87.21331810293327
 30
0.0
 11
105.4383025909753
 21
88.21331810293327
 31
0.0
  0
LINE
  5
66D
330
21
100
AcDbEntity
  8
実線
100
AcDbLine
 10
105.4383025909753
 20
88.21331810293327
 30
0.0
 11
105.4383025909753
 21
87.21331810293327
 31
0.0
  0
LINE
  5
66E
330
21
100
AcDbEntity
  8
実線
100
AcDbLine
 10
83.53830259097529
 20
88.21331810293327
 30
0.0
 11
83.53830259097529
 21
87.21331810293327
 31
0.0
  0
LINE
  5
688
330
21
100
AcDbEntity
  8
実線
100
AcDbLine
 10
87.02173384996664
 20
86.33543641337464
 30
0.0
 11
101.8943125089608
 21
86.33543641337464
 31
0.0
  0
ARC
  5
689
330
21
100
AcDbEntity
  8
実線
100
AcDbCircle
 10
94.48830259097531
 20
106.9374491038814
 30
0.0
 40
20.60203494178584
100
AcDbArc
 50
253.2134882526874
 51
286.7865117473125
  0
DIMENSION
  5
6C3
330
21
100
AcDbEntity
  8
文字
100
AcDbDimension
280
     0
  2
*D0
 10
138.0679534981718
 20
94.21331810293327
 30
0.0
 11
136.1929534981718
 21
90.19555114996692
 31
0.0
 70
    32
  1
8
 71
     5
 42
8.035533905932738
 73
     0
 74
     0
 75
     0
  3
ISO-25
100
AcDbAlignedDimension
 13
105.4383025909753
 23
86.17778419700053
 33
0.0
 14
105.4383025909753
 24
94.21331810293327
 34
0.0
 50
90.0
100
AcDbRotatedDimension
  0
LINE
  5
889
330
21
100
AcDbEntity
  8
中心線
100
AcDbLine
 10
94.48830259097527
 20
59.13337071554361
 30
0.0
 11
94.48830259097528
 21
165.759640894663
 31
0.0
  0
LWPOLYLINE
  5
92C
330
21
100
AcDbEntity
  8
実線
100
AcDbPolyline
 90
        6
 70
     1
 43
0.0
 10
88.53830259097529
 20
94.21331810293327
 10
100.4383025909753
 20
94.21331810293327
 10
100.4883025909753
 20
142.1186301899044
 10
98.48830259097524
 20
144.1186301899044
 10
90.48830259097524
 20
144.1186301899044
 10
88.48830259097524
 20
142.1186301899044
  0
LINE
  5
92D
102
{ACAD_REACTORS
330
960
102
}
330
21
100
AcDbEntity
  8
実線
370
    20
100
AcDbLine
 10
88.48830259097528
 20
141.9835387001629
 30
0.0
 11
100.4883025909753
 21
141.9835387001629
 31
0.0
  0
LINE
  5
92E
330
21
100
AcDbEntity
  8
実線
370
    20
100
AcDbLine
 10
90.48830259097524
 20
144.1186301899044
 30
0.0
 11
90.48830259097527
 21
94.21331810293327
 31
0.0
  0
LINE
  5
92F
330
21
100
AcDbEntity
  8
実線
370
    20
100
AcDbLine
 10
98.48830259097524
 20
144.1186301899044
 30
0.0
 11
98.48830259097527
 21
94.21331810293327
 31
0.0
  0
DIMENSION
  5
930
102
{ACAD_REACTORS
330
947
102
}
102
{ACAD_XDICTIONARY
360
93D
102
}
330
21
100
AcDbEntity
  8
文字
100
AcDbDimension
280
     0
  2
*D2
 10
138.0679534981718
 20
94.21331810293327
 30
0.0
 11
136.1929534981718
 21
119.2133181029333
 31
0.0
 70
    32
 71
     5
 42
50.00000000000003
 73
     0
 74
     0
 75
     0
  3
ISO-25
100
AcDbAlignedDimension
 13
98.48830259097528
 23
144.2133181029333
 33
0.0
 14
105.4383025909753
 24
94.21331810293327
 34
0.0
 50
90.0
100
AcDbRotatedDimension
  0
DIMENSION
  5
949
102
{ACAD_REACTORS
330
960
102
}
102
{ACAD_XDICTIONARY
360
956
102
}
330
21
100
AcDbEntity
  8
文字
100
AcDbDimension
280
     0
  2
*D3
 10
100.4883025909753
 20
154.5558758598315
 30
0.0
 11
94.48830259097528
 21
156.4308758598315
 31
0.0
 70
    32
  1
{\fArial|b0|i0|c0|p32;M}<>
 71
     5
 42
12.00000000000001
 73
     0
 74
     0
 75
     0
  3
ISO-25
100
AcDbAlignedDimension
 13
88.48830259097528
 23
141.9835387001629
 33
0.0
 14
100.4883025909753
 24
141.9835387001629
 34
0.0
100
AcDbRotatedDimension
  0
LINE
  5
9E9
330
21
100
AcDbEntity
  8
実線
100
AcDbLine
 10
115.5185820024882
 20
77.83543641337464
 30
0.0
 11
116.7225091347997
 21
77.83543641337464
 31
0.0
  0
ARC
  5
9EA
330
21
100
AcDbEntity
  8
実線
100
AcDbCircle
 10
116.7225091347997
 20
79.83543641337464
 30
0.0
 40
2.0
100
AcDbArc
 50
209.9999555474186
 51
270.0
  0
ARC
  5
9EB
330
21
100
AcDbEntity
  8
実線
100
AcDbCircle
 10
72.31465487017678
 20
79.83543641337464
 30
0.0
 40
2.0
100
AcDbArc
 50
270.0
 51
330.0000444525813
  0
ARC
  5
9EC
330
21
100
AcDbEntity
  8
実線
100
AcDbCircle
 10
102.0000706757955
 20
71.33544783568618
 30
0.0
 40
15.0
100
AcDbArc
 50
29.99995554741865
 51
89.92929192254013
  0
ARC
  5
9ED
330
21
100
AcDbEntity
  8
実線
100
AcDbCircle
 10
87.03709332918096
 20
71.33544783568617
 30
0.0
 40
15.0
100
AcDbArc
 50
90.07070807745987
 51
150.0000444525814
  0
LINE
  5
9EE
330
21
100
AcDbEntity
  8
実線
100
AcDbLine
 10
87.01858200248824
 20
86.33543641337464
 30
0.0
 11
102.0185820024883
 21
86.33543641337464
 31
0.0
  0
DIMENSION
  5
9F2
102
{ACAD_REACTORS
330
9F4
102
}
102
{ACAD_XDICTIONARY
360
9F3
102
}
330
21
100
AcDbEntity
  8
文字
100
AcDbDimension
280
     0
  2
*D4
 10
64.51858200248824
 20
48.7650646672305
 30
0.0
 11
94.51858200248824
 21
50.6400646672305
 31
0.0
 70
    32
  1
%%c60
 71
     5
 42
60.0
 73
     0
 74
     0
 75
     0
  3
ISO-25
100
AcDbAlignedDimension
 13
124.5185820024882
 23
72.08543641337464
 33
0.0
 14
64.51858200248824
 24
72.08543641337464
 34
0.0
100
AcDbRotatedDimension
  0
ARC
  5
9F5
330
21
100
AcDbEntity
  8
実線
100
AcDbCircle
 10
65.51858200248824
 20
69.33543641337464
 30
0.0
 40
1.0
100
AcDbArc
 50
180.0
 51
270.0
  0
ARC
  5
9F6
330
21
100
AcDbEntity
  8
実線
100
AcDbCircle
 10
123.5185820024883
 20
69.33543641337464
 30
0.0
 40
1.0
100
AcDbArc
 50
270.0
 51
0.0
  0
LINE
  5
9F7
330
21
100
AcDbEntity
  8
実線
100
AcDbLine
 10
115.5185820024882
 20
77.83543641337464
 30
0.0
 11
72.11718528030283
 21
77.83543641337464
 31
0.0
  0
LINE
  5
9F8
330
21
100
AcDbEntity
  8
実線
100
AcDbLine
 10
118.5185820024882
 20
77.83543641337464
 30
0.0
 11
116.7225091347997
 21
77.83543641337464
 31
0.0
  0
LINE
  5
9F9
330
21
100
AcDbEntity
  8
実線
100
AcDbLine
 10
116.9199787246736
 20
77.83543641337464
 30
0.0
 11
121.5185820024882
 21
77.83543641337464
 31
0.0
  0
ARC
  5
9FA
330
21
100
AcDbEntity
  8
実線
100
AcDbCircle
 10
67.51858200248824
 20
74.83543641337464
 30
0.0
 40
3.0
100
AcDbArc
 50
90.0
 51
180.0
  0
ARC
  5
9FB
330
21
100
AcDbEntity
  8
実線
100
AcDbCircle
 10
121.5185820024882
 20
74.83543641337464
 30
0.0
 40
3.0
100
AcDbArc
 50
0.0
 51
90.0
  0
LINE
  5
9FE
102
{ACAD_REACTORS
330
9F4
102
}
330
21
100
AcDbEntity
  8
実線
100
AcDbLine
 10
124.5185820024882
 20
74.83543641337464
 30
0.0
 11
124.5185820024883
 21
69.33543641337464
 31
0.0
  0
LINE
  5
9FF
102
{ACAD_REACTORS
330
9F4
330
B00
102
}
330
21
100
AcDbEntity
  8
実線
100
AcDbLine
 10
64.51858200248824
 20
74.83543641337464
 30
0.0
 11
64.51858200248824
 21
69.33543641337464
 31
0.0
  0
LINE
  5
A01
102
{ACAD_REACTORS
330
B00
102
}
330
21
100
AcDbEntity
  8
実線
100
AcDbLine
 10
67.51858200248824
 20
77.83543641337464
 30
0.0
 11
72.31465487017678
 21
77.83543641337464
 31
0.0
  0
LINE
  5
A04
102
{ACAD_REACTORS
330
AE8
330
B00
102
}
330
21
100
AcDbEntity
  8
実線
100
AcDbLine
 10
65.51858200248824
 20
68.33543641337464
 30
0.0
 11
123.5185820024883
 21
68.33543641337464
 31
0.0
  0
DIMENSION
  5
AD1
102
{ACAD_REACTORS
330
AE8
102
}
102
{ACAD_XDICTIONARY
360
ADE
102
}
330
21
100
AcDbEntity
  8
文字
100
AcDbDimension
280
     0
  2
*D5
 10
138.0679534981718
 20
68.33543641337464
 30
0.0
 11
136.1929534981718
 21
77.2566103051876
 31
0.0
 70
    32
  1
18
 71
     5
 42
17.8423477836259
 73
     0
 74
     0
 75
     0
  3
ISO-25
100
AcDbAlignedDimension
 13
106.0633025909753
 23
86.17778419700053
 33
0.0
 14
123.5185820024883
 24
68.33543641337464
 34
0.0
 50
90.0
100
AcDbRotatedDimension
  0
DIMENSION
  5
AE9
102
{ACAD_REACTORS
330
B00
102
}
102
{ACAD_XDICTIONARY
360
AF6
102
}
330
21
100
AcDbEntity
  8
文字
100
AcDbDimension
280
     0
  2
*D6
 10
48.05684613056792
 20
68.33543641337464
 30
0.0
 11
46.18184613056791
 21
73.08543641337465
 31
0.0
 70
    32
 71
     5
 42
9.5
 73
     0
 74
     0
 75
     0
  3
ISO-25
100
AcDbAlignedDimension
 13
64.51858200248824
 23
77.83543641337464
 33
0.0
 14
65.51858200248824
 24
68.33543641337464
 34
0.0
 50
90.0
100
AcDbRotatedDimension
  0
MTEXT
  5
BD3
330
21
100
AcDbEntity
  8
文字・寸法線
 62
     0
100
AcDbMText
 10
106.6327619810226
 20
201.7172582092608
 30
0.0
 40
6.0
 41
0.0
 46
6.0
 71
     9
 72
     1
  1
{\fＭＳ ゴシック|b0|i0|c0|p0;S-V M12X50}
 73
     1
 44
1.0
1001
ACAD
1000
ACAD_MTEXT_DEFINED_HEIGHT_BEGIN
1070
    46
1040
6.0
1000
ACAD_MTEXT_DEFINED_HEIGHT_END
  0
CIRCLE
  5
C26
330
21
100
AcDbEntity
  8
実線
370
    50
100
AcDbCircle
 10
192.8748595119707
 20
103.1520912160549
 30
0.0
 40
30.0
  0
LINE
  5
C27
330
21
100
AcDbEntity
  8
中心線
100
AcDbLine
 10
192.8748595119707
 20
103.1520912160549
 30
0.0
 11
192.8748595119707
 21
143.2641161920226
 31
0.0
  0
LINE
  5
C28
330
21
100
AcDbEntity
  8
中心線
100
AcDbLine
 10
192.8748595119707
 20
103.1520912160549
 30
0.0
 11
192.8748595119707
 21
65.5541540538588
 31
0.0
  0
LWPOLYLINE
  5
C29
102
{ACAD_REACTORS
330
C2E
102
}
330
21
100
AcDbEntity
  8
実線
370
    50
100
AcDbPolyline
 90
        6
 70
     1
 43
0.0
 10
183.3918813405311
 20
97.67709121605492
 10
192.8748595119707
 20
92.20209121605492
 10
202.3578376834103
 20
97.67709121605492
 10
202.3578376834103
 20
108.6270912160549
 10
192.8748595119707
 20
114.1020912160549
 10
183.3918813405311
 20
108.627091216055
  0
CIRCLE
  5
C2A
330
21
100
AcDbEntity
  8
実線
370
    50
100
AcDbCircle
 10
192.8748595119707
 20
103.1520912160549
 30
0.0
 40
6.0
  0
CIRCLE
  5
C2B
330
21
100
AcDbEntity
  8
実線
370
    30
100
AcDbCircle
 10
192.8748595119707
 20
103.1520912160549
 30
0.0
 40
5.15
  0
DIMENSION
  5
C2C
102
{ACAD_REACTORS
330
C2E
102
}
102
{ACAD_XDICTIONARY
360
C2D
102
}
330
21
100
AcDbEntity
  8
文字
100
AcDbDimension
280
     0
  2
*D10
 10
202.3578376834103
 20
58.77493591267968
 30
0.0
 11
192.8748595119707
 21
60.64993591267968
 31
0.0
 70
    32
  1
19
 71
     5
 42
18.9659563428792
 73
     0
 74
     0
 75
     0
  3
ISO-25
100
AcDbAlignedDimension
 13
183.3918813405311
 23
97.67709121605492
 33
0.0
 14
202.3578376834103
 24
97.67709121605492
 34
0.0
100
AcDbRotatedDimension
  0
LINE
  5
C2F
102
{ACAD_REACTORS
330
C34
102
}
330
21
100
AcDbEntity
  8
中心線
100
AcDbLine
 10
192.8748595119707
 20
103.1520912160549
 30
0.0
 11
152.1769109991951
 21
103.1520912160549
 31
0.0
  0
LINE
  5
C30
330
21
100
AcDbEntity
  8
中心線
100
AcDbLine
 10
192.8748595119707
 20
103.1520912160549
 30
0.0
 11
232.0457382620901
 21
103.1520912160549
 31
0.0
  0
CIRCLE
  5
C31
102
{ACAD_REACTORS
330
C34
102
}
330
21
100
AcDbEntity
  8
実線
100
AcDbCircle
 10
192.8748595119707
 20
103.1520912160549
 30
0.0
 40
21.29923056664931
  0
DIMENSION
  5
C32
102
{ACAD_REACTORS
330
C34
102
}
102
{ACAD_XDICTIONARY
360
C33
102
}
330
21
100
AcDbEntity
  8
文字
100
AcDbDimension
280
     0
  2
*D11
 10
214.5743580645741
 20
49.75089104230922
 30
0.0
 11
193.0749935049477
 21
51.62589104230922
 31
0.0
 70
    32
  1
%%c<>
 71
     5
 42
42.99872911925274
 73
     0
 74
     0
 75
     0
  3
ISO-25
100
AcDbAlignedDimension
 13
171.5756289453214
 23
103.1520912160549
 33
0.0
 14
214.5743580645741
 24
103.0641536081159
 34
0.0
100
AcDbRotatedDimension
  0
VIEWPORT
  5
B9E
330
B9A
100
AcDbEntity
 67
     1
  8
0
100
AcDbViewport
 10
203.7291666666666
 20
142.1694444444444
 30
0.0
 40
488.9499999999999
 41
341.2066666666665
 68
     1
 69
     1
 12
203.7291666666666
 22
142.1694444444444
 13
0.0
 23
0.0
 14
0.5
 24
0.5
 15
0.0
 25
0.0
 16
0.0
 26
0.0
 36
1.0
 17
0.0
 27
0.0
 37
0.0
 42
50.0
 43
0.0
 44
0.0
 45
341.2066666666665
 50
0.0
 51
0.0
 72
   100
 90
   557152
  1

281
     0
 71
     1
 74
     0
110
0.0
120
0.0
130
0.0
111
1.0
121
0.0
131
0.0
112
0.0
122
1.0
132
0.0
 79
     0
146
0.0
170
     0
 61
     5
348
B56
292
     1
282
     1
141
0.0
142
0.0
 63
   256
361
BA0
  0
VIEWPORT
  5
B9F
330
B9A
100
AcDbEntity
 67
     1
  8
0
100
AcDbViewport
 10
203.7291666666666
 20
142.1694444444444
 30
0.0
 40
325.9666666666666
 41
227.471111111111
 68
     2
 69
     2
 12
148.5
 22
105.0
 13
0.0
 23
0.0
 14
0.5
 24
0.5
 15
0.0
 25
0.0
 16
0.0
 26
0.0
 36
1.0
 17
0.0
 27
0.0
 37
0.0
 42
50.0
 43
0.0
 44
0.0
 45
214.2
 50
0.0
 51
0.0
 72
   100
 90
   557152
  1

281
     0
 71
     1
 74
     0
110
0.0
120
0.0
130
0.0
111
1.0
121
0.0
131
0.0
112
0.0
122
1.0
132
0.0
 79
     0
146
0.0
170
     0
 61
     5
348
B56
292
     1
282
     1
141
0.0
142
0.0
 63
   256
  0
ENDSEC
  0
SECTION
  2
OBJECTS
  0
DICTIONARY
  5
C
330
0
100
AcDbDictionary
281
     1
  3
AcadDim
350
6E9
  3
ACAD_COLOR
350
1C
  3
ACAD_DETAILVIEWSTYLE
350
BAA
  3
ACAD_GROUP
350
D
  3
ACAD_IMAGE_VARS
350
B93
  3
ACAD_LAYOUT
350
1A
  3
ACAD_MATERIAL
350
1B
  3
ACAD_MLEADERSTYLE
350
BA7
  3
ACAD_MLINESTYLE
350
17
  3
ACAD_PLOTSETTINGS
350
19
  3
ACAD_PLOTSTYLENAME
350
E
  3
ACAD_SCALELIST
350
B6A
  3
ACAD_SECTIONVIEWSTYLE
350
BAB
  3
ACAD_TABLESTYLE
350
B8F
  3
ACAD_VISUALSTYLE
350
B51
  3
AcDbVariableDictionary
350
BA1
  3
ACDB_RECOMPOSE_DATA
350
C53
  3
APPDATA
350
B91
  0
SUN
  5
B92
330
B50
100
AcDbSun
 90
        1
290
     0
 63
     7
421
 16777215
 40
1.0
291
     1
 91
  2455826
 92
 54000000
292
     0
 70
     2
 71
   256
280
     1
  0
DICTIONARY
  5
93D
330
930
100
AcDbDictionary
280
     1
281
     1
  3
ACAD_DIMASSOC
360
947
  0
DICTIONARY
  5
956
330
949
100
AcDbDictionary
280
     1
281
     1
  3
ACAD_DIMASSOC
360
960
  0
DICTIONARY
  5
9F3
330
9F2
100
AcDbDictionary
280
     1
281
     1
  3
ACAD_DIMASSOC
360
9F4
  0
DICTIONARY
  5
ADE
330
AD1
100
AcDbDictionary
280
     1
281
     1
  3
ACAD_DIMASSOC
360
AE8
  0
DICTIONARY
  5
AF6
330
AE9
100
AcDbDictionary
280
     1
281
     1
  3
ACAD_DIMASSOC
360
B00
  0
DICTIONARY
  5
C2D
330
C2C
100
AcDbDictionary
280
     1
281
     1
  3
ACAD_DIMASSOC
360
C2E
  0
DICTIONARY
  5
C33
330
C32
100
AcDbDictionary
280
     1
281
     1
  3
ACAD_DIMASSOC
360
C34
  0
SUN
  5
BA0
330
B9E
100
AcDbSun
 90
        1
290
     0
 63
     7
421
 16777215
 40
1.0
291
     1
 91
  2455826
 92
 54000000
292
     0
 70
     2
 71
   256
280
     1
  0
XRECORD
  5
6E9
102
{ACAD_REACTORS
330
C
102
}
330
C
100
AcDbXrecord
280
     1
 90
   990106
  3

 60
     0
 61
     0
 62
     1
 63
     3
 64
     1
 65
     0
 66
     0
 67
     3
 68
     1
 69
     0
 70
     0
 71
     0
 72
     0
 40
0.0
170
     2
340
0
  0
DICTIONARY
  5
1C
102
{ACAD_REACTORS
330
C
102
}
330
C
100
AcDbDictionary
281
     1
  0
DICTIONARY
  5
BAA
102
{ACAD_REACTORS
330
C
102
}
330
C
100
AcDbDictionary
281
     1
  0
DICTIONARY
  5
D
102
{ACAD_REACTORS
330
C
102
}
330
C
100
AcDbDictionary
281
     1
  0
RASTERVARIABLES
  5
B93
102
{ACAD_REACTORS
330
C
102
}
330
C
100
AcDbRasterVariables
 90
        0
 70
     1
 71
     1
 72
     1
  0
DICTIONARY
  5
1A
102
{ACAD_REACTORS
330
C
102
}
330
C
100
AcDbDictionary
281
     1
  3
Model
350
24
  3
Sheet1
350
B9B
  0
DICTIONARY
  5
1B
102
{ACAD_REACTORS
330
C
102
}
330
C
100
AcDbDictionary
281
     1
  3
ByBlock
350
B8D
  3
ByLayer
350
B8C
  3
Global
350
B8E
  0
DICTIONARY
  5
BA7
102
{ACAD_REACTORS
330
C
102
}
330
C
100
AcDbDictionary
281
     1
  3
Standard
350
C50
  0
DICTIONARY
  5
17
102
{ACAD_REACTORS
330
C
102
}
330
C
100
AcDbDictionary
281
     1
  3
Standard
350
18
  0
DICTIONARY
  5
19
102
{ACAD_REACTORS
330
C
102
}
330
C
100
AcDbDictionary
281
     1
  0
ACDBDICTIONARYWDFLT
  5
E
102
{ACAD_REACTORS
330
C
102
}
330
C
100
AcDbDictionary
281
     1
  3
Normal
350
F
100
AcDbDictionaryWithDefault
340
F
  0
DICTIONARY
  5
B6A
102
{ACAD_REACTORS
330
C
102
}
330
C
100
AcDbDictionary
281
     1
  3
A0
350
B6B
  3
A1
350
B6C
  3
A2
350
B6D
  3
A3
350
B6E
  3
A4
350
B6F
  3
A5
350
B70
  3
A6
350
B71
  3
A7
350
B72
  3
A8
350
B73
  3
A9
350
B74
  3
B0
350
B75
  3
B1
350
B76
  3
B2
350
B77
  3
B3
350
B78
  3
B4
350
B79
  3
B5
350
B7A
  3
B6
350
B7B
  3
B7
350
B7C
  3
B8
350
B7D
  3
B9
350
B7E
  3
C0
350
B7F
  3
C1
350
B80
  3
C2
350
B81
  3
C3
350
B82
  3
C4
350
B83
  3
C5
350
B84
  3
C6
350
B85
  3
C7
350
B86
  3
C8
350
B87
  3
C9
350
B88
  3
D0
350
B89
  3
D1
350
B8A
  3
D2
350
B8B
  0
DICTIONARY
  5
BAB
102
{ACAD_REACTORS
330
C
102
}
330
C
100
AcDbDictionary
281
     1
  0
DICTIONARY
  5
B8F
102
{ACAD_REACTORS
330
C
102
}
330
C
100
AcDbDictionary
281
     1
  3
Standard
350
B90
  0
DICTIONARY
  5
B51
102
{ACAD_REACTORS
330
C
102
}
330
C
100
AcDbDictionary
281
     1
  3
2dWireframe
350
B56
  3
Basic
350
B59
  3
Brighten
350
B5D
  3
ColorChange
350
B61
  3
Conceptual
350
B5B
  3
Dim
350
B5C
  3
EdgeColorOff
350
B64
  3
Facepattern
350
B60
  3
Flat
350
B52
  3
FlatWithEdges
350
B53
  3
Gouraud
350
B54
  3
GouraudWithEdges
350
B55
  3
Hidden
350
B58
  3
JitterOff
350
B62
  3
Linepattern
350
B5F
  3
OverhangOff
350
B63
  3
Realistic
350
B5A
  3
Shaded
350
B69
  3
Shaded with edges
350
B68
  3
Shades of Gray
350
B65
  3
Sketchy
350
B66
  3
Thicken
350
B5E
  3
Wireframe
350
B57
  3
X-Ray
350
B67
  0
DICTIONARY
  5
BA1
102
{ACAD_REACTORS
330
C
102
}
330
C
100
AcDbDictionary
281
     1
  3
CANNOSCALE
350
BA2
  3
CMLEADERSTYLE
350
C54
  3
CTABLESTYLE
350
BA6
  3
MSLTSCALE
350
BA8
  3
XCLIPFRAME
350
BA9
  0
XRECORD
  5
C53
102
{ACAD_REACTORS
330
C
102
}
330
C
100
AcDbXrecord
280
     1
 90
        1
330
B90
  0
DICTIONARY
  5
B91
102
{ACAD_REACTORS
330
C
102
}
330
C
100
AcDbDictionary
281
     1
  0
DIMASSOC
  5
947
102
{ACAD_REACTORS
330
93D
102
}
330
93D
100
AcDbDimAssoc
330
930
 90
        2
 70
     0
 71
     0
  1
AcDbOsnapPointRef
 72
     1
331
663
 73
     2
 91
        1
 40
1.0
 10
0.0
 20
0.0
 30
2.000000000000000E+50
 75
     0
  0
DIMASSOC
  5
960
102
{ACAD_REACTORS
330
956
102
}
330
956
100
AcDbDimAssoc
330
949
 90
        3
 70
     0
 71
     0
  1
AcDbOsnapPointRef
 72
    13
331
92D
 73
     2
 91
        0
 40
0.0
 10
0.0
 20
0.0
 30
2.000000000000000E+50
 75
     0
  1
AcDbOsnapPointRef
 72
     1
331
92D
 73
     2
 91
        0
 40
1.0
 10
0.0
 20
0.0
 30
2.000000000000000E+50
 75
     0
  0
DIMASSOC
  5
9F4
102
{ACAD_REACTORS
330
9F3
102
}
330
9F3
100
AcDbDimAssoc
330
9F2
 90
        3
 70
     0
 71
     0
  1
AcDbOsnapPointRef
 72
     2
331
9FE
 73
     2
 91
        0
 40
0.5
 10
0.0
 20
0.0
 30
0.0
 75
     0
  1
AcDbOsnapPointRef
 72
     2
331
9FF
 73
     2
 91
        0
 40
0.5
 10
0.0
 20
0.0
 30
0.0
 75
     0
  0
DIMASSOC
  5
AE8
102
{ACAD_REACTORS
330
ADE
102
}
330
ADE
100
AcDbDimAssoc
330
AD1
 90
        2
 70
     0
 71
     0
  1
AcDbOsnapPointRef
 72
     1
331
A04
 73
     2
 91
        0
 40
1.0
 10
0.0
 20
0.0
 30
2.000000000000000E+50
 75
     0
  0
DIMASSOC
  5
B00
102
{ACAD_REACTORS
330
AF6
102
}
330
AF6
100
AcDbDimAssoc
330
AE9
 90
        3
 70
     0
 71
     0
  1
AcDbOsnapPointRef
 72
     6
331
A01
 73
     2
 91
        0
 40
-0.6255117640541287
 10
0.0
 20
0.0
 30
0.0
332
9FF
 74
     2
 92
        0
 75
     0
  1
AcDbOsnapPointRef
 72
    13
331
A04
 73
     2
 91
        0
 40
0.0
 10
0.0
 20
0.0
 30
2.000000000000000E+50
 75
     0
  0
DIMASSOC
  5
C2E
102
{ACAD_REACTORS
330
C2D
102
}
330
C2D
100
AcDbDimAssoc
330
C2C
 90
        3
 70
     0
 71
     0
  1
AcDbOsnapPointRef
 72
    13
331
C29
 73
     2
 91
        1
 40
0.0
 10
0.0
 20
0.0
 30
2.000000000000000E+50
 75
     0
  1
AcDbOsnapPointRef
 72
     1
331
C29
 73
     2
 91
        2
 40
1.0
 10
0.0
 20
0.0
 30
2.000000000000000E+50
 75
     0
  0
DIMASSOC
  5
C34
102
{ACAD_REACTORS
330
C33
102
}
330
C33
100
AcDbDimAssoc
330
C32
 90
        1
 70
     0
 71
     0
  1
AcDbOsnapPointRef
 72
     6
331
C2F
 73
     2
 91
        0
 40
0.5233679037486046
 10
0.0
 20
0.0
 30
0.0
332
C31
 74
     2
 92
        0
 75
     0
  0
LAYOUT
  5
24
102
{ACAD_REACTORS
330
1A
102
}
330
1A
100
AcDbPlotSettings
  1

  2
\\SF05\Brother HL-1440 series
  4
A4
  6

 40
6.72041654586792
 41
5.027085304260254
 42
6.889755249023438
 43
5.027069091796875
 44
209.9733276367188
 45
296.9259948730469
 46
-6.82
 47
-5.06
 48
0.0
 49
0.0
140
297.0000000000001
141
210.0
142
1.0
143
1.0
 70
 11956
 72
     1
 73
     1
 74
     4
  7

 75
    16
 76
     1
 77
     2
 78
   300
147
1.0
148
0.0
149
0.0
100
AcDbLayout
  1
Model
 70
     1
 71
     0
 10
0.0
 20
0.0
 11
12.0
 21
9.0
 12
0.0
 22
0.0
 32
0.0
 14
44.93184613056792
 24
47.5150646672305
 34
0.0
 15
232.0457382620901
 25
207.7172582092608
 35
0.0
146
0.0
 13
0.0
 23
0.0
 33
0.0
 16
1.0
 26
0.0
 36
0.0
 17
0.0
 27
1.0
 37
0.0
 76
     0
330
21
331
B50
  0
LAYOUT
  5
B9B
102
{ACAD_REACTORS
330
1A
102
}
330
1A
100
AcDbPlotSettings
  1

  2
none_device
  4
iso-a3
  6

 40
6.35
 41
6.35
 42
6.35
 43
6.35
 44
297.0388888888888
 45
420.1583333333333
 46
0.0
 47
0.0
 48
0.0
 49
0.0
140
0.0
141
0.0
142
1.0
143
1.0
 70
   688
 72
     1
 73
     1
 74
     5
  7

 75
    16
 76
     0
 77
     2
 78
   300
147
1.0
148
0.0
149
0.0
100
AcDbLayout
  1
Sheet1
 70
     1
 71
     1
 10
0.0
 20
0.0
 11
0.0
 21
0.0
 12
0.0
 22
0.0
 32
0.0
 14
0.0
 24
0.0
 34
0.0
 15
0.0
 25
0.0
 35
0.0
146
0.0
 13
0.0
 23
0.0
 33
0.0
 16
1.0
 26
0.0
 36
0.0
 17
0.0
 27
1.0
 37
0.0
 76
     0
330
B9A
331
B9E
  0
MATERIAL
  5
B8D
102
{ACAD_REACTORS
330
1B
102
}
330
1B
100
AcDbMaterial
  1
ByBlock
 72
     1
 94
      127
  0
MATERIAL
  5
B8C
102
{ACAD_REACTORS
330
1B
102
}
330
1B
100
AcDbMaterial
  1
ByLayer
 72
     1
 94
      127
  0
MATERIAL
  5
B8E
102
{ACAD_REACTORS
330
1B
102
}
330
1B
100
AcDbMaterial
  1
Global
 72
     1
 94
      127
  0
MLEADERSTYLE
  5
C50
102
{ACAD_REACTORS
330
BA7
102
}
330
BA7
100
AcDbMLeaderStyle
179
     2
170
     2
171
     1
172
     0
 90
        2
 40
0.0
 41
0.0
173
     1
 91
-1056964608
340
14
 92
       -2
290
     1
 42
2.0
291
     1
 43
8.0
  3
Standard
341
0
 44
4.0
300

342
11
174
     1
178
     1
175
     1
176
     0
 93
-1056964608
 45
4.0
292
     0
297
     0
 46
4.0
343
0
 94
-1056964608
 47
1.0
 49
1.0
140
1.0
293
     1
141
0.0
294
     1
177
     0
142
1.0
295
     0
296
     0
143
3.75
271
     0
272
     9
273
     9
  0
MLINESTYLE
  5
18
102
{ACAD_REACTORS
330
17
102
}
330
17
100
AcDbMlineStyle
  2
STANDARD
 70
     0
  3

 62
   256
 51
90.0
 52
90.0
 71
     2
 49
0.5
 62
   256
  6
BYLAYER
 49
-0.5
 62
   256
  6
BYLAYER
  0
ACDBPLACEHOLDER
  5
F
102
{ACAD_REACTORS
330
E
102
}
330
E
  0
SCALE
  5
B6B
102
{ACAD_REACTORS
330
B6A
102
}
330
B6A
100
AcDbScale
 70
     0
300
1:1
140
1.0
141
1.0
290
     1
  0
SCALE
  5
B6C
102
{ACAD_REACTORS
330
B6A
102
}
330
B6A
100
AcDbScale
 70
     0
300
1:2
140
1.0
141
2.0
290
     0
  0
SCALE
  5
B6D
102
{ACAD_REACTORS
330
B6A
102
}
330
B6A
100
AcDbScale
 70
     0
300
1:4
140
1.0
141
4.0
290
     0
  0
SCALE
  5
B6E
102
{ACAD_REACTORS
330
B6A
102
}
330
B6A
100
AcDbScale
 70
     0
300
1:5
140
1.0
141
5.0
290
     0
  0
SCALE
  5
B6F
102
{ACAD_REACTORS
330
B6A
102
}
330
B6A
100
AcDbScale
 70
     0
300
1:8
140
1.0
141
8.0
290
     0
  0
SCALE
  5
B70
102
{ACAD_REACTORS
330
B6A
102
}
330
B6A
100
AcDbScale
 70
     0
300
1:10
140
1.0
141
10.0
290
     0
  0
SCALE
  5
B71
102
{ACAD_REACTORS
330
B6A
102
}
330
B6A
100
AcDbScale
 70
     0
300
1:16
140
1.0
141
16.0
290
     0
  0
SCALE
  5
B72
102
{ACAD_REACTORS
330
B6A
102
}
330
B6A
100
AcDbScale
 70
     0
300
1:20
140
1.0
141
20.0
290
     0
  0
SCALE
  5
B73
102
{ACAD_REACTORS
330
B6A
102
}
330
B6A
100
AcDbScale
 70
     0
300
1:30
140
1.0
141
30.0
290
     0
  0
SCALE
  5
B74
102
{ACAD_REACTORS
330
B6A
102
}
330
B6A
100
AcDbScale
 70
     0
300
1:40
140
1.0
141
40.0
290
     0
  0
SCALE
  5
B75
102
{ACAD_REACTORS
330
B6A
102
}
330
B6A
100
AcDbScale
 70
     0
300
1:50
140
1.0
141
50.0
290
     0
  0
SCALE
  5
B76
102
{ACAD_REACTORS
330
B6A
102
}
330
B6A
100
AcDbScale
 70
     0
300
1:100
140
1.0
141
100.0
290
     0
  0
SCALE
  5
B77
102
{ACAD_REACTORS
330
B6A
102
}
330
B6A
100
AcDbScale
 70
     0
300
2:1
140
2.0
141
1.0
290
     0
  0
SCALE
  5
B78
102
{ACAD_REACTORS
330
B6A
102
}
330
B6A
100
AcDbScale
 70
     0
300
4:1
140
4.0
141
1.0
290
     0
  0
SCALE
  5
B79
102
{ACAD_REACTORS
330
B6A
102
}
330
B6A
100
AcDbScale
 70
     0
300
8:1
140
8.0
141
1.0
290
     0
  0
SCALE
  5
B7A
102
{ACAD_REACTORS
330
B6A
102
}
330
B6A
100
AcDbScale
 70
     0
300
10:1
140
10.0
141
1.0
290
     0
  0
SCALE
  5
B7B
102
{ACAD_REACTORS
330
B6A
102
}
330
B6A
100
AcDbScale
 70
     0
300
100:1
140
100.0
141
1.0
290
     0
  0
SCALE
  5
B7C
102
{ACAD_REACTORS
330
B6A
102
}
330
B6A
100
AcDbScale
 70
     0
300
1/128" = 1'-0"
140
0.0078125
141
12.0
290
     0
  0
SCALE
  5
B7D
102
{ACAD_REACTORS
330
B6A
102
}
330
B6A
100
AcDbScale
 70
     0
300
1/64" = 1'-0"
140
0.015625
141
12.0
290
     0
  0
SCALE
  5
B7E
102
{ACAD_REACTORS
330
B6A
102
}
330
B6A
100
AcDbScale
 70
     0
300
1/32" = 1'-0"
140
0.03125
141
12.0
290
     0
  0
SCALE
  5
B7F
102
{ACAD_REACTORS
330
B6A
102
}
330
B6A
100
AcDbScale
 70
     0
300
1/16" = 1'-0"
140
0.0625
141
12.0
290
     0
  0
SCALE
  5
B80
102
{ACAD_REACTORS
330
B6A
102
}
330
B6A
100
AcDbScale
 70
     0
300
3/32" = 1'-0"
140
0.09375
141
12.0
290
     0
  0
SCALE
  5
B81
102
{ACAD_REACTORS
330
B6A
102
}
330
B6A
100
AcDbScale
 70
     0
300
1/8" = 1'-0"
140
0.125
141
12.0
290
     0
  0
SCALE
  5
B82
102
{ACAD_REACTORS
330
B6A
102
}
330
B6A
100
AcDbScale
 70
     0
300
3/16" = 1'-0"
140
0.1875
141
12.0
290
     0
  0
SCALE
  5
B83
102
{ACAD_REACTORS
330
B6A
102
}
330
B6A
100
AcDbScale
 70
     0
300
1/4" = 1'-0"
140
0.25
141
12.0
290
     0
  0
SCALE
  5
B84
102
{ACAD_REACTORS
330
B6A
102
}
330
B6A
100
AcDbScale
 70
     0
300
3/8" = 1'-0"
140
0.375
141
12.0
290
     0
  0
SCALE
  5
B85
102
{ACAD_REACTORS
330
B6A
102
}
330
B6A
100
AcDbScale
 70
     0
300
1/2" = 1'-0"
140
0.5
141
12.0
290
     0
  0
SCALE
  5
B86
102
{ACAD_REACTORS
330
B6A
102
}
330
B6A
100
AcDbScale
 70
     0
300
3/4" = 1'-0"
140
0.75
141
12.0
290
     0
  0
SCALE
  5
B87
102
{ACAD_REACTORS
330
B6A
102
}
330
B6A
100
AcDbScale
 70
     0
300
1" = 1'-0"
140
1.0
141
12.0
290
     0
  0
SCALE
  5
B88
102
{ACAD_REACTORS
330
B6A
102
}
330
B6A
100
AcDbScale
 70
     0
300
1-1/2" = 1'-0"
140
1.5
141
12.0
290
     0
  0
SCALE
  5
B89
102
{ACAD_REACTORS
330
B6A
102
}
330
B6A
100
AcDbScale
 70
     0
300
3" = 1'-0"
140
3.0
141
12.0
290
     0
  0
SCALE
  5
B8A
102
{ACAD_REACTORS
330
B6A
102
}
330
B6A
100
AcDbScale
 70
     0
300
6" = 1'-0"
140
6.0
141
12.0
290
     0
  0
SCALE
  5
B8B
102
{ACAD_REACTORS
330
B6A
102
}
330
B6A
100
AcDbScale
 70
     0
300
1'-0" = 1'-0"
140
12.0
141
12.0
290
     0
  0
TABLESTYLE
  5
B90
102
{ACAD_REACTORS
330
B8F
102
}
102
{ACAD_XDICTIONARY
360
C51
102
}
330
B8F
100
AcDbTableStyle
  3
Standard
 70
     0
 71
     0
 40
0.06
 41
0.06
280
     0
281
     0
  7
Standard
140
4.5
170
     2
 62
     0
 63
   257
283
     0
 90
        4
 91
        0
  1

274
    -2
284
     1
 64
     0
275
    -2
285
     1
 65
     0
276
    -2
286
     1
 66
     0
277
    -2
287
     1
 67
     0
278
    -2
288
     1
 68
     0
279
    -2
289
     1
 69
     0
  7
Standard
140
6.0
170
     5
 62
     0
 63
   257
283
     0
 90
        4
 91
        0
  1

274
    -2
284
     1
 64
     0
275
    -2
285
     1
 65
     0
276
    -2
286
     1
 66
     0
277
    -2
287
     1
 67
     0
278
    -2
288
     1
 68
     0
279
    -2
289
     1
 69
     0
  7
Standard
140
4.5
170
     5
 62
     0
 63
   257
283
     0
 90
        4
 91
        0
  1

274
    -2
284
     1
 64
     0
275
    -2
285
     1
 65
     0
276
    -2
286
     1
 66
     0
277
    -2
287
     1
 67
     0
278
    -2
288
     1
 68
     0
279
    -2
289
     1
 69
     0
  0
VISUALSTYLE
  5
B56
102
{ACAD_REACTORS
330
B51
102
}
330
B51
100
AcDbVisualStyle
  2
2dWireframe
 70
     4
177
     2
291
     0
 71
     0
176
     1
 72
     2
176
     1
 73
     0
176
     1
 90
        0
176
     1
 40
0.6
176
     1
 41
30.0
176
     1
 62
     5
 63
     7
421
 16777215
176
     1
 74
     1
176
     1
 91
        4
176
     1
 64
     7
176
     1
 65
   257
176
     1
 75
     1
176
     1
175
     1
176
     1
 42
1.0
176
     1
 92
        0
176
     1
 66
   257
176
     1
 43
1.0
176
     1
 76
     1
176
     1
 77
     6
176
     1
 78
     2
176
     1
 67
     7
176
     1
 79
     5
176
     1
170
     0
176
     1
171
     0
176
     1
290
     0
176
     1
 93
        1
176
     1
 44
0.0
176
     1
173
     0
176
     1
  0
VISUALSTYLE
  5
B59
102
{ACAD_REACTORS
330
B51
102
}
330
B51
100
AcDbVisualStyle
  2
Basic
 70
     7
177
     2
291
     1
 71
     1
176
     1
 72
     0
176
     1
 73
     1
176
     1
 90
        0
176
     1
 40
0.6
176
     1
 41
30.0
176
     1
 62
     5
 63
     7
421
 16777215
176
     1
 74
     0
176
     1
 91
        4
176
     1
 64
     7
176
     1
 65
   257
176
     1
 75
     1
176
     1
175
     1
176
     1
 42
1.0
176
     1
 92
        8
176
     1
 66
     7
176
     1
 43
1.0
176
     1
 76
     1
176
     1
 77
     6
176
     1
 78
     2
176
     1
 67
     7
176
     1
 79
     5
176
     1
170
     0
176
     1
171
     0
176
     1
290
     0
176
     1
 93
        1
176
     1
 44
0.0
176
     1
173
     0
176
     1
  0
VISUALSTYLE
  5
B5D
102
{ACAD_REACTORS
330
B51
102
}
330
B51
100
AcDbVisualStyle
  2
Brighten
 70
    12
177
     2
291
     1
 71
     2
176
     1
 72
     2
176
     1
 73
     0
176
     1
 90
        0
176
     1
 40
0.6
176
     1
 41
30.0
176
     1
 62
     5
 63
     7
421
 16777215
176
     1
 74
     1
176
     1
 91
        4
176
     1
 64
     7
176
     1
 65
   257
176
     1
 75
     1
176
     1
175
     1
176
     1
 42
1.0
176
     1
 92
        8
176
     1
 66
     7
176
     1
 43
1.0
176
     1
 76
     1
176
     1
 77
     6
176
     1
 78
     2
176
     1
 67
     7
176
     1
 79
     5
176
     1
170
     0
176
     1
171
     0
176
     1
290
     0
176
     1
 93
        1
176
     1
 44
50.0
176
     1
173
     0
176
     1
  0
VISUALSTYLE
  5
B61
102
{ACAD_REACTORS
330
B51
102
}
330
B51
100
AcDbVisualStyle
  2
ColorChange
 70
    16
177
     2
291
     1
 71
     2
176
     1
 72
     2
176
     1
 73
     3
176
     1
 90
        0
176
     1
 40
0.6
176
     1
 41
30.0
176
     1
 62
     5
 63
     8
421
  8421504
176
     1
 74
     1
176
     1
 91
        4
176
     1
 64
     7
176
     1
 65
   257
176
     1
 75
     1
176
     1
175
     1
176
     1
 42
1.0
176
     1
 92
        8
176
     1
 66
     8
424
  8421504
176
     1
 43
1.0
176
     1
 76
     1
176
     1
 77
     6
176
     1
 78
     2
176
     1
 67
     7
176
     1
 79
     5
176
     1
170
     0
176
     1
171
     0
176
     1
290
     0
176
     1
 93
        1
176
     1
 44
0.0
176
     1
173
     0
176
     1
  0
VISUALSTYLE
  5
B5B
102
{ACAD_REACTORS
330
B51
102
}
330
B51
100
AcDbVisualStyle
  2
Conceptual
 70
     9
177
     2
291
     0
 71
     3
176
     1
 72
     2
176
     1
 73
     0
176
     1
 90
        0
176
     1
 40
0.6
176
     1
 41
30.0
176
     1
 62
     5
 63
     7
421
 16777215
176
     1
 74
     2
176
     1
 91
        2
176
     1
 64
     7
176
     1
 65
   257
176
     1
 75
     1
176
     1
175
     1
176
     1
 42
179.0
176
     1
 92
        8
176
     1
 66
     7
176
     1
 43
1.0
176
     1
 76
     1
176
     1
 77
     6
176
     1
 78
     2
176
     1
 67
     7
176
     1
 79
     3
176
     1
170
     0
176
     1
171
     0
176
     1
290
     0
176
     1
 93
        1
176
     1
 44
0.0
176
     1
173
     0
176
     1
  0
VISUALSTYLE
  5
B5C
102
{ACAD_REACTORS
330
B51
102
}
330
B51
100
AcDbVisualStyle
  2
Dim
 70
    11
177
     2
291
     1
 71
     2
176
     1
 72
     2
176
     1
 73
     0
176
     1
 90
        0
176
     1
 40
0.6
176
     1
 41
30.0
176
     1
 62
     5
 63
     7
421
 16777215
176
     1
 74
     1
176
     1
 91
        4
176
     1
 64
     7
176
     1
 65
   257
176
     1
 75
     1
176
     1
175
     1
176
     1
 42
1.0
176
     1
 92
        8
176
     1
 66
     7
176
     1
 43
1.0
176
     1
 76
     1
176
     1
 77
     6
176
     1
 78
     2
176
     1
 67
     7
176
     1
 79
     5
176
     1
170
     0
176
     1
171
     0
176
     1
290
     0
176
     1
 93
        1
176
     1
 44
-50.0
176
     1
173
     0
176
     1
  0
VISUALSTYLE
  5
B64
102
{ACAD_REACTORS
330
B51
102
}
330
B51
100
AcDbVisualStyle
  2
EdgeColorOff
 70
    22
177
     2
291
     1
 71
     2
176
     0
 72
     2
176
     0
 73
     0
176
     0
 90
        0
176
     0
 40
0.6
176
     0
 41
30.0
176
     0
 62
     5
 63
     7
421
 16777215
176
     0
 74
     1
176
     0
 91
        4
176
     0
 64
     7
176
     0
 65
   257
176
     0
 75
     1
176
     0
175
     1
176
     0
 42
1.0
176
     0
 92
        8
176
     2
 66
     7
176
     0
 43
1.0
176
     0
 76
     1
176
     0
 77
     6
176
     0
 78
     2
176
     0
 67
     7
176
     0
 79
     5
176
     0
170
     0
176
     0
171
     0
176
     0
290
     0
176
     0
 93
        1
176
     0
 44
0.0
176
     0
173
     0
176
     0
  0
VISUALSTYLE
  5
B60
102
{ACAD_REACTORS
330
B51
102
}
330
B51
100
AcDbVisualStyle
  2
Facepattern
 70
    15
177
     2
291
     1
 71
     2
176
     1
 72
     2
176
     1
 73
     0
176
     1
 90
        0
176
     1
 40
0.6
176
     1
 41
30.0
176
     1
 62
     5
 63
     7
421
 16777215
176
     1
 74
     1
176
     1
 91
        4
176
     1
 64
     7
176
     1
 65
   257
176
     1
 75
     1
176
     1
175
     1
176
     1
 42
1.0
176
     1
 92
        8
176
     1
 66
     7
176
     1
 43
1.0
176
     1
 76
     1
176
     1
 77
     6
176
     1
 78
     2
176
     1
 67
     7
176
     1
 79
     5
176
     1
170
     0
176
     1
171
     0
176
     1
290
     0
176
     1
 93
        1
176
     1
 44
0.0
176
     1
173
     0
176
     1
  0
VISUALSTYLE
  5
B52
102
{ACAD_REACTORS
330
B51
102
}
330
B51
100
AcDbVisualStyle
  2
Flat
 70
     0
177
     2
291
     1
 71
     2
176
     1
 72
     1
176
     1
 73
     1
176
     1
 90
        2
176
     1
 40
0.6
176
     1
 41
30.0
176
     1
 62
     5
 63
     7
421
 16777215
176
     1
 74
     0
176
     1
 91
        0
176
     1
 64
     7
176
     1
 65
   257
176
     1
 75
     1
176
     1
175
     1
176
     1
 42
1.0
176
     1
 92
        8
176
     1
 66
     7
176
     1
 43
1.0
176
     1
 76
     1
176
     1
 77
     6
176
     1
 78
     2
176
     1
 67
     7
176
     1
 79
     5
176
     1
170
     0
176
     1
171
     0
176
     1
290
     0
176
     1
 93
       13
176
     1
 44
0.0
176
     1
173
     0
176
     1
  0
VISUALSTYLE
  5
B53
102
{ACAD_REACTORS
330
B51
102
}
330
B51
100
AcDbVisualStyle
  2
FlatWithEdges
 70
     1
177
     2
291
     1
 71
     2
176
     1
 72
     1
176
     1
 73
     1
176
     1
 90
        2
176
     1
 40
0.6
176
     1
 41
30.0
176
     1
 62
     5
 63
     7
421
 16777215
176
     1
 74
     1
176
     1
 91
        0
176
     1
 64
     7
176
     1
 65
   257
176
     1
 75
     1
176
     1
175
     1
176
     1
 42
1.0
176
     1
 92
        0
176
     1
 66
   257
176
     1
 43
1.0
176
     1
 76
     1
176
     1
 77
     6
176
     1
 78
     2
176
     1
 67
     7
176
     1
 79
     5
176
     1
170
     0
176
     1
171
     0
176
     1
290
     0
176
     1
 93
       13
176
     1
 44
0.0
176
     1
173
     0
176
     1
  0
VISUALSTYLE
  5
B54
102
{ACAD_REACTORS
330
B51
102
}
330
B51
100
AcDbVisualStyle
  2
Gouraud
 70
     2
177
     2
291
     1
 71
     2
176
     1
 72
     2
176
     1
 73
     1
176
     1
 90
        2
176
     1
 40
0.6
176
     1
 41
30.0
176
     1
 62
     5
 63
     7
421
 16777215
176
     1
 74
     0
176
     1
 91
        0
176
     1
 64
     7
176
     1
 65
   257
176
     1
 75
     1
176
     1
175
     1
176
     1
 42
1.0
176
     1
 92
        0
176
     1
 66
     7
176
     1
 43
1.0
176
     1
 76
     1
176
     1
 77
     6
176
     1
 78
     2
176
     1
 67
     7
176
     1
 79
     5
176
     1
170
     0
176
     1
171
     0
176
     1
290
     0
176
     1
 93
       13
176
     1
 44
0.0
176
     1
173
     0
176
     1
  0
VISUALSTYLE
  5
B55
102
{ACAD_REACTORS
330
B51
102
}
330
B51
100
AcDbVisualStyle
  2
GouraudWithEdges
 70
     3
177
     2
291
     1
 71
     2
176
     1
 72
     2
176
     1
 73
     1
176
     1
 90
        2
176
     1
 40
0.6
176
     1
 41
30.0
176
     1
 62
     5
 63
     7
421
 16777215
176
     1
 74
     1
176
     1
 91
        0
176
     1
 64
     7
176
     1
 65
   257
176
     1
 75
     1
176
     1
175
     1
176
     1
 42
1.0
176
     1
 92
        0
176
     1
 66
   257
176
     1
 43
1.0
176
     1
 76
     1
176
     1
 77
     6
176
     1
 78
     2
176
     1
 67
     7
176
     1
 79
     5
176
     1
170
     0
176
     1
171
     0
176
     1
290
     0
176
     1
 93
       13
176
     1
 44
0.0
176
     1
173
     0
176
     1
  0
VISUALSTYLE
  5
B58
102
{ACAD_REACTORS
330
B51
102
}
330
B51
100
AcDbVisualStyle
  2
Hidden
 70
     6
177
     2
291
     0
 71
     1
176
     1
 72
     2
176
     1
 73
     2
176
     1
 90
        0
176
     1
 40
0.6
176
     1
 41
30.0
176
     1
 62
     5
 63
     7
421
 16777215
176
     1
 74
     2
176
     1
 91
        2
176
     1
 64
     7
176
     1
 65
   257
176
     1
 75
     2
176
     1
175
     1
176
     1
 42
40.0
176
     1
 92
        0
176
     1
 66
   257
176
     1
 43
1.0
176
     1
 76
     1
176
     1
 77
     6
176
     1
 78
     2
176
     1
 67
     7
176
     1
 79
     3
176
     1
170
     0
176
     1
171
     0
176
     1
290
     0
176
     1
 93
        1
176
     1
 44
0.0
176
     1
173
     0
176
     1
  0
VISUALSTYLE
  5
B62
102
{ACAD_REACTORS
330
B51
102
}
330
B51
100
AcDbVisualStyle
  2
JitterOff
 70
    20
177
     2
291
     1
 71
     2
176
     0
 72
     2
176
     0
 73
     0
176
     0
 90
        0
176
     0
 40
0.6
176
     0
 41
30.0
176
     0
 62
     5
 63
     7
421
 16777215
176
     0
 74
     1
176
     0
 91
        4
176
     0
 64
     7
176
     0
 65
   257
176
     0
 75
     1
176
     0
175
     1
176
     0
 42
1.0
176
     0
 92
       10
176
     2
 66
     7
176
     0
 43
1.0
176
     0
 76
     1
176
     0
 77
     6
176
     0
 78
     2
176
     0
 67
     7
176
     0
 79
     5
176
     0
170
     0
176
     0
171
     0
176
     0
290
     0
176
     0
 93
        1
176
     0
 44
0.0
176
     0
173
     0
176
     0
  0
VISUALSTYLE
  5
B5F
102
{ACAD_REACTORS
330
B51
102
}
330
B51
100
AcDbVisualStyle
  2
Linepattern
 70
    14
177
     2
291
     1
 71
     2
176
     1
 72
     2
176
     1
 73
     0
176
     1
 90
        0
176
     1
 40
0.6
176
     1
 41
30.0
176
     1
 62
     5
 63
     7
421
 16777215
176
     1
 74
     1
176
     1
 91
        4
176
     1
 64
     7
176
     1
 65
   257
176
     1
 75
     7
176
     1
175
     7
176
     1
 42
1.0
176
     1
 92
        8
176
     1
 66
     7
176
     1
 43
1.0
176
     1
 76
     1
176
     1
 77
     6
176
     1
 78
     2
176
     1
 67
     7
176
     1
 79
     5
176
     1
170
     0
176
     1
171
     0
176
     1
290
     0
176
     1
 93
        1
176
     1
 44
0.0
176
     1
173
     0
176
     1
  0
VISUALSTYLE
  5
B63
102
{ACAD_REACTORS
330
B51
102
}
330
B51
100
AcDbVisualStyle
  2
OverhangOff
 70
    21
177
     2
291
     1
 71
     2
176
     0
 72
     2
176
     0
 73
     0
176
     0
 90
        0
176
     0
 40
0.6
176
     0
 41
30.0
176
     0
 62
     5
 63
     7
421
 16777215
176
     0
 74
     1
176
     0
 91
        4
176
     0
 64
     7
176
     0
 65
   257
176
     0
 75
     1
176
     0
175
     1
176
     0
 42
1.0
176
     0
 92
        9
176
     2
 66
     7
176
     0
 43
1.0
176
     0
 76
     1
176
     0
 77
     6
176
     0
 78
     2
176
     0
 67
     7
176
     0
 79
     5
176
     0
170
     0
176
     0
171
     0
176
     0
290
     0
176
     0
 93
        1
176
     0
 44
0.0
176
     0
173
     0
176
     0
  0
VISUALSTYLE
  5
B5A
102
{ACAD_REACTORS
330
B51
102
}
330
B51
100
AcDbVisualStyle
  2
Realistic
 70
     8
177
     2
291
     0
 71
     2
176
     1
 72
     3
176
     1
 73
     0
176
     1
 90
        2
176
     1
 40
0.6
176
     1
 41
30.0
176
     1
 62
     5
 63
     7
421
 16777215
176
     1
 74
     0
176
     1
 91
        0
176
     1
 64
     7
176
     1
 65
   257
176
     1
 75
     1
176
     1
175
     1
176
     1
 42
1.0
176
     1
 92
        8
176
     1
 66
   257
176
     1
 43
1.0
176
     1
 76
     1
176
     1
 77
     6
176
     1
 78
     2
176
     1
 67
     7
176
     1
 79
     3
176
     1
170
     0
176
     1
171
     0
176
     1
290
     0
176
     1
 93
       13
176
     1
 44
0.0
176
     1
173
     0
176
     1
  0
VISUALSTYLE
  5
B69
102
{ACAD_REACTORS
330
B51
102
}
330
B51
100
AcDbVisualStyle
  2
Shaded
 70
    27
177
     2
291
     0
 71
     2
176
     1
 72
     2
176
     1
 73
     1
176
     1
 90
        2
176
     1
 40
0.6
176
     1
 41
30.0
176
     1
 62
     5
 63
     7
421
 16777215
176
     1
 74
     0
176
     1
 91
        4
176
     1
 64
     7
176
     1
 65
   257
176
     1
 75
     1
176
     1
175
     1
176
     1
 42
1.0
176
     1
 92
        8
176
     1
 66
   257
176
     1
 43
1.0
176
     1
 76
     1
176
     1
 77
     6
176
     1
 78
     2
176
     1
 67
     8
425
  7895160
176
     1
 79
     3
176
     1
170
     0
176
     1
171
     0
176
     1
290
     0
176
     1
 93
        5
176
     1
 44
0.0
176
     1
173
     0
176
     1
  0
VISUALSTYLE
  5
B68
102
{ACAD_REACTORS
330
B51
102
}
330
B51
100
AcDbVisualStyle
  2
Shaded with edges
 70
    26
177
     2
291
     0
 71
     2
176
     1
 72
     2
176
     1
 73
     1
176
     1
 90
        2
176
     1
 40
0.6
176
     1
 41
30.0
176
     1
 62
     5
 63
     7
421
 16777215
176
     1
 74
     1
176
     1
 91
       10
176
     1
 64
     7
176
     1
 65
   257
176
     1
 75
     2
176
     1
175
     1
176
     1
 42
1.0
176
     1
 92
        8
176
     1
 66
   257
176
     1
 43
1.0
176
     1
 76
     1
176
     1
 77
     6
176
     1
 78
     2
176
     1
 67
     7
176
     1
 79
     3
176
     1
170
     0
176
     1
171
     0
176
     1
290
     0
176
     1
 93
        5
176
     1
 44
0.0
176
     1
173
     0
176
     1
  0
VISUALSTYLE
  5
B65
102
{ACAD_REACTORS
330
B51
102
}
330
B51
100
AcDbVisualStyle
  2
Shades of Gray
 70
    23
177
     2
291
     0
 71
     2
176
     1
 72
     2
176
     1
 73
     3
176
     1
 90
        0
176
     1
 40
0.6
176
     1
 41
30.0
176
     1
 62
     5
 63
     7
421
 16777215
176
     1
 74
     2
176
     1
 91
        2
176
     1
 64
     7
176
     1
 65
     7
176
     1
 75
     1
176
     1
175
     1
176
     1
 42
40.0
176
     1
 92
        8
176
     1
 66
     7
176
     1
 43
1.0
176
     1
 76
     1
176
     1
 77
     6
176
     1
 78
     2
176
     1
 67
     7
176
     1
 79
     3
176
     1
170
     0
176
     1
171
     0
176
     1
290
     0
176
     1
 93
        1
176
     1
 44
0.0
176
     1
173
     0
176
     1
  0
VISUALSTYLE
  5
B66
102
{ACAD_REACTORS
330
B51
102
}
330
B51
100
AcDbVisualStyle
  2
Sketchy
 70
    24
177
     2
291
     0
 71
     1
176
     1
 72
     2
176
     1
 73
     2
176
     1
 90
        0
176
     1
 40
0.6
176
     1
 41
30.0
176
     1
 62
     5
 63
     7
421
 16777215
176
     1
 74
     2
176
     1
 91
        2
176
     1
 64
     7
176
     1
 65
     7
176
     1
 75
     1
176
     1
175
     1
176
     1
 42
40.0
176
     1
 92
       11
176
     1
 66
     7
176
     1
 43
1.0
176
     1
 76
     1
176
     1
 77
     6
176
     1
 78
     2
176
     1
 67
     7
176
     1
 79
     6
176
     1
170
     0
176
     1
171
     0
176
     1
290
     0
176
     1
 93
        1
176
     1
 44
0.0
176
     1
173
     0
176
     1
  0
VISUALSTYLE
  5
B5E
102
{ACAD_REACTORS
330
B51
102
}
330
B51
100
AcDbVisualStyle
  2
Thicken
 70
    13
177
     2
291
     1
 71
     2
176
     1
 72
     2
176
     1
 73
     0
176
     1
 90
        0
176
     1
 40
0.6
176
     1
 41
30.0
176
     1
 62
     5
 63
     7
421
 16777215
176
     1
 74
     1
176
     1
 91
        4
176
     1
 64
     7
176
     1
 65
   257
176
     1
 75
     1
176
     1
175
     1
176
     1
 42
1.0
176
     1
 92
       12
176
     1
 66
     7
176
     1
 43
1.0
176
     1
 76
     1
176
     1
 77
     6
176
     1
 78
     2
176
     1
 67
     7
176
     1
 79
     5
176
     1
170
     0
176
     1
171
     0
176
     1
290
     0
176
     1
 93
        1
176
     1
 44
0.0
176
     1
173
     0
176
     1
  0
VISUALSTYLE
  5
B57
102
{ACAD_REACTORS
330
B51
102
}
330
B51
100
AcDbVisualStyle
  2
Wireframe
 70
     5
177
     2
291
     0
 71
     0
176
     1
 72
     2
176
     1
 73
     0
176
     1
 90
        0
176
     1
 40
0.6
176
     1
 41
30.0
176
     1
 62
     5
 63
     7
421
 16777215
176
     1
 74
     1
176
     1
 91
        4
176
     1
 64
     7
176
     1
 65
   257
176
     1
 75
     1
176
     1
175
     1
176
     1
 42
1.0
176
     1
 92
        0
176
     1
 66
   257
176
     1
 43
1.0
176
     1
 76
     1
176
     1
 77
     6
176
     1
 78
     2
176
     1
 67
     7
176
     1
 79
     3
176
     1
170
     0
176
     1
171
     0
176
     1
290
     0
176
     1
 93
        1
176
     1
 44
0.0
176
     1
173
     0
176
     1
  0
VISUALSTYLE
  5
B67
102
{ACAD_REACTORS
330
B51
102
}
330
B51
100
AcDbVisualStyle
  2
X-Ray
 70
    25
177
     2
291
     0
 71
     2
176
     1
 72
     2
176
     1
 73
     1
176
     1
 90
        1
176
     1
 40
0.5
176
     1
 41
30.0
176
     1
 62
     5
 63
     7
421
 16777215
176
     1
 74
     1
176
     1
 91
        0
176
     1
 64
     7
176
     1
 65
   257
176
     1
 75
     1
176
     1
175
     1
176
     1
 42
1.0
176
     1
 92
        8
176
     1
 66
     7
176
     1
 43
1.0
176
     1
 76
     1
176
     1
 77
     6
176
     1
 78
     2
176
     1
 67
     7
176
     1
 79
     3
176
     1
170
     0
176
     1
171
     0
176
     1
290
     0
176
     1
 93
       13
176
     1
 44
0.0
176
     1
173
     0
176
     1
  0
DICTIONARYVAR
  5
BA2
102
{ACAD_REACTORS
330
BA1
102
}
330
BA1
100
DictionaryVariables
280
     0
  1
1:1
  0
DICTIONARYVAR
  5
C54
102
{ACAD_REACTORS
330
BA1
102
}
330
BA1
100
DictionaryVariables
280
     0
  1
Standard
  0
DICTIONARYVAR
  5
BA6
102
{ACAD_REACTORS
330
BA1
102
}
330
BA1
100
DictionaryVariables
280
     0
  1
Standard
  0
DICTIONARYVAR
  5
BA8
102
{ACAD_REACTORS
330
BA1
102
}
330
BA1
100
DictionaryVariables
280
     0
  1
0
  0
DICTIONARYVAR
  5
BA9
102
{ACAD_REACTORS
330
BA1
102
}
330
BA1
100
DictionaryVariables
280
     0
  1
0
  0
DICTIONARY
  5
C51
330
B90
100
AcDbDictionary
280
     1
281
     1
  3
ACAD_ROUNDTRIP_2008_TABLESTYLE_CELLSTYLEMAP
360
C52
  0
CELLSTYLEMAP
  5
C52
102
{ACAD_REACTORS
330
C51
102
}
330
C51
100
AcDbCellStyleMap
 90
        3
300
CELLSTYLE
  1
TABLEFORMAT_BEGIN
 90
        5
170
     1
 91
        0
 92
        0
 62
   257
 93
        1
300
CONTENTFORMAT
  1
CONTENTFORMAT_BEGIN
 90
        0
 91
        0
 92
        4
 93
        0
300

 40
0.0
140
1.0
 94
        5
 62
     0
340
11
144
6.0
309
CONTENTFORMAT_END
171
     1
301
MARGIN
  1
CELLMARGIN_BEGIN
 40
1.5
 40
1.5
 40
1.5
 40
1.5
 40
1.5
 40
1.5
309
CELLMARGIN_END
 94
        6
 95
        1
302
GRIDFORMAT
  1
GRIDFORMAT_BEGIN
 90
        0
 91
        1
 62
     0
 92
       -2
340
14
 93
        0
 40
0.045
309
GRIDFORMAT_END
 95
        2
302
GRIDFORMAT
  1
GRIDFORMAT_BEGIN
 90
        0
 91
        1
 62
     0
 92
       -2
340
14
 93
        0
 40
0.045
309
GRIDFORMAT_END
 95
        4
302
GRIDFORMAT
  1
GRIDFORMAT_BEGIN
 90
        0
 91
        1
 62
     0
 92
       -2
340
14
 93
        0
 40
0.045
309
GRIDFORMAT_END
 95
        8
302
GRIDFORMAT
  1
GRIDFORMAT_BEGIN
 90
        0
 91
        1
 62
     0
 92
       -2
340
14
 93
        0
 40
0.045
309
GRIDFORMAT_END
 95
       16
302
GRIDFORMAT
  1
GRIDFORMAT_BEGIN
 90
        0
 91
        1
 62
     0
 92
       -2
340
14
 93
        0
 40
0.045
309
GRIDFORMAT_END
 95
       32
302
GRIDFORMAT
  1
GRIDFORMAT_BEGIN
 90
        0
 91
        1
 62
     0
 92
       -2
340
14
 93
        0
 40
0.045
309
GRIDFORMAT_END
309
TABLEFORMAT_END
  1
CELLSTYLE_BEGIN
 90
        1
 91
        1
300
_TITLE
309
CELLSTYLE_END
300
CELLSTYLE
  1
TABLEFORMAT_BEGIN
 90
        5
170
     1
 91
        0
 92
        0
 62
   257
 93
        1
300
CONTENTFORMAT
  1
CONTENTFORMAT_BEGIN
 90
        0
 91
        0
 92
        4
 93
        0
300

 40
0.0
140
1.0
 94
        5
 62
     0
340
11
144
4.5
309
CONTENTFORMAT_END
171
     1
301
MARGIN
  1
CELLMARGIN_BEGIN
 40
1.5
 40
1.5
 40
1.5
 40
1.5
 40
1.5
 40
1.5
309
CELLMARGIN_END
 94
        6
 95
        1
302
GRIDFORMAT
  1
GRIDFORMAT_BEGIN
 90
        0
 91
        1
 62
     0
 92
       -2
340
14
 93
        0
 40
0.045
309
GRIDFORMAT_END
 95
        2
302
GRIDFORMAT
  1
GRIDFORMAT_BEGIN
 90
        0
 91
        1
 62
     0
 92
       -2
340
14
 93
        0
 40
0.045
309
GRIDFORMAT_END
 95
        4
302
GRIDFORMAT
  1
GRIDFORMAT_BEGIN
 90
        0
 91
        1
 62
     0
 92
       -2
340
14
 93
        0
 40
0.045
309
GRIDFORMAT_END
 95
        8
302
GRIDFORMAT
  1
GRIDFORMAT_BEGIN
 90
        0
 91
        1
 62
     0
 92
       -2
340
14
 93
        0
 40
0.045
309
GRIDFORMAT_END
 95
       16
302
GRIDFORMAT
  1
GRIDFORMAT_BEGIN
 90
        0
 91
        1
 62
     0
 92
       -2
340
14
 93
        0
 40
0.045
309
GRIDFORMAT_END
 95
       32
302
GRIDFORMAT
  1
GRIDFORMAT_BEGIN
 90
        0
 91
        1
 62
     0
 92
       -2
340
14
 93
        0
 40
0.045
309
GRIDFORMAT_END
309
TABLEFORMAT_END
  1
CELLSTYLE_BEGIN
 90
        2
 91
        1
300
_HEADER
309
CELLSTYLE_END
300
CELLSTYLE
  1
TABLEFORMAT_BEGIN
 90
        5
170
     1
 91
        0
 92
        0
 62
   257
 93
        1
300
CONTENTFORMAT
  1
CONTENTFORMAT_BEGIN
 90
        0
 91
        0
 92
        4
 93
        0
300

 40
0.0
140
1.0
 94
        2
 62
     0
340
11
144
4.5
309
CONTENTFORMAT_END
171
     1
301
MARGIN
  1
CELLMARGIN_BEGIN
 40
1.5
 40
1.5
 40
1.5
 40
1.5
 40
1.5
 40
1.5
309
CELLMARGIN_END
 94
        6
 95
        1
302
GRIDFORMAT
  1
GRIDFORMAT_BEGIN
 90
        0
 91
        1
 62
     0
 92
       -2
340
14
 93
        0
 40
0.045
309
GRIDFORMAT_END
 95
        2
302
GRIDFORMAT
  1
GRIDFORMAT_BEGIN
 90
        0
 91
        1
 62
     0
 92
       -2
340
14
 93
        0
 40
0.045
309
GRIDFORMAT_END
 95
        4
302
GRIDFORMAT
  1
GRIDFORMAT_BEGIN
 90
        0
 91
        1
 62
     0
 92
       -2
340
14
 93
        0
 40
0.045
309
GRIDFORMAT_END
 95
        8
302
GRIDFORMAT
  1
GRIDFORMAT_BEGIN
 90
        0
 91
        1
 62
     0
 92
       -2
340
14
 93
        0
 40
0.045
309
GRIDFORMAT_END
 95
       16
302
GRIDFORMAT
  1
GRIDFORMAT_BEGIN
 90
        0
 91
        1
 62
     0
 92
       -2
340
14
 93
        0
 40
0.045
309
GRIDFORMAT_END
 95
       32
302
GRIDFORMAT
  1
GRIDFORMAT_BEGIN
 90
        0
 91
        1
 62
     0
 92
       -2
340
14
 93
        0
 40
0.045
309
GRIDFORMAT_END
309
TABLEFORMAT_END
  1
CELLSTYLE_BEGIN
 90
        3
 91
        2
300
_DATA
309
CELLSTYLE_END
  0
ENDSEC
  0
EOF
