  0
SECTION
  2
HEADER
  9
$ACADVER
  1
AC1027
  9
$ACADMAINTVER
 70
     8
  9
$DWGCODEPAGE
  3
ANSI_932
  9
$REQUIREDVERSIONS
160
                 0
  9
$LASTSAVEDBY
  1
Yasu
  9
$INSBASE
 10
0.0
 20
0.0
 30
0.0
  9
$EXTMIN
 10
30.12156308551678
 20
30.32663845559475
 30
0.0
  9
$EXTMAX
 10
215.1299956925687
 20
218.7922811856832
 30
0.0
  9
$LIMMIN
 10
0.0
 20
0.0
  9
$LIMMAX
 10
420.0
 20
297.0
  9
$ORTHOMODE
 70
     0
  9
$REGENMODE
 70
     1
  9
$FILLMODE
 70
     1
  9
$QTEXTMODE
 70
     0
  9
$MIRRTEXT
 70
     0
  9
$LTSCALE
 40
0.2
  9
$ATTMODE
 70
     1
  9
$TEXTSIZE
 40
3.0
  9
$TRACEWID
 40
1.0
  9
$TEXTSTYLE
  7
Standard
  9
$CLAYER
  8
文字
  9
$CELTYPE
  6
ByLayer
  9
$CECOLOR
 62
   256
  9
$CELTSCALE
 40
1.0
  9
$DISPSILH
 70
     0
  9
$DIMSCALE
 40
1.0
  9
$DIMASZ
 40
2.5
  9
$DIMEXO
 40
0.625
  9
$DIMDLI
 40
3.75
  9
$DIMRND
 40
0.0
  9
$DIMDLE
 40
0.0
  9
$DIMEXE
 40
1.25
  9
$DIMTP
 40
0.0
  9
$DIMTM
 40
0.0
  9
$DIMTXT
 40
2.5
  9
$DIMCEN
 40
2.5
  9
$DIMTSZ
 40
0.0
  9
$DIMTOL
 70
     0
  9
$DIMLIM
 70
     0
  9
$DIMTIH
 70
     0
  9
$DIMTOH
 70
     0
  9
$DIMSE1
 70
     0
  9
$DIMSE2
 70
     0
  9
$DIMTAD
 70
     1
  9
$DIMZIN
 70
     8
  9
$DIMBLK
  1

  9
$DIMASO
 70
     1
  9
$DIMSHO
 70
     1
  9
$DIMPOST
  1

  9
$DIMAPOST
  1

  9
$DIMALT
 70
     0
  9
$DIMALTD
 70
     3
  9
$DIMALTF
 40
0.03937007874016
  9
$DIMLFAC
 40
1.0
  9
$DIMTOFL
 70
     1
  9
$DIMTVP
 40
0.0
  9
$DIMTIX
 70
     0
  9
$DIMSOXD
 70
     0
  9
$DIMSAH
 70
     0
  9
$DIMBLK1
  1

  9
$DIMBLK2
  1

  9
$DIMSTYLE
  2
ISO-25
  9
$DIMCLRD
 70
     0
  9
$DIMCLRE
 70
     0
  9
$DIMCLRT
 70
     0
  9
$DIMTFAC
 40
1.0
  9
$DIMGAP
 40
0.625
  9
$DIMJUST
 70
     0
  9
$DIMSD1
 70
     0
  9
$DIMSD2
 70
     0
  9
$DIMTOLJ
 70
     0
  9
$DIMTZIN
 70
     8
  9
$DIMALTZ
 70
     0
  9
$DIMALTTZ
 70
     0
  9
$DIMUPT
 70
     0
  9
$DIMDEC
 70
     2
  9
$DIMTDEC
 70
     2
  9
$DIMALTU
 70
     2
  9
$DIMALTTD
 70
     3
  9
$DIMTXSTY
  7
Standard
  9
$DIMAUNIT
 70
     0
  9
$DIMADEC
 70
     0
  9
$DIMALTRND
 40
0.0
  9
$DIMAZIN
 70
     0
  9
$DIMDSEP
 70
    46
  9
$DIMATFIT
 70
     3
  9
$DIMFRAC
 70
     0
  9
$DIMLDRBLK
  1

  9
$DIMLUNIT
 70
     2
  9
$DIMLWD
 70
    -2
  9
$DIMLWE
 70
    -2
  9
$DIMTMOVE
 70
     0
  9
$DIMFXL
 40
1.0
  9
$DIMFXLON
 70
     0
  9
$DIMJOGANG
 40
0.7853981633974483
  9
$DIMTFILL
 70
     0
  9
$DIMTFILLCLR
 70
     0
  9
$DIMARCSYM
 70
     0
  9
$DIMLTYPE
  6

  9
$DIMLTEX1
  6

  9
$DIMLTEX2
  6

  9
$DIMTXTDIRECTION
 70
     0
  9
$LUNITS
 70
     2
  9
$LUPREC
 70
     4
  9
$SKETCHINC
 40
1.0
  9
$FILLETRAD
 40
3.0
  9
$AUNITS
 70
     0
  9
$AUPREC
 70
     0
  9
$MENU
  1
.
  9
$ELEVATION
 40
0.0
  9
$PELEVATION
 40
0.0
  9
$THICKNESS
 40
0.0
  9
$LIMCHECK
 70
     0
  9
$CHAMFERA
 40
2.0
  9
$CHAMFERB
 40
2.0
  9
$CHAMFERC
 40
0.0
  9
$CHAMFERD
 40
0.0
  9
$SKPOLY
 70
     0
  9
$TDCREATE
 40
2452936.788310359
  9
$TDUCREATE
 40
2452936.413310359
  9
$TDUPDATE
 40
2456739.521737917
  9
$TDUUPDATE
 40
2456739.146737917
  9
$TDINDWG
 40
0.574654375
  9
$TDUSRTIMER
 40
2456739.146424919
  9
$USRTIMER
 70
     1
  9
$ANGBASE
 50
0.0
  9
$ANGDIR
 70
     0
  9
$PDMODE
 70
     0
  9
$PDSIZE
 40
0.0
  9
$PLINEWID
 40
0.0
  9
$SPLFRAME
 70
     0
  9
$SPLINETYPE
 70
     6
  9
$SPLINESEGS
 70
     8
  9
$HANDSEED
  5
D81
  9
$SURFTAB1
 70
     6
  9
$SURFTAB2
 70
     6
  9
$SURFTYPE
 70
     6
  9
$SURFU
 70
     6
  9
$SURFV
 70
     6
  9
$UCSBASE
  2

  9
$UCSNAME
  2

  9
$UCSORG
 10
0.0
 20
0.0
 30
0.0
  9
$UCSXDIR
 10
1.0
 20
0.0
 30
0.0
  9
$UCSYDIR
 10
0.0
 20
1.0
 30
0.0
  9
$UCSORTHOREF
  2

  9
$UCSORTHOVIEW
 70
     0
  9
$UCSORGTOP
 10
0.0
 20
0.0
 30
0.0
  9
$UCSORGBOTTOM
 10
0.0
 20
0.0
 30
0.0
  9
$UCSORGLEFT
 10
0.0
 20
0.0
 30
0.0
  9
$UCSORGRIGHT
 10
0.0
 20
0.0
 30
0.0
  9
$UCSORGFRONT
 10
0.0
 20
0.0
 30
0.0
  9
$UCSORGBACK
 10
0.0
 20
0.0
 30
0.0
  9
$PUCSBASE
  2

  9
$PUCSNAME
  2

  9
$PUCSORG
 10
0.0
 20
0.0
 30
0.0
  9
$PUCSXDIR
 10
1.0
 20
0.0
 30
0.0
  9
$PUCSYDIR
 10
0.0
 20
1.0
 30
0.0
  9
$PUCSORTHOREF
  2

  9
$PUCSORTHOVIEW
 70
     0
  9
$PUCSORGTOP
 10
0.0
 20
0.0
 30
0.0
  9
$PUCSORGBOTTOM
 10
0.0
 20
0.0
 30
0.0
  9
$PUCSORGLEFT
 10
0.0
 20
0.0
 30
0.0
  9
$PUCSORGRIGHT
 10
0.0
 20
0.0
 30
0.0
  9
$PUCSORGFRONT
 10
0.0
 20
0.0
 30
0.0
  9
$PUCSORGBACK
 10
0.0
 20
0.0
 30
0.0
  9
$USERI1
 70
     0
  9
$USERI2
 70
     0
  9
$USERI3
 70
     0
  9
$USERI4
 70
     0
  9
$USERI5
 70
     0
  9
$USERR1
 40
0.0
  9
$USERR2
 40
0.0
  9
$USERR3
 40
0.0
  9
$USERR4
 40
0.0
  9
$USERR5
 40
0.0
  9
$WORLDVIEW
 70
     1
  9
$SHADEDGE
 70
     3
  9
$SHADEDIF
 70
    70
  9
$TILEMODE
 70
     1
  9
$MAXACTVP
 70
    64
  9
$PINSBASE
 10
0.0
 20
0.0
 30
0.0
  9
$PLIMCHECK
 70
     0
  9
$PEXTMIN
 10
0.0
 20
0.0
 30
0.0
  9
$PEXTMAX
 10
0.0
 20
0.0
 30
0.0
  9
$PLIMMIN
 10
-7.5
 20
-20.0
  9
$PLIMMAX
 10
412.5
 20
277.0
  9
$UNITMODE
 70
     0
  9
$VISRETAIN
 70
     1
  9
$PLINEGEN
 70
     0
  9
$PSLTSCALE
 70
     1
  9
$TREEDEPTH
 70
  3020
  9
$CMLSTYLE
  2
Standard
  9
$CMLJUST
 70
     0
  9
$CMLSCALE
 40
20.0
  9
$PROXYGRAPHICS
 70
     1
  9
$MEASUREMENT
 70
     1
  9
$CELWEIGHT
370
    -1
  9
$ENDCAPS
280
     0
  9
$JOINSTYLE
280
     0
  9
$LWDISPLAY
290
     0
  9
$INSUNITS
 70
     4
  9
$HYPERLINKBASE
  1

  9
$STYLESHEET
  1

  9
$XEDIT
290
     1
  9
$CEPSNTYPE
380
     0
  9
$PSTYLEMODE
290
     1
  9
$FINGERPRINTGUID
  2
{86E58535-AB5B-4AFE-AB1B-6758AAB7EA7D}
  9
$VERSIONGUID
  2
{FBEFB73E-35AE-4914-8CB9-146C092E10AB}
  9
$EXTNAMES
290
     1
  9
$PSVPSCALE
 40
0.0
  9
$OLESTARTUP
290
     0
  9
$SORTENTS
280
   127
  9
$INDEXCTL
280
     0
  9
$HIDETEXT
280
     1
  9
$XCLIPFRAME
280
     0
  9
$HALOGAP
280
     0
  9
$OBSCOLOR
 70
   257
  9
$OBSLTYPE
280
     0
  9
$INTERSECTIONDISPLAY
280
     0
  9
$INTERSECTIONCOLOR
 70
   257
  9
$DIMASSOC
280
     2
  9
$PROJECTNAME
  1

  9
$CAMERADISPLAY
290
     0
  9
$LENSLENGTH
 40
50.0
  9
$CAMERAHEIGHT
 40
0.0
  9
$STEPSPERSEC
 40
2.0
  9
$STEPSIZE
 40
6.0
  9
$3DDWFPREC
 40
2.0
  9
$PSOLWIDTH
 40
0.25
  9
$PSOLHEIGHT
 40
4.0
  9
$LOFTANG1
 40
1.570796326794897
  9
$LOFTANG2
 40
1.570796326794897
  9
$LOFTMAG1
 40
0.0
  9
$LOFTMAG2
 40
0.0
  9
$LOFTPARAM
 70
     7
  9
$LOFTNORMALS
280
     1
  9
$LATITUDE
 40
37.795
  9
$LONGITUDE
 40
-122.394
  9
$NORTHDIRECTION
 40
0.0
  9
$TIMEZONE
 70
 -8000
  9
$LIGHTGLYPHDISPLAY
280
     1
  9
$TILEMODELIGHTSYNCH
280
     1
  9
$SOLIDHIST
280
     1
  9
$SHOWHIST
280
     1
  9
$DWFFRAME
280
     2
  9
$DGNFRAME
280
     2
  9
$REALWORLDSCALE
290
     1
  9
$INTERFERECOLOR
 62
   256
  9
$CSHADOW
280
     0
  9
$SHADOWPLANELOCATION
 40
0.0
  0
ENDSEC
  0
SECTION
  2
CLASSES
  0
CLASS
  1
ACDBDICTIONARYWDFLT
  2
AcDbDictionaryWithDefault
  3
ObjectDBX Classes
 90
        0
 91
        5
280
     0
281
     0
  0
CLASS
  1
DIMASSOC
  2
AcDbDimAssoc
  3
"AcDbDimAssoc|Product Desc:     AcDim ARX App For Dimension|Company:          Autodesk, Inc.|WEB Address:      www.autodesk.com"
 90
        0
 91
        4
280
     0
281
     0
  0
CLASS
  1
VISUALSTYLE
  2
AcDbVisualStyle
  3
ObjectDBX Classes
 90
     4095
 91
        5
280
     0
281
     0
  0
CLASS
  1
SCALE
  2
AcDbScale
  3
ObjectDBX Classes
 90
     1153
 91
        5
280
     0
281
     0
  0
CLASS
  1
MATERIAL
  2
AcDbMaterial
  3
ObjectDBX Classes
 90
     1153
 91
        5
280
     0
281
     0
  0
CLASS
  1
TABLESTYLE
  2
AcDbTableStyle
  3
ObjectDBX Classes
 90
     4095
 91
        5
280
     0
281
     0
  0
CLASS
  1
SUN
  2
AcDbSun
  3
SCENEOE
 90
     1153
 91
        5
280
     0
281
     0
  0
CLASS
  1
RASTERVARIABLES
  2
AcDbRasterVariables
  3
ISM
 90
        0
 91
        5
280
     0
281
     0
  0
CLASS
  1
DICTIONARYVAR
  2
AcDbDictionaryVar
  3
ObjectDBX Classes
 90
        0
 91
        4
280
     0
281
     0
  0
CLASS
  1
CELLSTYLEMAP
  2
AcDbCellStyleMap
  3
ObjectDBX Classes
 90
     1152
 91
        4
280
     0
281
     0
  0
ENDSEC
  0
SECTION
  2
TABLES
  0
TABLE
  2
VPORT
  5
8
330
0
100
AcDbSymbolTable
 70
     1
  0
VPORT
  5
CB9
330
8
100
AcDbSymbolTableRecord
100
AcDbViewportTableRecord
  2
*Active
 70
     0
 10
0.0
 20
0.0
 11
1.0
 21
1.0
 12
122.6257793890427
 22
124.559459820639
 13
0.0
 23
0.0
 14
10.0
 24
10.0
 15
10.0
 25
10.0
 16
0.0
 26
0.0
 36
1.0
 17
0.0
 27
0.0
 37
0.0
 40
192.2349555846902
 41
1.762376237623763
 42
50.0
 43
0.0
 44
0.0
 50
0.0
 51
0.0
 71
    16
 72
  1000
 73
     1
 74
     3
 75
     0
 76
     0
 77
     0
 78
     0
281
     0
 65
     1
110
0.0
120
0.0
130
0.0
111
1.0
121
0.0
131
0.0
112
0.0
122
1.0
132
0.0
 79
     0
146
0.0
348
CBF
 60
     3
 61
     5
292
     1
282
     1
141
0.0
142
0.0
 63
   256
361
CFB
  0
ENDTAB
  0
TABLE
  2
LTYPE
  5
5
330
0
100
AcDbSymbolTable
 70
     6
  0
LTYPE
  5
14
330
5
100
AcDbSymbolTableRecord
100
AcDbLinetypeTableRecord
  2
ByBlock
 70
     0
  3

 72
    65
 73
     0
 40
0.0
  0
LTYPE
  5
15
330
5
100
AcDbSymbolTableRecord
100
AcDbLinetypeTableRecord
  2
ByLayer
 70
     0
  3

 72
    65
 73
     0
 40
0.0
  0
LTYPE
  5
16
330
5
100
AcDbSymbolTableRecord
100
AcDbLinetypeTableRecord
  2
Continuous
 70
     0
  3
Solid line
 72
    65
 73
     0
 40
0.0
  0
LTYPE
  5
35
330
5
100
AcDbSymbolTableRecord
100
AcDbLinetypeTableRecord
  2
ACAD_ISO08W100
 70
     0
  3
ISO long-dash short-dash ____ __ ____ __ ____ _
 72
    65
 73
     4
 40
36.0
 49
24.0
 74
     0
 49
-3.0
 74
     0
 49
6.0
 74
     0
 49
-3.0
 74
     0
  0
LTYPE
  5
127
330
5
100
AcDbSymbolTableRecord
100
AcDbLinetypeTableRecord
  2
HIDDENX2
 70
     0
  3
Hidden (2x) ____ ____ ____ ____ ____ ____ ____
 72
    65
 73
     2
 40
19.05
 49
12.7
 74
     0
 49
-6.35
 74
     0
  0
LTYPE
  5
5EC
330
5
100
AcDbSymbolTableRecord
100
AcDbLinetypeTableRecord
  2
CENTER
 70
     0
  3
Center ____ _ ____ _ ____ _ ____ _ ____ _ ____
 72
    65
 73
     4
 40
50.8
 49
31.75
 74
     0
 49
-6.35
 74
     0
 49
6.35
 74
     0
 49
-6.35
 74
     0
  0
LTYPE
  5
5ED
330
5
100
AcDbSymbolTableRecord
100
AcDbLinetypeTableRecord
  2
ACAD_ISO02W100
 70
     0
  3
ISO dash __ __ __ __ __ __ __ __ __ __ __ __ __
 72
    65
 73
     2
 40
15.0
 49
12.0
 74
     0
 49
-3.0
 74
     0
  0
LTYPE
  5
605
330
5
100
AcDbSymbolTableRecord
100
AcDbLinetypeTableRecord
  2
DASHED
 70
     0
  3
Dashed __ __ __ __ __ __ __ __ __ __ __ __ __ _
 72
    65
 73
     2
 40
19.05
 49
12.7
 74
     0
 49
-6.35
 74
     0
  0
ENDTAB
  0
TABLE
  2
LAYER
  5
2
330
0
100
AcDbSymbolTable
 70
     9
  0
LAYER
  5
10
330
2
100
AcDbSymbolTableRecord
100
AcDbLayerTableRecord
  2
0
 70
     0
 62
     7
  6
Continuous
370
    -3
390
F
347
CF7
348
0
  0
LAYER
  5
2E
330
2
100
AcDbSymbolTableRecord
100
AcDbLayerTableRecord
  2
枠
 70
     0
 62
     1
  6
Continuous
370
    30
390
F
347
CF7
348
0
  0
LAYER
  5
2F
330
2
100
AcDbSymbolTableRecord
100
AcDbLayerTableRecord
  2
文字
 70
     0
 62
     7
  6
Continuous
370
    30
390
F
347
CF7
348
0
  0
LAYER
  5
36
330
2
100
AcDbSymbolTableRecord
100
AcDbLayerTableRecord
  2
中心線
 70
     0
 62
     7
  6
CENTER
370
    30
390
F
347
CF7
348
0
  0
LAYER
  5
52
330
2
100
AcDbSymbolTableRecord
100
AcDbLayerTableRecord
  2
隠れ線
 70
     0
 62
     2
  6
Continuous
290
     0
370
    -3
390
F
347
CF7
348
0
  0
LAYER
  5
128
330
2
100
AcDbSymbolTableRecord
100
AcDbLayerTableRecord
  2
実線
 70
     0
 62
     7
  6
Continuous
370
    50
390
F
347
CF7
348
0
  0
LAYER
  5
129
330
2
100
AcDbSymbolTableRecord
100
AcDbLayerTableRecord
  2
破線
 70
     0
 62
     7
  6
DASHED
370
    20
390
F
347
CF7
348
0
  0
LAYER
  5
693
330
2
100
AcDbSymbolTableRecord
100
AcDbLayerTableRecord
  2
Defpoints
 70
     0
 62
     7
  6
Continuous
290
     0
370
    -3
390
F
347
CF7
348
0
  0
LAYER
  5
D12
330
2
100
AcDbSymbolTableRecord
100
AcDbLayerTableRecord
  2
文字・寸法線
 70
     0
 62
     7
  6
Continuous
370
    -3
390
F
347
CF7
348
0
  0
ENDTAB
  0
TABLE
  2
STYLE
  5
3
330
0
100
AcDbSymbolTable
 70
     2
  0
STYLE
  5
11
330
3
100
AcDbSymbolTableRecord
100
AcDbTextStyleTableRecord
  2
Standard
 70
     0
 40
0.0
 41
1.0
 50
0.0
 71
     0
 42
3.0
  3
txt.shx
  4
bigfont.shx
  0
STYLE
  5
34
330
3
100
AcDbSymbolTableRecord
100
AcDbTextStyleTableRecord
  2

 70
     1
 40
0.0
 41
1.0
 50
0.0
 71
     0
 42
2.5
  3
ltypeshp.shx
  4

  0
ENDTAB
  0
TABLE
  2
VIEW
  5
6
330
0
100
AcDbSymbolTable
 70
     0
  0
ENDTAB
  0
TABLE
  2
UCS
  5
7
330
0
100
AcDbSymbolTable
 70
     0
  0
ENDTAB
  0
TABLE
  2
APPID
  5
9
330
0
100
AcDbSymbolTable
 70
     1
  0
APPID
  5
12
330
9
100
AcDbSymbolTableRecord
100
AcDbRegAppTableRecord
  2
ACAD
 70
     0
  0
ENDTAB
  0
TABLE
  2
DIMSTYLE
  5
A
330
0
100
AcDbSymbolTable
 70
     1
100
AcDbDimStyleTable
  0
DIMSTYLE
105
29
102
{ACAD_REACTORS
330
A07
330
A0A
330
A78
330
AEA
330
B89
330
BAA
330
BC2
330
D5F
330
D70
102
}
330
A
100
AcDbSymbolTableRecord
100
AcDbDimStyleTableRecord
  2
ISO-25
 70
     0
 41
2.5
 42
0.625
 43
3.75
 44
1.25
 73
     0
 74
     0
 77
     1
 78
     8
140
2.5
141
2.5
143
0.03937007874016
147
0.625
171
     3
172
     1
178
     0
271
     2
272
     2
274
     3
283
     0
284
     8
340
11
  0
ENDTAB
  0
TABLE
  2
BLOCK_RECORD
  5
1
330
0
100
AcDbSymbolTable
 70
    16
  0
BLOCK_RECORD
  5
21
330
1
100
AcDbSymbolTableRecord
100
AcDbBlockTableRecord
  2
*Model_Space
340
24
 70
     0
280
     1
281
     0
  0
BLOCK_RECORD
  5
CFD
330
1
100
AcDbSymbolTableRecord
100
AcDbBlockTableRecord
  2
*Paper_Space
340
CFE
 70
     0
280
     1
281
     0
  0
BLOCK_RECORD
  5
A2E
330
1
100
AcDbSymbolTableRecord
100
AcDbBlockTableRecord
  2
*D0
340
0
 70
     0
280
     1
281
     0
  0
BLOCK_RECORD
  5
A3A
330
1
100
AcDbSymbolTableRecord
100
AcDbBlockTableRecord
  2
*D1
340
0
 70
     0
280
     1
281
     0
  0
BLOCK_RECORD
  5
A79
330
1
100
AcDbSymbolTableRecord
100
AcDbBlockTableRecord
  2
*D2
340
0
 70
     0
280
     1
281
     0
  0
BLOCK_RECORD
  5
AF5
330
1
100
AcDbSymbolTableRecord
100
AcDbBlockTableRecord
  2
*D3
340
0
 70
     0
280
     1
281
     0
  0
BLOCK_RECORD
  5
B8A
330
1
100
AcDbSymbolTableRecord
100
AcDbBlockTableRecord
  2
*D4
340
0
 70
     0
280
     1
281
     0
  0
BLOCK_RECORD
  5
BAB
330
1
100
AcDbSymbolTableRecord
100
AcDbBlockTableRecord
  2
*D5
340
0
 70
     0
280
     1
281
     0
  0
BLOCK_RECORD
  5
BC3
330
1
100
AcDbSymbolTableRecord
100
AcDbBlockTableRecord
  2
*D6
340
0
 70
     0
280
     1
281
     0
  0
BLOCK_RECORD
  5
C15
330
1
100
AcDbSymbolTableRecord
100
AcDbBlockTableRecord
  2
*D7
340
0
 70
     0
280
     1
281
     0
  0
BLOCK_RECORD
  5
C21
330
1
100
AcDbSymbolTableRecord
100
AcDbBlockTableRecord
  2
*D8
340
0
 70
     0
280
     1
281
     0
  0
BLOCK_RECORD
  5
C2D
330
1
100
AcDbSymbolTableRecord
100
AcDbBlockTableRecord
  2
*D9
340
0
 70
     0
280
     1
281
     0
  0
BLOCK_RECORD
  5
C39
330
1
100
AcDbSymbolTableRecord
100
AcDbBlockTableRecord
  2
*D10
340
0
 70
     0
280
     1
281
     0
  0
BLOCK_RECORD
  5
C45
330
1
100
AcDbSymbolTableRecord
100
AcDbBlockTableRecord
  2
*D11
340
0
 70
     0
280
     1
281
     0
  0
BLOCK_RECORD
  5
C6A
330
1
100
AcDbSymbolTableRecord
100
AcDbBlockTableRecord
  2
*D12
340
0
 70
     0
280
     1
281
     0
  0
BLOCK_RECORD
  5
D61
330
1
100
AcDbSymbolTableRecord
100
AcDbBlockTableRecord
  2
*D14
340
0
 70
     0
280
     1
281
     0
  0
BLOCK_RECORD
  5
D72
330
1
100
AcDbSymbolTableRecord
100
AcDbBlockTableRecord
  2
*D15
340
0
 70
     0
280
     1
281
     0
  0
ENDTAB
  0
ENDSEC
  0
SECTION
  2
BLOCKS
  0
BLOCK
  5
22
330
21
100
AcDbEntity
  8
0
100
AcDbBlockBegin
  2
*Model_Space
 70
     0
 10
0.0
 20
0.0
 30
0.0
  3
*Model_Space
  1
*Model_Space
  0
ENDBLK
  5
23
330
21
100
AcDbEntity
  8
0
100
AcDbBlockEnd
  0
BLOCK
  5
CFF
330
CFD
100
AcDbEntity
 67
     1
  8
0
100
AcDbBlockBegin
  2
*Paper_Space
 70
     0
 10
0.0
 20
0.0
 30
0.0
  3
*Paper_Space
  1
*Paper_Space
  0
ENDBLK
  5
D00
330
CFD
100
AcDbEntity
 67
     1
  8
0
100
AcDbBlockEnd
  0
BLOCK
  5
A38
330
A2E
100
AcDbEntity
  8
0
100
AcDbBlockBegin
  2
*D0
 70
     1
 10
0.0
 20
0.0
 30
0.0
  3
*D0
  1
*D1
  0
LINE
  5
B74
330
A2E
100
AcDbEntity
  8
文字
 62
     0
370
    -2
100
AcDbLine
 10
95.1133025909753
 20
76.19792369086764
 30
0.0
 11
119.6972066414391
 21
76.19792369086763
 31
0.0
  0
LINE
  5
B75
330
A2E
100
AcDbEntity
  8
文字
 62
     0
370
    -2
100
AcDbLine
 10
103.6133025909753
 20
58.07582763170534
 30
0.0
 11
119.6972066414391
 21
58.07582763170533
 31
0.0
  0
LINE
  5
B76
330
A2E
100
AcDbEntity
  8
文字
 62
     0
370
    -2
100
AcDbLine
 10
118.4472066414391
 20
73.69792369086763
 30
0.0
 11
118.4472066414391
 21
60.57582763170533
 31
0.0
  0
SOLID
  5
B77
330
A2E
100
AcDbEntity
  8
文字
 62
     0
100
AcDbTrace
 10
118.0305399747725
 20
73.69792369086763
 30
0.0
 11
118.8638733081058
 21
73.69792369086763
 31
0.0
 12
118.4472066414391
 22
76.19792369086763
 32
0.0
 13
118.4472066414391
 23
76.19792369086763
 33
0.0
  0
SOLID
  5
B78
330
A2E
100
AcDbEntity
  8
文字
 62
     0
100
AcDbTrace
 10
118.0305399747725
 20
60.57582763170533
 30
0.0
 11
118.8638733081058
 21
60.57582763170533
 31
0.0
 12
118.4472066414391
 22
58.07582763170533
 32
0.0
 13
118.4472066414391
 23
58.07582763170533
 33
0.0
  0
MTEXT
  5
B79
330
A2E
100
AcDbEntity
  8
文字
 62
     0
100
AcDbMText
 10
116.5722066414391
 20
67.1368756612865
 30
0.0
 40
2.5
 41
0.0
 46
0.0
 71
     5
 72
     1
  1
18
 11
6.123031769111886E-17
 21
1.0
 31
0.0
 73
     1
 44
1.0
  0
POINT
  5
B7A
330
A2E
100
AcDbEntity
  8
Defpoints
 62
     0
100
AcDbPoint
 10
94.4883025909753
 20
76.19792369086764
 30
0.0
  0
POINT
  5
B7B
330
A2E
100
AcDbEntity
  8
Defpoints
 62
     0
100
AcDbPoint
 10
102.9883025909753
 20
58.07582763170534
 30
0.0
  0
POINT
  5
B7C
330
A2E
100
AcDbEntity
  8
Defpoints
 62
     0
100
AcDbPoint
 10
118.4472066414391
 20
58.07582763170533
 30
0.0
  0
ENDBLK
  5
A39
330
A2E
100
AcDbEntity
  8
0
100
AcDbBlockEnd
  0
BLOCK
  5
A44
330
A3A
100
AcDbEntity
  8
0
100
AcDbBlockBegin
  2
*D1
 70
     1
 10
0.0
 20
0.0
 30
0.0
  3
*D1
  1
*D2
  0
LINE
  5
B6B
330
A3A
100
AcDbEntity
  8
文字
 62
     0
370
    -2
100
AcDbLine
 10
44.98830259097527
 20
58.82582763170532
 30
0.0
 11
44.98830259097527
 21
35.45509486733472
 31
0.0
  0
LINE
  5
B6C
330
A3A
100
AcDbEntity
  8
文字
 62
     0
370
    -2
100
AcDbLine
 10
104.9883025909752
 20
59.45082763170534
 30
0.0
 11
104.9883025909752
 21
35.45509486733472
 31
0.0
  0
LINE
  5
B6D
330
A3A
100
AcDbEntity
  8
文字
 62
     0
370
    -2
100
AcDbLine
 10
47.48830259097527
 20
36.70509486733472
 30
0.0
 11
102.4883025909752
 21
36.70509486733472
 31
0.0
  0
SOLID
  5
B6E
330
A3A
100
AcDbEntity
  8
文字
 62
     0
100
AcDbTrace
 10
47.48830259097527
 20
37.12176153400139
 30
0.0
 11
47.48830259097527
 21
36.28842820066806
 31
0.0
 12
44.98830259097527
 22
36.70509486733472
 32
0.0
 13
44.98830259097527
 23
36.70509486733472
 33
0.0
  0
SOLID
  5
B6F
330
A3A
100
AcDbEntity
  8
文字
 62
     0
100
AcDbTrace
 10
102.4883025909752
 20
37.12176153400139
 30
0.0
 11
102.4883025909752
 21
36.28842820066806
 31
0.0
 12
104.9883025909752
 22
36.70509486733472
 32
0.0
 13
104.9883025909752
 23
36.70509486733472
 33
0.0
  0
MTEXT
  5
B70
330
A3A
100
AcDbEntity
  8
文字
 62
     0
100
AcDbMText
 10
74.98830259097525
 20
38.58009486733472
 30
0.0
 40
2.5
 41
0.0
 46
0.0
 71
     5
 72
     1
  1
%%c60
 73
     1
 44
1.0
  0
POINT
  5
B71
330
A3A
100
AcDbEntity
  8
Defpoints
 62
     0
100
AcDbPoint
 10
44.98830259097527
 20
59.45082763170532
 30
0.0
  0
POINT
  5
B72
330
A3A
100
AcDbEntity
  8
Defpoints
 62
     0
100
AcDbPoint
 10
104.9883025909752
 20
60.07582763170534
 30
0.0
  0
POINT
  5
B73
330
A3A
100
AcDbEntity
  8
Defpoints
 62
     0
100
AcDbPoint
 10
104.9883025909752
 20
36.70509486733472
 30
0.0
  0
ENDBLK
  5
A45
330
A3A
100
AcDbEntity
  8
0
100
AcDbBlockEnd
  0
BLOCK
  5
A83
330
A79
100
AcDbEntity
  8
0
100
AcDbBlockBegin
  2
*D2
 70
     1
 10
0.0
 20
0.0
 30
0.0
  3
*D2
  1
*D3
  0
LINE
  5
A90
330
A79
100
AcDbEntity
  8
文字
 62
     0
370
    -2
100
AcDbLine
 10
151.1701082788034
 20
83.07308928648978
 30
0.0
 11
151.1701082788034
 21
30.32663845559475
 31
0.0
  0
LINE
  5
A91
330
A79
100
AcDbEntity
  8
文字
 62
     0
370
    -2
100
AcDbLine
 10
190.1701082788034
 20
83.07308928648978
 30
0.0
 11
190.1701082788034
 21
30.32663845559475
 31
0.0
  0
LINE
  5
A92
330
A79
100
AcDbEntity
  8
文字
 62
     0
370
    -2
100
AcDbLine
 10
153.6701082788034
 20
31.57663845559475
 30
0.0
 11
187.6701082788034
 21
31.57663845559475
 31
0.0
  0
SOLID
  5
A93
330
A79
100
AcDbEntity
  8
文字
 62
     0
100
AcDbTrace
 10
153.6701082788034
 20
31.99330512226141
 30
0.0
 11
153.6701082788034
 21
31.15997178892808
 31
0.0
 12
151.1701082788034
 22
31.57663845559475
 32
0.0
 13
151.1701082788034
 23
31.57663845559475
 33
0.0
  0
SOLID
  5
A94
330
A79
100
AcDbEntity
  8
文字
 62
     0
100
AcDbTrace
 10
187.6701082788034
 20
31.15997178892808
 30
0.0
 11
187.6701082788034
 21
31.99330512226141
 31
0.0
 12
190.1701082788034
 22
31.57663845559475
 32
0.0
 13
190.1701082788034
 23
31.57663845559475
 33
0.0
  0
MTEXT
  5
A95
330
A79
100
AcDbEntity
  8
文字
 62
     0
100
AcDbMText
 10
170.6701082788034
 20
33.45163845559475
 30
0.0
 40
2.5
 41
0.0
 46
0.0
 71
     5
 72
     1
  1
%%c39
 73
     1
 44
1.0
  0
POINT
  5
A96
330
A79
100
AcDbEntity
  8
Defpoints
 62
     0
100
AcDbPoint
 10
151.1701082788034
 20
83.69808928648978
 30
0.0
  0
POINT
  5
A97
330
A79
100
AcDbEntity
  8
Defpoints
 62
     0
100
AcDbPoint
 10
190.1701082788034
 20
83.69808928648978
 30
0.0
  0
POINT
  5
A98
330
A79
100
AcDbEntity
  8
Defpoints
 62
     0
100
AcDbPoint
 10
190.1701082788034
 20
31.57663845559475
 30
0.0
  0
ENDBLK
  5
A84
330
A79
100
AcDbEntity
  8
0
100
AcDbBlockEnd
  0
BLOCK
  5
AFF
330
AF5
100
AcDbEntity
  8
0
100
AcDbBlockBegin
  2
*D3
 70
     1
 10
0.0
 20
0.0
 30
0.0
  3
*D3
  1
*D4
  0
LINE
  5
B62
330
AF5
100
AcDbEntity
  8
文字
 62
     0
370
    -2
100
AcDbLine
 10
66.98830259097527
 20
159.8229248475747
 30
0.0
 11
66.98830259097527
 21
183.8058584576548
 31
0.0
  0
LINE
  5
B63
330
AF5
100
AcDbEntity
  8
文字
 62
     0
370
    -2
100
AcDbLine
 10
82.98830259097527
 20
159.8229248475747
 30
0.0
 11
82.98830259097527
 21
183.8058584576548
 31
0.0
  0
LINE
  5
B64
330
AF5
100
AcDbEntity
  8
文字
 62
     0
370
    -2
100
AcDbLine
 10
69.48830259097527
 20
182.5558584576548
 30
0.0
 11
80.48830259097527
 21
182.5558584576548
 31
0.0
  0
SOLID
  5
B65
330
AF5
100
AcDbEntity
  8
文字
 62
     0
100
AcDbTrace
 10
69.48830259097527
 20
182.9725251243214
 30
0.0
 11
69.48830259097527
 21
182.1391917909881
 31
0.0
 12
66.98830259097527
 22
182.5558584576548
 32
0.0
 13
66.98830259097527
 23
182.5558584576548
 33
0.0
  0
SOLID
  5
B66
330
AF5
100
AcDbEntity
  8
文字
 62
     0
100
AcDbTrace
 10
80.48830259097527
 20
182.9725251243214
 30
0.0
 11
80.48830259097527
 21
182.1391917909881
 31
0.0
 12
82.98830259097527
 22
182.5558584576548
 32
0.0
 13
82.98830259097527
 23
182.5558584576548
 33
0.0
  0
MTEXT
  5
B67
330
AF5
100
AcDbEntity
  8
文字
 62
     0
100
AcDbMText
 10
74.98830259097527
 20
184.4308584576548
 30
0.0
 40
2.5
 41
0.0
 46
0.0
 71
     5
 72
     1
  1
{\fArial|b0|i0|c0|p32;M}16
 73
     1
 44
1.0
  0
POINT
  5
B68
330
AF5
100
AcDbEntity
  8
Defpoints
 62
     0
100
AcDbPoint
 10
66.98830259097527
 20
159.1979248475747
 30
0.0
  0
POINT
  5
B69
330
AF5
100
AcDbEntity
  8
Defpoints
 62
     0
100
AcDbPoint
 10
82.98830259097527
 20
159.1979248475747
 30
0.0
  0
POINT
  5
B6A
330
AF5
100
AcDbEntity
  8
Defpoints
 62
     0
100
AcDbPoint
 10
82.98830259097527
 20
182.5558584576548
 30
0.0
  0
ENDBLK
  5
B00
330
AF5
100
AcDbEntity
  8
0
100
AcDbBlockEnd
  0
BLOCK
  5
B94
330
B8A
100
AcDbEntity
  8
0
100
AcDbBlockBegin
  2
*D4
 70
     1
 10
0.0
 20
0.0
 30
0.0
  3
*D4
  1
*D5
  0
LINE
  5
BA1
330
B8A
100
AcDbEntity
  8
文字
 62
     0
370
    -2
100
AcDbLine
 10
158.6756564363889
 20
76.14808928648988
 30
0.0
 11
158.6756564363889
 21
39.13004300926016
 31
0.0
  0
LINE
  5
BA2
330
B8A
100
AcDbEntity
  8
文字
 62
     0
370
    -2
100
AcDbLine
 10
182.664560121218
 20
76.14808928648988
 30
0.0
 11
182.664560121218
 21
39.13004300926016
 31
0.0
  0
LINE
  5
BA3
330
B8A
100
AcDbEntity
  8
文字
 62
     0
370
    -2
100
AcDbLine
 10
161.1756564363889
 20
40.38004300926016
 30
0.0
 11
180.164560121218
 21
40.38004300926016
 31
0.0
  0
SOLID
  5
BA4
330
B8A
100
AcDbEntity
  8
文字
 62
     0
100
AcDbTrace
 10
161.1756564363889
 20
40.79670967592683
 30
0.0
 11
161.1756564363889
 21
39.9633763425935
 31
0.0
 12
158.6756564363889
 22
40.38004300926016
 32
0.0
 13
158.6756564363889
 23
40.38004300926016
 33
0.0
  0
SOLID
  5
BA5
330
B8A
100
AcDbEntity
  8
文字
 62
     0
100
AcDbTrace
 10
180.164560121218
 20
39.9633763425935
 30
0.0
 11
180.164560121218
 21
40.79670967592683
 31
0.0
 12
182.664560121218
 22
40.38004300926016
 32
0.0
 13
182.664560121218
 23
40.38004300926016
 33
0.0
  0
MTEXT
  5
BA6
330
B8A
100
AcDbEntity
  8
文字
 62
     0
100
AcDbMText
 10
170.6701082788035
 20
42.25504300926016
 30
0.0
 40
2.5
 41
0.0
 46
0.0
 71
     5
 72
     1
  1
24
 73
     1
 44
1.0
  0
POINT
  5
BA7
330
B8A
100
AcDbEntity
  8
Defpoints
 62
     0
100
AcDbPoint
 10
158.6756564363889
 20
76.77308928648988
 30
0.0
  0
POINT
  5
BA8
330
B8A
100
AcDbEntity
  8
Defpoints
 62
     0
100
AcDbPoint
 10
182.664560121218
 20
76.77308928648988
 30
0.0
  0
POINT
  5
BA9
330
B8A
100
AcDbEntity
  8
Defpoints
 62
     0
100
AcDbPoint
 10
182.664560121218
 20
40.38004300926016
 30
0.0
  0
ENDBLK
  5
B95
330
B8A
100
AcDbEntity
  8
0
100
AcDbBlockEnd
  0
BLOCK
  5
BB5
330
BAB
100
AcDbEntity
  8
0
100
AcDbBlockBegin
  2
*D5
 70
     1
 10
0.0
 20
0.0
 30
0.0
  3
*D5
  1
*D6
  0
LINE
  5
BB8
330
BAB
100
AcDbEntity
  8
文字
 62
     0
370
    -2
100
AcDbLine
 10
83.61330259097528
 20
161.1979248475747
 30
0.0
 11
119.6972066414392
 21
161.1979248475747
 31
0.0
  0
LINE
  5
BB9
330
BAB
100
AcDbEntity
  8
文字
 62
     0
370
    -2
100
AcDbLine
 10
89.46330259097526
 20
86.19792484757467
 30
0.0
 11
119.6972066414391
 21
86.19792484757465
 31
0.0
  0
LINE
  5
BBA
330
BAB
100
AcDbEntity
  8
文字
 62
     0
370
    -2
100
AcDbLine
 10
118.4472066414392
 20
158.6979248475747
 30
0.0
 11
118.4472066414391
 21
88.69792484757465
 31
0.0
  0
SOLID
  5
BBB
330
BAB
100
AcDbEntity
  8
文字
 62
     0
100
AcDbTrace
 10
118.0305399747725
 20
158.6979248475747
 30
0.0
 11
118.8638733081058
 21
158.6979248475747
 31
0.0
 12
118.4472066414392
 22
161.1979248475747
 32
0.0
 13
118.4472066414392
 23
161.1979248475747
 33
0.0
  0
SOLID
  5
BBC
330
BAB
100
AcDbEntity
  8
文字
 62
     0
100
AcDbTrace
 10
118.0305399747725
 20
88.69792484757465
 30
0.0
 11
118.8638733081058
 21
88.69792484757465
 31
0.0
 12
118.4472066414391
 22
86.19792484757465
 32
0.0
 13
118.4472066414391
 23
86.19792484757465
 33
0.0
  0
MTEXT
  5
BBD
330
BAB
100
AcDbEntity
  8
文字
 62
     0
100
AcDbMText
 10
116.5722066414391
 20
123.6979248475747
 30
0.0
 40
2.5
 41
0.0
 46
0.0
 71
     5
 72
     1
  1
75
 11
6.123031769111886E-17
 21
1.0
 31
0.0
 73
     1
 44
1.0
  0
POINT
  5
BBE
330
BAB
100
AcDbEntity
  8
Defpoints
 62
     0
100
AcDbPoint
 10
82.98830259097528
 20
161.1979248475747
 30
0.0
  0
POINT
  5
BBF
330
BAB
100
AcDbEntity
  8
Defpoints
 62
     0
100
AcDbPoint
 10
88.83830259097526
 20
86.19792484757467
 30
0.0
  0
POINT
  5
BC0
330
BAB
100
AcDbEntity
  8
Defpoints
 62
     0
100
AcDbPoint
 10
118.4472066414391
 20
86.19792484757465
 30
0.0
  0
ENDBLK
  5
BB6
330
BAB
100
AcDbEntity
  8
0
100
AcDbBlockEnd
  0
BLOCK
  5
BCD
330
BC3
100
AcDbEntity
  8
0
100
AcDbBlockBegin
  2
*D6
 70
     1
 10
0.0
 20
0.0
 30
0.0
  3
*D6
  1
*D7
  0
LINE
  5
BD0
330
BC3
100
AcDbEntity
  8
文字
 62
     0
370
    -2
100
AcDbLine
 10
89.46330259097526
 20
86.19792484757467
 30
0.0
 11
119.6972066414391
 21
86.19792484757465
 31
0.0
  0
LINE
  5
BD1
330
BC3
100
AcDbEntity
  8
文字
 62
     0
370
    -2
100
AcDbLine
 10
90.4858812499695
 20
76.19792369086764
 30
0.0
 11
119.6972066414391
 21
76.19792369086763
 31
0.0
  0
LINE
  5
BD2
330
BC3
100
AcDbEntity
  8
文字
 62
     0
370
    -2
100
AcDbLine
 10
118.4472066414391
 20
83.69792484757465
 30
0.0
 11
118.4472066414391
 21
78.69792369086763
 31
0.0
  0
SOLID
  5
BD3
330
BC3
100
AcDbEntity
  8
文字
 62
     0
100
AcDbTrace
 10
118.0305399747725
 20
83.69792484757465
 30
0.0
 11
118.8638733081058
 21
83.69792484757465
 31
0.0
 12
118.4472066414391
 22
86.19792484757465
 32
0.0
 13
118.4472066414391
 23
86.19792484757465
 33
0.0
  0
SOLID
  5
BD4
330
BC3
100
AcDbEntity
  8
文字
 62
     0
100
AcDbTrace
 10
118.0305399747725
 20
78.69792369086763
 30
0.0
 11
118.8638733081058
 21
78.69792369086763
 31
0.0
 12
118.4472066414391
 22
76.19792369086763
 32
0.0
 13
118.4472066414391
 23
76.19792369086763
 33
0.0
  0
MTEXT
  5
BD5
330
BC3
100
AcDbEntity
  8
文字
 62
     0
100
AcDbMText
 10
116.5722066414391
 20
81.19792426922116
 30
0.0
 40
2.5
 41
0.0
 46
0.0
 71
     5
 72
     1
  1
10
 11
6.123031769111886E-17
 21
1.0
 31
0.0
 73
     1
 44
1.0
  0
POINT
  5
BD6
330
BC3
100
AcDbEntity
  8
Defpoints
 62
     0
100
AcDbPoint
 10
88.83830259097526
 20
86.19792484757467
 30
0.0
  0
POINT
  5
BD7
330
BC3
100
AcDbEntity
  8
Defpoints
 62
     0
100
AcDbPoint
 10
89.8608812499695
 20
76.19792369086764
 30
0.0
  0
POINT
  5
BD8
330
BC3
100
AcDbEntity
  8
Defpoints
 62
     0
100
AcDbPoint
 10
118.4472066414391
 20
76.19792369086763
 30
0.0
  0
ENDBLK
  5
BCE
330
BC3
100
AcDbEntity
  8
0
100
AcDbBlockEnd
  0
BLOCK
  5
C1F
330
C15
100
AcDbEntity
  8
0
100
AcDbBlockBegin
  2
*D7
 70
     1
 10
0.0
 20
0.0
 30
0.0
  3
*D7
  1
*D8
  0
LINE
  5
CA5
330
C15
100
AcDbEntity
  8
文字
 62
     0
370
    -2
100
AcDbLine
 10
480.3404341186414
 20
74.91159178820143
 30
0.0
 11
504.9243381691052
 21
74.91159178820143
 31
0.0
  0
LINE
  5
CA6
330
C15
100
AcDbEntity
  8
文字
 62
     0
370
    -2
100
AcDbLine
 10
488.8404341186413
 20
56.78949572903915
 30
0.0
 11
504.9243381691052
 21
56.78949572903914
 31
0.0
  0
LINE
  5
CA7
330
C15
100
AcDbEntity
  8
文字
 62
     0
370
    -2
100
AcDbLine
 10
503.6743381691052
 20
72.41159178820143
 30
0.0
 11
503.6743381691052
 21
59.28949572903914
 31
0.0
  0
SOLID
  5
CA8
330
C15
100
AcDbEntity
  8
文字
 62
     0
100
AcDbTrace
 10
503.2576715024385
 20
72.41159178820143
 30
0.0
 11
504.0910048357719
 21
72.41159178820143
 31
0.0
 12
503.6743381691052
 22
74.91159178820143
 32
0.0
 13
503.6743381691052
 23
74.91159178820143
 33
0.0
  0
SOLID
  5
CA9
330
C15
100
AcDbEntity
  8
文字
 62
     0
100
AcDbTrace
 10
503.2576715024385
 20
59.28949572903914
 30
0.0
 11
504.0910048357719
 21
59.28949572903914
 31
0.0
 12
503.6743381691052
 22
56.78949572903914
 32
0.0
 13
503.6743381691052
 23
56.78949572903914
 33
0.0
  0
MTEXT
  5
CAA
330
C15
100
AcDbEntity
  8
文字
 62
     0
100
AcDbMText
 10
501.7993381691052
 20
65.85054375862038
 30
0.0
 40
2.5
 41
0.0
 46
0.0
 71
     5
 72
     1
  1
Ｉ
 11
6.123031769111886E-17
 21
1.0
 31
0.0
 73
     1
 44
1.0
  0
POINT
  5
CAB
330
C15
100
AcDbEntity
  8
Defpoints
 62
     0
100
AcDbPoint
 10
479.7154341186414
 20
74.91159178820145
 30
0.0
  0
POINT
  5
CAC
330
C15
100
AcDbEntity
  8
Defpoints
 62
     0
100
AcDbPoint
 10
488.2154341186413
 20
56.78949572903915
 30
0.0
  0
POINT
  5
CAD
330
C15
100
AcDbEntity
  8
Defpoints
 62
     0
100
AcDbPoint
 10
503.6743381691052
 20
56.78949572903914
 30
0.0
  0
ENDBLK
  5
C20
330
C15
100
AcDbEntity
  8
0
100
AcDbBlockEnd
  0
BLOCK
  5
C2B
330
C21
100
AcDbEntity
  8
0
100
AcDbBlockBegin
  2
*D8
 70
     1
 10
0.0
 20
0.0
 30
0.0
  3
*D8
  1
*D9
  0
LINE
  5
CAE
330
C21
100
AcDbEntity
  8
文字
 62
     0
370
    -2
100
AcDbLine
 10
430.2154341186413
 20
57.53949572903913
 30
0.0
 11
430.2154341186413
 21
34.16876296466853
 31
0.0
  0
LINE
  5
CAF
330
C21
100
AcDbEntity
  8
文字
 62
     0
370
    -2
100
AcDbLine
 10
490.2154341186413
 20
58.16449572903915
 30
0.0
 11
490.2154341186413
 21
34.16876296466853
 31
0.0
  0
LINE
  5
CB0
330
C21
100
AcDbEntity
  8
文字
 62
     0
370
    -2
100
AcDbLine
 10
432.7154341186413
 20
35.41876296466853
 30
0.0
 11
487.7154341186413
 21
35.41876296466853
 31
0.0
  0
SOLID
  5
CB1
330
C21
100
AcDbEntity
  8
文字
 62
     0
100
AcDbTrace
 10
432.7154341186413
 20
35.8354296313352
 30
0.0
 11
432.7154341186413
 21
35.00209629800187
 31
0.0
 12
430.2154341186413
 22
35.41876296466853
 32
0.0
 13
430.2154341186413
 23
35.41876296466853
 33
0.0
  0
SOLID
  5
CB2
330
C21
100
AcDbEntity
  8
文字
 62
     0
100
AcDbTrace
 10
487.7154341186413
 20
35.8354296313352
 30
0.0
 11
487.7154341186413
 21
35.00209629800187
 31
0.0
 12
490.2154341186413
 22
35.41876296466853
 32
0.0
 13
490.2154341186413
 23
35.41876296466853
 33
0.0
  0
MTEXT
  5
CB3
330
C21
100
AcDbEntity
  8
文字
 62
     0
100
AcDbMText
 10
460.2154341186413
 20
37.29376296466853
 30
0.0
 40
2.5
 41
0.0
 46
0.0
 71
     5
 72
     1
  1
%%cＡ
 73
     1
 44
1.0
  0
POINT
  5
CB4
330
C21
100
AcDbEntity
  8
Defpoints
 62
     0
100
AcDbPoint
 10
430.2154341186413
 20
58.16449572903913
 30
0.0
  0
POINT
  5
CB5
330
C21
100
AcDbEntity
  8
Defpoints
 62
     0
100
AcDbPoint
 10
490.2154341186413
 20
58.78949572903915
 30
0.0
  0
POINT
  5
CB6
330
C21
100
AcDbEntity
  8
Defpoints
 62
     0
100
AcDbPoint
 10
490.2154341186413
 20
35.41876296466853
 30
0.0
  0
ENDBLK
  5
C2C
330
C21
100
AcDbEntity
  8
0
100
AcDbBlockEnd
  0
BLOCK
  5
C37
330
C2D
100
AcDbEntity
  8
0
100
AcDbBlockBegin
  2
*D9
 70
     1
 10
0.0
 20
0.0
 30
0.0
  3
*D9
  1
*D10
  0
LINE
  5
C81
330
C2D
100
AcDbEntity
  8
文字
 62
     0
370
    -2
100
AcDbLine
 10
452.2154341186413
 20
158.5365929449085
 30
0.0
 11
452.2154341186413
 21
182.5195265549886
 31
0.0
  0
LINE
  5
C82
330
C2D
100
AcDbEntity
  8
文字
 62
     0
370
    -2
100
AcDbLine
 10
468.2154341186413
 20
158.5365929449085
 30
0.0
 11
468.2154341186413
 21
182.5195265549886
 31
0.0
  0
LINE
  5
C83
330
C2D
100
AcDbEntity
  8
文字
 62
     0
370
    -2
100
AcDbLine
 10
454.7154341186413
 20
181.2695265549886
 30
0.0
 11
465.7154341186413
 21
181.2695265549886
 31
0.0
  0
SOLID
  5
C84
330
C2D
100
AcDbEntity
  8
文字
 62
     0
100
AcDbTrace
 10
454.7154341186413
 20
181.6861932216553
 30
0.0
 11
454.7154341186413
 21
180.8528598883219
 31
0.0
 12
452.2154341186413
 22
181.2695265549886
 32
0.0
 13
452.2154341186413
 23
181.2695265549886
 33
0.0
  0
SOLID
  5
C85
330
C2D
100
AcDbEntity
  8
文字
 62
     0
100
AcDbTrace
 10
465.7154341186413
 20
181.6861932216553
 30
0.0
 11
465.7154341186413
 21
180.8528598883219
 31
0.0
 12
468.2154341186413
 22
181.2695265549886
 32
0.0
 13
468.2154341186413
 23
181.2695265549886
 33
0.0
  0
MTEXT
  5
C86
330
C2D
100
AcDbEntity
  8
文字
 62
     0
100
AcDbMText
 10
460.2154341186413
 20
183.1445265549886
 30
0.0
 40
2.5
 41
0.0
 46
0.0
 71
     5
 72
     1
  1
{\fArial|b0|i0|c0|p32;D}
 73
     1
 44
1.0
  0
POINT
  5
C87
330
C2D
100
AcDbEntity
  8
Defpoints
 62
     0
100
AcDbPoint
 10
452.2154341186413
 20
157.9115929449085
 30
0.0
  0
POINT
  5
C88
330
C2D
100
AcDbEntity
  8
Defpoints
 62
     0
100
AcDbPoint
 10
468.2154341186413
 20
157.9115929449085
 30
0.0
  0
POINT
  5
C89
330
C2D
100
AcDbEntity
  8
Defpoints
 62
     0
100
AcDbPoint
 10
468.2154341186413
 20
181.2695265549886
 30
0.0
  0
ENDBLK
  5
C38
330
C2D
100
AcDbEntity
  8
0
100
AcDbBlockEnd
  0
BLOCK
  5
C43
330
C39
100
AcDbEntity
  8
0
100
AcDbBlockBegin
  2
*D10
 70
     1
 10
0.0
 20
0.0
 30
0.0
  3
*D10
  1
*D11
  0
LINE
  5
C8A
330
C39
100
AcDbEntity
  8
文字
 62
     0
370
    -2
100
AcDbLine
 10
468.8404341186414
 20
159.9115929449085
 30
0.0
 11
504.9243381691053
 21
159.9115929449085
 31
0.0
  0
LINE
  5
C8B
330
C39
100
AcDbEntity
  8
文字
 62
     0
370
    -2
100
AcDbLine
 10
474.6904341186413
 20
84.91159294490848
 30
0.0
 11
504.9243381691052
 21
84.91159294490846
 31
0.0
  0
LINE
  5
C8C
330
C39
100
AcDbEntity
  8
文字
 62
     0
370
    -2
100
AcDbLine
 10
503.6743381691053
 20
157.4115929449085
 30
0.0
 11
503.6743381691052
 21
87.41159294490846
 31
0.0
  0
SOLID
  5
C8D
330
C39
100
AcDbEntity
  8
文字
 62
     0
100
AcDbTrace
 10
503.2576715024386
 20
157.4115929449085
 30
0.0
 11
504.091004835772
 21
157.4115929449085
 31
0.0
 12
503.6743381691053
 22
159.9115929449085
 32
0.0
 13
503.6743381691053
 23
159.9115929449085
 33
0.0
  0
SOLID
  5
C8E
330
C39
100
AcDbEntity
  8
文字
 62
     0
100
AcDbTrace
 10
503.2576715024385
 20
87.41159294490846
 30
0.0
 11
504.0910048357719
 21
87.41159294490846
 31
0.0
 12
503.6743381691052
 22
84.91159294490846
 32
0.0
 13
503.6743381691052
 23
84.91159294490846
 33
0.0
  0
MTEXT
  5
C8F
330
C39
100
AcDbEntity
  8
文字
 62
     0
100
AcDbMText
 10
501.7942222073044
 20
122.4115929449086
 30
0.0
 40
2.5
 41
0.0
 46
0.0
 71
     5
 72
     1
  1
{\fArial|b0|i0|c0|p32;L1}
 11
6.123031769111886E-17
 21
1.0
 31
0.0
 73
     1
 44
1.0
  0
POINT
  5
C90
330
C39
100
AcDbEntity
  8
Defpoints
 62
     0
100
AcDbPoint
 10
468.2154341186414
 20
159.9115929449085
 30
0.0
  0
POINT
  5
C91
330
C39
100
AcDbEntity
  8
Defpoints
 62
     0
100
AcDbPoint
 10
474.0654341186413
 20
84.91159294490848
 30
0.0
  0
POINT
  5
C92
330
C39
100
AcDbEntity
  8
Defpoints
 62
     0
100
AcDbPoint
 10
503.6743381691052
 20
84.91159294490846
 30
0.0
  0
ENDBLK
  5
C44
330
C39
100
AcDbEntity
  8
0
100
AcDbBlockEnd
  0
BLOCK
  5
C4F
330
C45
100
AcDbEntity
  8
0
100
AcDbBlockBegin
  2
*D11
 70
     1
 10
0.0
 20
0.0
 30
0.0
  3
*D11
  1
*D12
  0
LINE
  5
C9C
330
C45
100
AcDbEntity
  8
文字
 62
     0
370
    -2
100
AcDbLine
 10
474.6904341186413
 20
84.91159294490848
 30
0.0
 11
504.9243381691052
 21
84.91159294490846
 31
0.0
  0
LINE
  5
C9D
330
C45
100
AcDbEntity
  8
文字
 62
     0
370
    -2
100
AcDbLine
 10
475.7130127776356
 20
74.91159178820145
 30
0.0
 11
504.9243381691052
 21
74.91159178820143
 31
0.0
  0
LINE
  5
C9E
330
C45
100
AcDbEntity
  8
文字
 62
     0
370
    -2
100
AcDbLine
 10
503.6743381691052
 20
82.41159294490846
 30
0.0
 11
503.6743381691052
 21
77.41159178820143
 31
0.0
  0
SOLID
  5
C9F
330
C45
100
AcDbEntity
  8
文字
 62
     0
100
AcDbTrace
 10
503.2576715024385
 20
82.41159294490846
 30
0.0
 11
504.0910048357719
 21
82.41159294490846
 31
0.0
 12
503.6743381691052
 22
84.91159294490846
 32
0.0
 13
503.6743381691052
 23
84.91159294490846
 33
0.0
  0
SOLID
  5
CA0
330
C45
100
AcDbEntity
  8
文字
 62
     0
100
AcDbTrace
 10
503.2576715024385
 20
77.41159178820143
 30
0.0
 11
504.0910048357719
 21
77.41159178820143
 31
0.0
 12
503.6743381691052
 22
74.91159178820143
 32
0.0
 13
503.6743381691052
 23
74.91159178820143
 33
0.0
  0
MTEXT
  5
CA1
330
C45
100
AcDbEntity
  8
文字
 62
     0
100
AcDbMText
 10
501.7993381691052
 20
79.91159236655503
 30
0.0
 40
2.5
 41
0.0
 46
0.0
 71
     5
 72
     1
  1
{\fArial|b0|i0|c0|p32;H}
 11
6.123031769111886E-17
 21
1.0
 31
0.0
 73
     1
 44
1.0
  0
POINT
  5
CA2
330
C45
100
AcDbEntity
  8
Defpoints
 62
     0
100
AcDbPoint
 10
474.0654341186413
 20
84.91159294490848
 30
0.0
  0
POINT
  5
CA3
330
C45
100
AcDbEntity
  8
Defpoints
 62
     0
100
AcDbPoint
 10
475.0880127776356
 20
74.91159178820145
 30
0.0
  0
POINT
  5
CA4
330
C45
100
AcDbEntity
  8
Defpoints
 62
     0
100
AcDbPoint
 10
503.6743381691052
 20
74.91159178820143
 30
0.0
  0
ENDBLK
  5
C50
330
C45
100
AcDbEntity
  8
0
100
AcDbBlockEnd
  0
BLOCK
  5
C74
330
C6A
100
AcDbEntity
  8
0
100
AcDbBlockBegin
  2
*D12
 70
     1
 10
0.0
 20
0.0
 30
0.0
  3
*D12
  1
*D13
  0
LINE
  5
C93
330
C6A
100
AcDbEntity
  8
文字
 62
     0
370
    -2
100
AcDbLine
 10
466.8404341186413
 20
159.9115929449085
 30
0.0
 11
526.4757487434805
 21
159.9115929449085
 31
0.0
  0
LINE
  5
C94
330
C6A
100
AcDbEntity
  8
文字
 62
     0
370
    -2
100
AcDbLine
 10
488.8404341186413
 20
56.78949572903915
 30
0.0
 11
526.4757487434805
 21
56.78949572903914
 31
0.0
  0
LINE
  5
C95
330
C6A
100
AcDbEntity
  8
文字
 62
     0
370
    -2
100
AcDbLine
 10
525.2257487434805
 20
157.4115929449085
 30
0.0
 11
525.2257487434805
 21
59.28949572903914
 31
0.0
  0
SOLID
  5
C96
330
C6A
100
AcDbEntity
  8
文字
 62
     0
100
AcDbTrace
 10
524.8090820768139
 20
157.4115929449085
 30
0.0
 11
525.6424154101471
 21
157.4115929449085
 31
0.0
 12
525.2257487434805
 22
159.9115929449085
 32
0.0
 13
525.2257487434805
 23
159.9115929449085
 33
0.0
  0
SOLID
  5
C97
330
C6A
100
AcDbEntity
  8
文字
 62
     0
100
AcDbTrace
 10
524.8090820768139
 20
59.28949572903914
 30
0.0
 11
525.6424154101471
 21
59.28949572903914
 31
0.0
 12
525.2257487434805
 22
56.78949572903914
 32
0.0
 13
525.2257487434805
 23
56.78949572903914
 33
0.0
  0
MTEXT
  5
C98
330
C6A
100
AcDbEntity
  8
文字
 62
     0
100
AcDbMText
 10
523.3456327816797
 20
108.3505443369739
 30
0.0
 40
2.5
 41
0.0
 46
0.0
 71
     5
 72
     1
  1
{\fArial|b0|i0|c0|p32;L2}
 11
6.123031769111886E-17
 21
1.0
 31
0.0
 73
     1
 44
1.0
  0
POINT
  5
C99
330
C6A
100
AcDbEntity
  8
Defpoints
 62
     0
100
AcDbPoint
 10
466.2154341186413
 20
159.9115929449085
 30
0.0
  0
POINT
  5
C9A
330
C6A
100
AcDbEntity
  8
Defpoints
 62
     0
100
AcDbPoint
 10
488.2154341186413
 20
56.78949572903915
 30
0.0
  0
POINT
  5
C9B
330
C6A
100
AcDbEntity
  8
Defpoints
 62
     0
100
AcDbPoint
 10
525.2257487434805
 20
56.78949572903914
 30
0.0
  0
ENDBLK
  5
C75
330
C6A
100
AcDbEntity
  8
0
100
AcDbBlockEnd
  0
BLOCK
  5
D62
330
D61
100
AcDbEntity
  8
0
100
AcDbBlockBegin
  2
*D14
 70
     1
 10
0.0
 20
0.0
 30
0.0
  3
*D14
  1
*D14
  0
LINE
  5
D63
330
D61
100
AcDbEntity
  8
文字
 62
     0
370
    -2
100
AcDbLine
 10
15.00069579844845
 20
10.00019833783685
 30
0.0
 11
1.875
 21
10.00019833783685
 31
0.0
  0
LINE
  5
D64
330
D61
100
AcDbEntity
  8
文字
 62
     0
370
    -2
100
AcDbLine
 10
15.8422714469077
 20
0.0
 30
0.0
 11
1.875
 21
0.0
 31
0.0
  0
LINE
  5
D65
330
D61
100
AcDbEntity
  8
文字
 62
     0
370
    -2
100
AcDbLine
 10
3.125
 20
7.500198337836849
 30
0.0
 11
3.125
 21
2.5
 31
0.0
  0
SOLID
  5
D66
330
D61
100
AcDbEntity
  8
文字
 62
     0
100
AcDbTrace
 10
3.541666666666667
 20
7.500198337836849
 30
0.0
 11
2.708333333333333
 21
7.500198337836849
 31
0.0
 12
3.125
 22
10.00019833783685
 32
0.0
 13
3.125
 23
10.00019833783685
 33
0.0
  0
SOLID
  5
D67
330
D61
100
AcDbEntity
  8
文字
 62
     0
100
AcDbTrace
 10
2.708333333333333
 20
2.5
 30
0.0
 11
3.541666666666666
 21
2.5
 31
0.0
 12
3.125
 22
0.0
 32
0.0
 13
3.125
 23
0.0
 33
0.0
  0
MTEXT
  5
D68
330
D61
100
AcDbEntity
  8
文字
 62
     0
100
AcDbMText
 10
1.25
 20
5.156323232109969
 30
0.0
 40
2.5
 41
0.0
 46
0.0
 71
     5
 72
     1
  1
10
 11
4.440804020554295E-17
 21
1.0
 31
0.0
 73
     1
 44
1.0
  0
POINT
  5
D69
330
D61
100
AcDbEntity
  8
Defpoints
 62
     0
100
AcDbPoint
 10
15.62569579844845
 20
10.00019833783685
 30
0.0
  0
POINT
  5
D6A
330
D61
100
AcDbEntity
  8
Defpoints
 62
     0
100
AcDbPoint
 10
16.4672714469077
 20
0.0
 30
0.0
  0
POINT
  5
D6B
330
D61
100
AcDbEntity
  8
Defpoints
 62
     0
100
AcDbPoint
 10
3.125
 20
0.0000000000000008
 30
0.0
  0
ENDBLK
  5
D6C
330
D61
100
AcDbEntity
  8
0
100
AcDbBlockEnd
  0
BLOCK
  5
D73
330
D72
100
AcDbEntity
  8
0
100
AcDbBlockBegin
  2
*D15
 70
     1
 10
0.0
 20
0.0
 30
0.0
  3
*D15
  1
*D15
  0
LINE
  5
D75
330
D72
100
AcDbEntity
  8
文字
 62
     0
370
    -2
100
AcDbLine
 10
45.12225888396523
 20
68.36660285350285
 30
0.0
 11
31.99656308551678
 21
68.36660285350285
 31
0.0
  0
LINE
  5
D76
330
D72
100
AcDbEntity
  8
文字
 62
     0
370
    -2
100
AcDbLine
 10
45.96383453242449
 20
58.36640451566601
 30
0.0
 11
31.99656308551678
 21
58.36640451566601
 31
0.0
  0
LINE
  5
D77
330
D72
100
AcDbEntity
  8
文字
 62
     0
370
    -2
100
AcDbLine
 10
33.24656308551678
 20
65.86660285350285
 30
0.0
 11
33.24656308551678
 21
60.86640451566601
 31
0.0
  0
SOLID
  5
D78
330
D72
100
AcDbEntity
  8
文字
 62
     0
100
AcDbTrace
 10
33.66322975218345
 20
65.86660285350285
 30
0.0
 11
32.82989641885012
 21
65.86660285350285
 31
0.0
 12
33.24656308551678
 22
68.36660285350285
 32
0.0
 13
33.24656308551678
 23
68.36660285350285
 33
0.0
  0
SOLID
  5
D79
330
D72
100
AcDbEntity
  8
文字
 62
     0
100
AcDbTrace
 10
32.82989641885012
 20
60.86640451566601
 30
0.0
 11
33.66322975218345
 21
60.86640451566601
 31
0.0
 12
33.24656308551678
 22
58.36640451566601
 32
0.0
 13
33.24656308551678
 23
58.36640451566601
 33
0.0
  0
MTEXT
  5
D7A
330
D72
100
AcDbEntity
  8
文字
 62
     0
100
AcDbMText
 10
31.37156308551678
 20
63.52272774777597
 30
0.0
 40
2.5
 41
0.0
 46
0.0
 71
     5
 72
     1
  1
10
 11
0.0
 21
1.0
 31
0.0
 73
     1
 44
1.0
  0
POINT
  5
D7B
330
D72
100
AcDbEntity
  8
Defpoints
 62
     0
100
AcDbPoint
 10
45.74725888396523
 20
68.36660285350285
 30
0.0
  0
POINT
  5
D7C
330
D72
100
AcDbEntity
  8
Defpoints
 62
     0
100
AcDbPoint
 10
46.58883453242449
 20
58.36640451566601
 30
0.0
  0
POINT
  5
D7D
330
D72
100
AcDbEntity
  8
Defpoints
 62
     0
100
AcDbPoint
 10
33.24656308551678
 20
58.36640451566601
 30
0.0
  0
ENDBLK
  5
D74
330
D72
100
AcDbEntity
  8
0
100
AcDbBlockEnd
  0
ENDSEC
  0
SECTION
  2
ENTITIES
  0
CIRCLE
  5
640
330
21
100
AcDbEntity
  8
実線
100
AcDbCircle
 10
170.6701082788034
 20
83.69808928648978
 30
0.0
 40
30.0
  0
LINE
  5
88B
330
21
100
AcDbEntity
  8
中心線
100
AcDbLine
 10
170.6701082788034
 20
83.69808928648978
 30
0.0
 11
170.6701082788034
 21
126.4654159610181
 31
0.0
  0
LINE
  5
88C
330
21
100
AcDbEntity
  8
中心線
100
AcDbLine
 10
170.6701082788034
 20
83.69808928648978
 30
0.0
 11
170.6701082788034
 21
47.28773247492254
 31
0.0
  0
LINE
  5
98C
102
{ACAD_REACTORS
330
A8F
102
}
330
21
100
AcDbEntity
  8
中心線
100
AcDbLine
 10
170.6701082788034
 20
83.69808928648978
 30
0.0
 11
128.1438070943584
 21
83.69808928648978
 31
0.0
  0
LINE
  5
98D
102
{ACAD_REACTORS
330
A8F
102
}
330
21
100
AcDbEntity
  8
中心線
100
AcDbLine
 10
170.6701082788034
 20
83.69808928648978
 30
0.0
 11
215.1299956925687
 21
83.69808928648978
 31
0.0
  0
LINE
  5
9F1
330
21
100
AcDbEntity
  8
実線
100
AcDbLine
 10
74.9883025909753
 20
76.19792369086764
 30
0.0
 11
89.8608812499695
 21
76.19792369086764
 31
0.0
  0
LINE
  5
9F5
330
21
100
AcDbEntity
  8
実線
100
AcDbLine
 10
94.4883025909753
 20
76.19792369086764
 30
0.0
 11
104.160973150297
 21
69.1967526193586
 31
0.0
  0
LINE
  5
9F6
102
{ACAD_REACTORS
330
A0C
102
}
330
21
100
AcDbEntity
  8
実線
100
AcDbLine
 10
104.9883025909752
 20
67.57661566240094
 30
0.0
 11
104.9883025909753
 21
60.07582763170534
 31
0.0
  0
LINE
  5
9F7
330
21
100
AcDbEntity
  8
実線
100
AcDbLine
 10
102.9883025909753
 20
58.07582763170534
 30
0.0
 11
46.98830259097527
 21
58.07582763170532
 31
0.0
  0
LINE
  5
9F8
330
21
100
AcDbEntity
  8
実線
100
AcDbLine
 10
44.98830259097527
 20
60.07582763170532
 30
0.0
 11
44.98830259097529
 21
67.57661566240093
 31
0.0
  0
LINE
  5
9F9
330
21
100
AcDbEntity
  8
実線
100
AcDbLine
 10
45.81563203165352
 20
69.19675261935859
 30
0.0
 11
55.48830259097527
 21
76.19792369086764
 31
0.0
  0
LINE
  5
9FA
330
21
100
AcDbEntity
  8
実線
100
AcDbLine
 10
55.48830259097527
 20
76.19792369086764
 30
0.0
 11
74.98830259097527
 21
76.19792369086764
 31
0.0
  0
LINE
  5
9FB
330
21
100
AcDbEntity
  8
実線
100
AcDbLine
 10
44.98830259097527
 20
68.47582763170533
 30
0.0
 11
104.9883025909753
 21
68.47582763170533
 31
0.0
  0
LINE
  5
A02
102
{ACAD_REACTORS
330
A09
330
BD9
102
}
330
21
100
AcDbEntity
  8
実線
100
AcDbLine
 10
89.8608812499695
 20
76.19792369086764
 30
0.0
 11
94.4883025909753
 21
76.19792369086764
 31
0.0
  0
ARC
  5
A03
330
21
100
AcDbEntity
  8
実線
100
AcDbCircle
 10
46.98830259097527
 20
60.07582763170532
 30
0.0
 40
2.0
100
AcDbArc
 50
180.0
 51
270.0
  0
ARC
  5
A04
102
{ACAD_REACTORS
330
A09
330
A0C
102
}
330
21
100
AcDbEntity
  8
実線
100
AcDbCircle
 10
102.9883025909753
 20
60.07582763170534
 30
0.0
 40
2.0
100
AcDbArc
 50
270.0
 51
0.0
  0
ARC
  5
A05
330
21
100
AcDbEntity
  8
実線
100
AcDbCircle
 10
102.9883025909752
 20
67.57661566240094
 30
0.0
 40
2.0
100
AcDbArc
 50
0.0
 51
54.10262248829268
  0
ARC
  5
A06
330
21
100
AcDbEntity
  8
実線
100
AcDbCircle
 10
46.98830259097529
 20
67.57661566240093
 30
0.0
 40
2.0
100
AcDbArc
 50
125.8973775117073
 51
180.0
  0
DIMENSION
  5
A07
102
{ACAD_REACTORS
330
A09
102
}
102
{ACAD_XDICTIONARY
360
A08
102
}
330
21
100
AcDbEntity
  8
文字
100
AcDbDimension
280
     0
  2
*D0
 10
118.4472066414391
 20
58.07582763170533
 30
0.0
 11
116.5722066414391
 21
67.1368756612865
 31
0.0
 70
    32
  1
18
 71
     5
 42
18.1220960591623
 73
     0
 74
     0
 75
     0
  3
ISO-25
100
AcDbAlignedDimension
 13
94.4883025909753
 23
76.19792369086764
 33
0.0
 14
102.9883025909753
 24
58.07582763170534
 34
0.0
 50
90.0
100
AcDbRotatedDimension
  0
DIMENSION
  5
A0A
102
{ACAD_REACTORS
330
A0C
102
}
102
{ACAD_XDICTIONARY
360
A0B
102
}
330
21
100
AcDbEntity
  8
文字
100
AcDbDimension
280
     0
  2
*D1
 10
104.9883025909752
 20
36.70509486733472
 30
0.0
 11
74.98830259097525
 21
38.58009486733472
 31
0.0
 70
    32
  1
%%c<>
 71
     5
 42
59.99999999999997
 73
     0
 74
     0
 75
     0
  3
ISO-25
100
AcDbAlignedDimension
 13
44.98830259097527
 23
59.45082763170532
 33
0.0
 14
104.9883025909752
 24
60.07582763170534
 34
0.0
100
AcDbRotatedDimension
  0
LINE
  5
A5A
330
21
100
AcDbEntity
  8
実線
100
AcDbLine
 10
66.53830259097528
 20
76.19792369086764
 30
0.0
 11
83.0614601037485
 21
76.19792369086764
 31
0.0
  0
CIRCLE
  5
A77
102
{ACAD_REACTORS
330
A8F
102
}
330
21
100
AcDbEntity
  8
実線
100
AcDbCircle
 10
170.6701082788034
 20
83.69808928648978
 30
0.0
 40
19.5
  0
DIMENSION
  5
A78
102
{ACAD_REACTORS
330
A8F
102
}
102
{ACAD_XDICTIONARY
360
A85
102
}
330
21
100
AcDbEntity
  8
文字
100
AcDbDimension
280
     0
  2
*D2
 10
190.1701082788034
 20
31.57663845559475
 30
0.0
 11
170.6701082788034
 21
33.45163845559475
 31
0.0
 70
    32
  1
%%c<>
 71
     5
 42
39.0
 73
     0
 74
     0
 75
     0
  3
ISO-25
100
AcDbAlignedDimension
 13
151.1701082788034
 23
83.69808928648978
 33
0.0
 14
190.1701082788034
 24
83.69808928648978
 34
0.0
100
AcDbRotatedDimension
  0
LWPOLYLINE
  5
ADF
102
{ACAD_REACTORS
330
BC1
330
BD9
102
}
330
21
100
AcDbEntity
  8
実線
100
AcDbPolyline
 90
        4
 70
     0
 43
0.0
 10
88.83830259097526
 20
77.19792484757468
 10
88.83830259097526
 20
86.19792484757467
 10
61.13830259097527
 20
86.19792484757467
 10
61.13830259097527
 20
77.19792484757467
  0
LINE
  5
AE0
330
21
100
AcDbEntity
  8
実線
100
AcDbLine
 10
68.13830259097527
 20
86.19792484757467
 30
0.0
 11
68.13830259097527
 21
77.19792484757467
 31
0.0
  0
LINE
  5
AE1
330
21
100
AcDbEntity
  8
実線
100
AcDbLine
 10
81.83830259097526
 20
86.19792484757467
 30
0.0
 11
81.83830259097526
 21
77.19792484757467
 31
0.0
  0
ARC
  5
AE2
330
21
100
AcDbEntity
  8
実線
100
AcDbCircle
 10
64.63830259097527
 20
82.82291718439893
 30
0.0
 40
6.624993493531275
100
AcDbArc
 50
238.1091731852506
 51
301.8908268147494
  0
ARC
  5
AE3
330
21
100
AcDbEntity
  8
実線
100
AcDbCircle
 10
74.98830259097527
 20
100.1591748475746
 30
0.0
 40
23.96124999999989
100
AcDbArc
 50
253.3886475888884
 51
286.6113524111116
  0
ARC
  5
AE4
330
21
100
AcDbEntity
  8
実線
100
AcDbCircle
 10
85.33830259097523
 20
82.82267365207463
 30
0.0
 40
6.624786722131047
100
AcDbArc
 50
238.1080604549013
 51
301.8919395450987
  0
LWPOLYLINE
  5
AE5
330
21
100
AcDbEntity
  8
実線
100
AcDbPolyline
 90
        6
 70
     1
 43
0.0
 10
66.98830259097527
 20
86.19792484757467
 10
82.98830259097527
 20
86.19792484757467
 10
82.98830259097527
 20
159.1979248475747
 10
80.98830259097527
 20
161.1979248475747
 10
68.98830259097527
 20
161.1979248475747
 10
66.98830259097527
 20
159.1979248475747
  0
LINE
  5
AE6
330
21
100
AcDbEntity
  8
実線
370
    20
100
AcDbLine
 10
68.98830259097527
 20
161.1979248475747
 30
0.0
 11
68.98830259097524
 21
86.19792484757467
 31
0.0
  0
LINE
  5
AE7
330
21
100
AcDbEntity
  8
実線
370
    20
100
AcDbLine
 10
80.98830259097527
 20
161.1979248475747
 30
0.0
 11
80.98830259097524
 21
86.19792484757467
 31
0.0
  0
LINE
  5
AE8
330
21
100
AcDbEntity
  8
実線
100
AcDbLine
 10
64.63830259097527
 20
76.19792369086765
 30
0.0
 11
85.36037214493608
 21
76.19792369086765
 31
0.0
  0
LINE
  5
AE9
102
{ACAD_REACTORS
330
AEC
102
}
330
21
100
AcDbEntity
  8
実線
370
    20
100
AcDbLine
 10
66.98830259097527
 20
159.1979248475747
 30
0.0
 11
82.98830259097527
 21
159.1979248475747
 31
0.0
  0
DIMENSION
  5
AEA
102
{ACAD_REACTORS
330
AEC
102
}
102
{ACAD_XDICTIONARY
360
AEB
102
}
330
21
100
AcDbEntity
  8
文字
100
AcDbDimension
280
     0
  2
*D3
 10
82.98830259097527
 20
182.5558584576548
 30
0.0
 11
74.98830259097527
 21
184.4308584576548
 31
0.0
 70
    32
  1
{\fArial|b0|i0|c0|p32;M}16
 71
     5
 42
16.0
 73
     0
 74
     0
 75
     0
  3
ISO-25
100
AcDbAlignedDimension
 13
66.98830259097527
 23
159.1979248475747
 33
0.0
 14
82.98830259097527
 24
159.1979248475747
 34
0.0
100
AcDbRotatedDimension
  0
LINE
  5
AF0
330
21
100
AcDbEntity
  8
実線
100
AcDbLine
 10
65.40132016242084
 20
76.19792369086763
 30
0.0
 11
84.57528501952972
 21
76.19792369086765
 31
0.0
  0
LINE
  5
AF1
330
21
100
AcDbEntity
  8
中心線
100
AcDbLine
 10
74.98830259097527
 20
168.4664982329498
 30
0.0
 11
74.9883025909753
 21
44.96047495354874
 31
0.0
  0
CIRCLE
  5
B86
330
21
100
AcDbEntity
  8
実線
100
AcDbCircle
 10
170.6701082788034
 20
83.69808928648978
 30
0.0
 40
8.0
  0
CIRCLE
  5
B87
330
21
100
AcDbEntity
  8
実線
370
    30
100
AcDbCircle
 10
170.6701082788034
 20
83.69808928648978
 30
0.0
 40
6.0
  0
LWPOLYLINE
  5
B88
102
{ACAD_REACTORS
330
BA0
102
}
330
21
100
AcDbEntity
  8
実線
100
AcDbPolyline
 90
        6
 70
     1
 43
0.0
 10
182.664560121218
 20
90.62308928648989
 10
170.6701082788034
 20
97.54808928648988
 10
158.6756564363889
 20
90.62308928648989
 10
158.6756564363889
 20
76.77308928648988
 10
170.6701082788034
 20
69.84808928648985
 10
182.664560121218
 20
76.77308928648988
  0
DIMENSION
  5
B89
102
{ACAD_REACTORS
330
BA0
102
}
102
{ACAD_XDICTIONARY
360
B96
102
}
330
21
100
AcDbEntity
  8
文字
100
AcDbDimension
280
     0
  2
*D4
 10
182.664560121218
 20
40.38004300926016
 30
0.0
 11
170.6701082788035
 21
42.25504300926016
 31
0.0
 70
    32
  1
24
 71
     5
 42
23.98890368482901
 73
     0
 74
     0
 75
     0
  3
ISO-25
100
AcDbAlignedDimension
 13
158.6756564363889
 23
76.77308928648988
 33
0.0
 14
182.664560121218
 24
76.77308928648988
 34
0.0
100
AcDbRotatedDimension
  0
DIMENSION
  5
BAA
102
{ACAD_REACTORS
330
BC1
102
}
102
{ACAD_XDICTIONARY
360
BB7
102
}
330
21
100
AcDbEntity
  8
文字
100
AcDbDimension
280
     0
  2
*D5
 10
118.4472066414391
 20
86.19792484757465
 30
0.0
 11
116.5722066414391
 21
123.6979248475747
 31
0.0
 70
    32
 71
     5
 42
75.0
 73
     0
 74
     0
 75
     0
  3
ISO-25
100
AcDbAlignedDimension
 13
82.98830259097528
 23
161.1979248475747
 33
0.0
 14
88.83830259097526
 24
86.19792484757467
 34
0.0
 50
90.0
100
AcDbRotatedDimension
  0
DIMENSION
  5
BC2
102
{ACAD_REACTORS
330
BD9
102
}
102
{ACAD_XDICTIONARY
360
BCF
102
}
330
21
100
AcDbEntity
  8
文字
100
AcDbDimension
280
     0
  2
*D6
 10
118.4472066414391
 20
76.19792369086763
 30
0.0
 11
116.5722066414391
 21
81.19792426922116
 31
0.0
 70
    32
 71
     5
 42
10.00000115670703
 73
     0
 74
     0
 75
     0
  3
ISO-25
100
AcDbAlignedDimension
 13
88.83830259097526
 23
86.19792484757467
 33
0.0
 14
89.8608812499695
 24
76.19792369086764
 34
0.0
 50
90.0
100
AcDbRotatedDimension
  0
MTEXT
  5
D36
330
21
100
AcDbEntity
  8
文字・寸法線
 62
     0
100
AcDbMText
 10
88.41960416722614
 20
212.7922811856832
 30
0.0
 40
6.0
 41
0.0
 46
6.0
 71
     9
 72
     1
  1
{\fＭＳ ゴシック|b0|i0|c0|p0;S-W M16X75}
 73
     1
 44
1.0
1001
ACAD
1000
ACAD_MTEXT_DEFINED_HEIGHT_BEGIN
1070
    46
1040
6.0
1000
ACAD_MTEXT_DEFINED_HEIGHT_END
  0
DIMENSION
  5
D70
102
{ACAD_XDICTIONARY
360
D71
102
}
330
21
100
AcDbEntity
  8
文字
100
AcDbDimension
280
     0
  2
*D15
 10
33.24656308551678
 20
58.36640451566601
 30
0.0
 11
33.24656308551678
 21
63.52272774777597
 31
0.0
 70
   160
 71
     5
 42
10.00019833783685
 73
     0
 74
     0
 75
     0
  3
ISO-25
100
AcDbAlignedDimension
 13
45.74725888396523
 23
68.36660285350285
 33
0.0
 14
46.58883453242449
 24
58.36640451566601
 34
0.0
 50
90.0
100
AcDbRotatedDimension
  0
VIEWPORT
  5
D0C
330
CFD
100
AcDbEntity
 67
     1
  8
0
100
AcDbViewport
 10
202.5
 20
128.5
 30
0.0
 40
486.0
 41
308.4
 68
     1
 69
     1
 12
202.5
 22
128.5
 13
0.0
 23
0.0
 14
0.5
 24
0.5
 15
0.0
 25
0.0
 16
0.0
 26
0.0
 36
1.0
 17
0.0
 27
0.0
 37
0.0
 42
50.0
 43
0.0
 44
0.0
 45
308.4
 50
0.0
 51
0.0
 72
   100
 90
   557152
  1

281
     0
 71
     1
 74
     0
110
0.0
120
0.0
130
0.0
111
1.0
121
0.0
131
0.0
112
0.0
122
1.0
132
0.0
 79
     0
146
0.0
170
     0
 61
     5
348
CBF
292
     1
282
     1
141
0.0
142
0.0
 63
   256
361
D0E
  0
VIEWPORT
  5
D0D
330
CFD
100
AcDbEntity
 67
     1
  8
0
100
AcDbViewport
 10
202.5
 20
128.5
 30
0.0
 40
324.0
 41
205.6
 68
     2
 69
     2
 12
263.2378743717402
 22
105.0
 13
0.0
 23
0.0
 14
0.5
 24
0.5
 15
0.0
 25
0.0
 16
0.0
 26
0.0
 36
1.0
 17
0.0
 27
0.0
 37
0.0
 42
50.0
 43
0.0
 44
0.0
 45
340.7663031496691
 50
0.0
 51
0.0
 72
   100
 90
   557152
  1

281
     0
 71
     1
 74
     0
110
0.0
120
0.0
130
0.0
111
1.0
121
0.0
131
0.0
112
0.0
122
1.0
132
0.0
 79
     0
146
0.0
170
     0
 61
     5
348
CBF
292
     1
282
     1
141
0.0
142
0.0
 63
   256
  0
ENDSEC
  0
SECTION
  2
OBJECTS
  0
DICTIONARY
  5
C
330
0
100
AcDbDictionary
281
     1
  3
ACAD_COLOR
350
1C
  3
ACAD_DETAILVIEWSTYLE
350
D0A
  3
ACAD_GROUP
350
D
  3
ACAD_IMAGE_VARS
350
CFC
  3
ACAD_LAYOUT
350
1A
  3
ACAD_MATERIAL
350
1B
  3
ACAD_MLEADERSTYLE
350
D07
  3
ACAD_MLINESTYLE
350
17
  3
ACAD_PLOTSETTINGS
350
19
  3
ACAD_PLOTSTYLENAME
350
E
  3
ACAD_SCALELIST
350
CD3
  3
ACAD_SECTIONVIEWSTYLE
350
D0B
  3
ACAD_TABLESTYLE
350
CF8
  3
ACAD_VISUALSTYLE
350
CBA
  3
AcadDim
350
6E9
  3
ACDB_RECOMPOSE_DATA
350
D80
  3
AcDbVariableDictionary
350
D01
  3
APPDATA
350
CFA
  0
SUN
  5
CFB
330
CB9
100
AcDbSun
 90
        1
290
     0
 63
     7
421
 16777215
 40
1.0
291
     1
 91
  2455826
 92
 54000000
292
     0
 70
     2
 71
   256
280
     1
  0
DICTIONARY
  5
A08
330
A07
100
AcDbDictionary
280
     1
281
     1
  3
ACAD_DIMASSOC
360
A09
  0
DICTIONARY
  5
A0B
330
A0A
100
AcDbDictionary
280
     1
281
     1
  3
ACAD_DIMASSOC
360
A0C
  0
DICTIONARY
  5
A85
330
A78
100
AcDbDictionary
280
     1
281
     1
  3
ACAD_DIMASSOC
360
A8F
  0
DICTIONARY
  5
AEB
330
AEA
100
AcDbDictionary
280
     1
281
     1
  3
ACAD_DIMASSOC
360
AEC
  0
DICTIONARY
  5
B96
330
B89
100
AcDbDictionary
280
     1
281
     1
  3
ACAD_DIMASSOC
360
BA0
  0
DICTIONARY
  5
BB7
330
BAA
100
AcDbDictionary
280
     1
281
     1
  3
ACAD_DIMASSOC
360
BC1
  0
DICTIONARY
  5
BCF
330
BC2
100
AcDbDictionary
280
     1
281
     1
  3
ACAD_DIMASSOC
360
BD9
  0
DICTIONARY
  5
D71
330
D70
100
AcDbDictionary
280
     1
281
     1
  0
SUN
  5
D0E
330
D0C
100
AcDbSun
 90
        1
290
     0
 63
     7
421
 16777215
 40
1.0
291
     1
 91
  2455826
 92
 54000000
292
     0
 70
     2
 71
   256
280
     1
  0
DICTIONARY
  5
1C
102
{ACAD_REACTORS
330
C
102
}
330
C
100
AcDbDictionary
281
     1
  0
DICTIONARY
  5
D0A
102
{ACAD_REACTORS
330
C
102
}
330
C
100
AcDbDictionary
281
     1
  0
DICTIONARY
  5
D
102
{ACAD_REACTORS
330
C
102
}
330
C
100
AcDbDictionary
281
     1
  0
RASTERVARIABLES
  5
CFC
102
{ACAD_REACTORS
330
C
102
}
330
C
100
AcDbRasterVariables
 90
        0
 70
     1
 71
     1
 72
     1
  0
DICTIONARY
  5
1A
102
{ACAD_REACTORS
330
C
102
}
330
C
100
AcDbDictionary
281
     1
  3
Model
350
24
  3
Sheet1
350
CFE
  0
DICTIONARY
  5
1B
102
{ACAD_REACTORS
330
C
102
}
330
C
100
AcDbDictionary
281
     1
  3
ByBlock
350
CF6
  3
ByLayer
350
CF5
  3
Global
350
CF7
  0
DICTIONARY
  5
D07
102
{ACAD_REACTORS
330
C
102
}
330
C
100
AcDbDictionary
281
     1
  0
DICTIONARY
  5
17
102
{ACAD_REACTORS
330
C
102
}
330
C
100
AcDbDictionary
281
     1
  3
Standard
350
18
  0
DICTIONARY
  5
19
102
{ACAD_REACTORS
330
C
102
}
330
C
100
AcDbDictionary
281
     1
  0
ACDBDICTIONARYWDFLT
  5
E
102
{ACAD_REACTORS
330
C
102
}
330
C
100
AcDbDictionary
281
     1
  3
Normal
350
F
100
AcDbDictionaryWithDefault
340
F
  0
DICTIONARY
  5
CD3
102
{ACAD_REACTORS
330
C
102
}
330
C
100
AcDbDictionary
281
     1
  3
A0
350
CD4
  3
A1
350
CD5
  3
A2
350
CD6
  3
A3
350
CD7
  3
A4
350
CD8
  3
A5
350
CD9
  3
A6
350
CDA
  3
A7
350
CDB
  3
A8
350
CDC
  3
A9
350
CDD
  3
B0
350
CDE
  3
B1
350
CDF
  3
B2
350
CE0
  3
B3
350
CE1
  3
B4
350
CE2
  3
B5
350
CE3
  3
B6
350
CE4
  3
B7
350
CE5
  3
B8
350
CE6
  3
B9
350
CE7
  3
C0
350
CE8
  3
C1
350
CE9
  3
C2
350
CEA
  3
C3
350
CEB
  3
C4
350
CEC
  3
C5
350
CED
  3
C6
350
CEE
  3
C7
350
CEF
  3
C8
350
CF0
  3
C9
350
CF1
  3
D0
350
CF2
  3
D1
350
CF3
  3
D2
350
CF4
  0
DICTIONARY
  5
D0B
102
{ACAD_REACTORS
330
C
102
}
330
C
100
AcDbDictionary
281
     1
  0
DICTIONARY
  5
CF8
102
{ACAD_REACTORS
330
C
102
}
330
C
100
AcDbDictionary
281
     1
  3
Standard
350
CF9
  0
DICTIONARY
  5
CBA
102
{ACAD_REACTORS
330
C
102
}
330
C
100
AcDbDictionary
281
     1
  3
2dWireframe
350
CBF
  3
Basic
350
CC2
  3
Brighten
350
CC6
  3
ColorChange
350
CCA
  3
Conceptual
350
CC4
  3
Dim
350
CC5
  3
EdgeColorOff
350
CCD
  3
Facepattern
350
CC9
  3
Flat
350
CBB
  3
FlatWithEdges
350
CBC
  3
Gouraud
350
CBD
  3
GouraudWithEdges
350
CBE
  3
Hidden
350
CC1
  3
JitterOff
350
CCB
  3
Linepattern
350
CC8
  3
OverhangOff
350
CCC
  3
Realistic
350
CC3
  3
Shaded
350
CD2
  3
Shaded with edges
350
CD1
  3
Shades of Gray
350
CCE
  3
Sketchy
350
CCF
  3
Thicken
350
CC7
  3
Wireframe
350
CC0
  3
X-Ray
350
CD0
  0
XRECORD
  5
6E9
102
{ACAD_REACTORS
330
C
102
}
330
C
100
AcDbXrecord
280
     1
 90
   990106
  3

 60
     0
 61
     0
 62
     1
 63
     3
 64
     1
 65
     0
 66
     0
 67
     3
 68
     1
 69
     0
 70
     0
 71
     0
 72
     0
 40
0.0
170
     2
340
0
  0
XRECORD
  5
D80
102
{ACAD_REACTORS
330
C
102
}
330
C
100
AcDbXrecord
280
     1
 90
        1
330
CF9
  0
DICTIONARY
  5
D01
102
{ACAD_REACTORS
330
C
102
}
330
C
100
AcDbDictionary
281
     1
  3
CANNOSCALE
350
D02
  3
CTABLESTYLE
350
D06
  3
MSLTSCALE
350
D08
  3
XCLIPFRAME
350
D09
  0
DICTIONARY
  5
CFA
102
{ACAD_REACTORS
330
C
102
}
330
C
100
AcDbDictionary
281
     1
  0
DIMASSOC
  5
A09
102
{ACAD_REACTORS
330
A08
102
}
330
A08
100
AcDbDimAssoc
330
A07
 90
        3
 70
     0
 71
     0
  1
AcDbOsnapPointRef
 72
     1
331
A02
 73
     2
 91
        0
 40
1.0
 10
0.0
 20
0.0
 30
2.000000000000000E+50
 75
     0
  1
AcDbOsnapPointRef
 72
    13
331
A04
 73
     2
 91
        0
 40
4.71238898038469
 10
0.0
 20
0.0
 30
2.000000000000000E+50
 75
     0
  0
DIMASSOC
  5
A0C
102
{ACAD_REACTORS
330
A0B
102
}
330
A0B
100
AcDbDimAssoc
330
A0A
 90
        2
 70
     0
 71
     0
  1
AcDbOsnapPointRef
 72
     6
331
9F6
 73
     2
 91
        0
 40
0.9999999999999999
 10
0.0
 20
0.0
 30
0.0
332
A04
 74
     2
 92
        0
 75
     0
  0
DIMASSOC
  5
A8F
102
{ACAD_REACTORS
330
A85
102
}
330
A85
100
AcDbDimAssoc
330
A78
 90
        3
 70
     0
 71
     0
  1
AcDbOsnapPointRef
 72
     6
331
98C
 73
     2
 91
        0
 40
0.4585397614390354
 10
0.0
 20
0.0
 30
0.0
332
A77
 74
     2
 92
        0
 75
     0
  1
AcDbOsnapPointRef
 72
     6
331
98D
 73
     2
 91
        0
 40
0.438597601890522
 10
0.0
 20
0.0
 30
0.0
332
A77
 74
     2
 92
        0
 75
     0
  0
DIMASSOC
  5
AEC
102
{ACAD_REACTORS
330
AEB
102
}
330
AEB
100
AcDbDimAssoc
330
AEA
 90
        1
 70
     0
 71
     0
  1
AcDbOsnapPointRef
 72
    13
331
AE9
 73
     2
 91
        0
 40
0.0
 10
0.0
 20
0.0
 30
2.000000000000000E+50
 75
     0
  0
DIMASSOC
  5
BA0
102
{ACAD_REACTORS
330
B96
102
}
330
B96
100
AcDbDimAssoc
330
B89
 90
        3
 70
     0
 71
     0
  1
AcDbOsnapPointRef
 72
     1
331
B88
 73
     2
 91
        3
 40
1.0
 10
0.0
 20
0.0
 30
2.000000000000000E+50
 75
     0
  1
AcDbOsnapPointRef
 72
     1
331
B88
 73
     2
 91
        5
 40
0.9999999999999999
 10
0.0
 20
0.0
 30
2.000000000000000E+50
 75
     0
  0
DIMASSOC
  5
BC1
102
{ACAD_REACTORS
330
BB7
102
}
330
BB7
100
AcDbDimAssoc
330
BAA
 90
        2
 70
     0
 71
     0
  1
AcDbOsnapPointRef
 72
     1
331
ADF
 73
     2
 91
        1
 40
1.0
 10
0.0
 20
0.0
 30
2.000000000000000E+50
 75
     0
  0
DIMASSOC
  5
BD9
102
{ACAD_REACTORS
330
BCF
102
}
330
BCF
100
AcDbDimAssoc
330
BC2
 90
        3
 70
     0
 71
     0
  1
AcDbOsnapPointRef
 72
     1
331
ADF
 73
     2
 91
        1
 40
1.0
 10
0.0
 20
0.0
 30
2.000000000000000E+50
 75
     0
  1
AcDbOsnapPointRef
 72
    13
331
A02
 73
     2
 91
        0
 40
0.0
 10
0.0
 20
0.0
 30
2.000000000000000E+50
 75
     0
  0
LAYOUT
  5
24
102
{ACAD_REACTORS
330
1A
102
}
330
1A
100
AcDbPlotSettings
  1

  2
\\SF05\Brother HL-1440 series
  4
A4
  6

 40
6.72041654586792
 41
5.027085304260254
 42
6.889755249023438
 43
5.027069091796875
 44
209.9733276367188
 45
296.9259948730469
 46
-6.82
 47
-5.06
 48
0.0
 49
0.0
140
297.0000000000001
141
210.0
142
1.0
143
1.0
 70
 11956
 72
     1
 73
     1
 74
     4
  7

 75
    16
 76
     1
 77
     2
 78
   300
147
1.0
148
0.0
149
0.0
100
AcDbLayout
  1
Model
 70
     1
 71
     0
 10
0.0
 20
0.0
 11
12.0
 21
9.0
 12
0.0
 22
0.0
 32
0.0
 14
30.12156308551678
 24
30.32663845559475
 34
0.0
 15
215.1299956925687
 25
218.7922811856832
 35
0.0
146
0.0
 13
0.0
 23
0.0
 33
0.0
 16
1.0
 26
0.0
 36
0.0
 17
0.0
 27
1.0
 37
0.0
 76
     0
330
21
331
CB9
  0
LAYOUT
  5
CFE
102
{ACAD_REACTORS
330
1A
102
}
330
1A
100
AcDbPlotSettings
  1

  2
none_device
  4
ISO_A3_(420.00_x_297.00_MM)
  6

 40
7.5
 41
20.0
 42
7.5
 43
20.0
 44
420.0
 45
297.0
 46
0.0
 47
0.0
 48
0.0
 49
0.0
140
0.0
141
0.0
142
1.0
143
1.0
 70
   688
 72
     1
 73
     0
 74
     5
  7

 75
    16
 76
     0
 77
     2
 78
   300
147
1.0
148
0.0
149
0.0
100
AcDbLayout
  1
Sheet1
 70
     1
 71
     1
 10
0.0
 20
0.0
 11
0.0
 21
0.0
 12
0.0
 22
0.0
 32
0.0
 14
0.0
 24
0.0
 34
0.0
 15
0.0
 25
0.0
 35
0.0
146
0.0
 13
0.0
 23
0.0
 33
0.0
 16
1.0
 26
0.0
 36
0.0
 17
0.0
 27
1.0
 37
0.0
 76
     0
330
CFD
331
D0C
  0
MATERIAL
  5
CF6
102
{ACAD_REACTORS
330
1B
102
}
330
1B
100
AcDbMaterial
  1
ByBlock
 72
     1
 94
      127
  0
MATERIAL
  5
CF5
102
{ACAD_REACTORS
330
1B
102
}
330
1B
100
AcDbMaterial
  1
ByLayer
 72
     1
 94
      127
  0
MATERIAL
  5
CF7
102
{ACAD_REACTORS
330
1B
102
}
330
1B
100
AcDbMaterial
  1
Global
 72
     1
 94
      127
  0
MLINESTYLE
  5
18
102
{ACAD_REACTORS
330
17
102
}
330
17
100
AcDbMlineStyle
  2
STANDARD
 70
     0
  3

 62
   256
 51
90.0
 52
90.0
 71
     2
 49
0.5
 62
   256
  6
BYLAYER
 49
-0.5
 62
   256
  6
BYLAYER
  0
ACDBPLACEHOLDER
  5
F
102
{ACAD_REACTORS
330
E
102
}
330
E
  0
SCALE
  5
CD4
102
{ACAD_REACTORS
330
CD3
102
}
330
CD3
100
AcDbScale
 70
     0
300
1:1
140
1.0
141
1.0
290
     1
  0
SCALE
  5
CD5
102
{ACAD_REACTORS
330
CD3
102
}
330
CD3
100
AcDbScale
 70
     0
300
1:2
140
1.0
141
2.0
290
     0
  0
SCALE
  5
CD6
102
{ACAD_REACTORS
330
CD3
102
}
330
CD3
100
AcDbScale
 70
     0
300
1:4
140
1.0
141
4.0
290
     0
  0
SCALE
  5
CD7
102
{ACAD_REACTORS
330
CD3
102
}
330
CD3
100
AcDbScale
 70
     0
300
1:5
140
1.0
141
5.0
290
     0
  0
SCALE
  5
CD8
102
{ACAD_REACTORS
330
CD3
102
}
330
CD3
100
AcDbScale
 70
     0
300
1:8
140
1.0
141
8.0
290
     0
  0
SCALE
  5
CD9
102
{ACAD_REACTORS
330
CD3
102
}
330
CD3
100
AcDbScale
 70
     0
300
1:10
140
1.0
141
10.0
290
     0
  0
SCALE
  5
CDA
102
{ACAD_REACTORS
330
CD3
102
}
330
CD3
100
AcDbScale
 70
     0
300
1:16
140
1.0
141
16.0
290
     0
  0
SCALE
  5
CDB
102
{ACAD_REACTORS
330
CD3
102
}
330
CD3
100
AcDbScale
 70
     0
300
1:20
140
1.0
141
20.0
290
     0
  0
SCALE
  5
CDC
102
{ACAD_REACTORS
330
CD3
102
}
330
CD3
100
AcDbScale
 70
     0
300
1:30
140
1.0
141
30.0
290
     0
  0
SCALE
  5
CDD
102
{ACAD_REACTORS
330
CD3
102
}
330
CD3
100
AcDbScale
 70
     0
300
1:40
140
1.0
141
40.0
290
     0
  0
SCALE
  5
CDE
102
{ACAD_REACTORS
330
CD3
102
}
330
CD3
100
AcDbScale
 70
     0
300
1:50
140
1.0
141
50.0
290
     0
  0
SCALE
  5
CDF
102
{ACAD_REACTORS
330
CD3
102
}
330
CD3
100
AcDbScale
 70
     0
300
1:100
140
1.0
141
100.0
290
     0
  0
SCALE
  5
CE0
102
{ACAD_REACTORS
330
CD3
102
}
330
CD3
100
AcDbScale
 70
     0
300
2:1
140
2.0
141
1.0
290
     0
  0
SCALE
  5
CE1
102
{ACAD_REACTORS
330
CD3
102
}
330
CD3
100
AcDbScale
 70
     0
300
4:1
140
4.0
141
1.0
290
     0
  0
SCALE
  5
CE2
102
{ACAD_REACTORS
330
CD3
102
}
330
CD3
100
AcDbScale
 70
     0
300
8:1
140
8.0
141
1.0
290
     0
  0
SCALE
  5
CE3
102
{ACAD_REACTORS
330
CD3
102
}
330
CD3
100
AcDbScale
 70
     0
300
10:1
140
10.0
141
1.0
290
     0
  0
SCALE
  5
CE4
102
{ACAD_REACTORS
330
CD3
102
}
330
CD3
100
AcDbScale
 70
     0
300
100:1
140
100.0
141
1.0
290
     0
  0
SCALE
  5
CE5
102
{ACAD_REACTORS
330
CD3
102
}
330
CD3
100
AcDbScale
 70
     0
300
1/128" = 1'-0"
140
0.0078125
141
12.0
290
     0
  0
SCALE
  5
CE6
102
{ACAD_REACTORS
330
CD3
102
}
330
CD3
100
AcDbScale
 70
     0
300
1/64" = 1'-0"
140
0.015625
141
12.0
290
     0
  0
SCALE
  5
CE7
102
{ACAD_REACTORS
330
CD3
102
}
330
CD3
100
AcDbScale
 70
     0
300
1/32" = 1'-0"
140
0.03125
141
12.0
290
     0
  0
SCALE
  5
CE8
102
{ACAD_REACTORS
330
CD3
102
}
330
CD3
100
AcDbScale
 70
     0
300
1/16" = 1'-0"
140
0.0625
141
12.0
290
     0
  0
SCALE
  5
CE9
102
{ACAD_REACTORS
330
CD3
102
}
330
CD3
100
AcDbScale
 70
     0
300
3/32" = 1'-0"
140
0.09375
141
12.0
290
     0
  0
SCALE
  5
CEA
102
{ACAD_REACTORS
330
CD3
102
}
330
CD3
100
AcDbScale
 70
     0
300
1/8" = 1'-0"
140
0.125
141
12.0
290
     0
  0
SCALE
  5
CEB
102
{ACAD_REACTORS
330
CD3
102
}
330
CD3
100
AcDbScale
 70
     0
300
3/16" = 1'-0"
140
0.1875
141
12.0
290
     0
  0
SCALE
  5
CEC
102
{ACAD_REACTORS
330
CD3
102
}
330
CD3
100
AcDbScale
 70
     0
300
1/4" = 1'-0"
140
0.25
141
12.0
290
     0
  0
SCALE
  5
CED
102
{ACAD_REACTORS
330
CD3
102
}
330
CD3
100
AcDbScale
 70
     0
300
3/8" = 1'-0"
140
0.375
141
12.0
290
     0
  0
SCALE
  5
CEE
102
{ACAD_REACTORS
330
CD3
102
}
330
CD3
100
AcDbScale
 70
     0
300
1/2" = 1'-0"
140
0.5
141
12.0
290
     0
  0
SCALE
  5
CEF
102
{ACAD_REACTORS
330
CD3
102
}
330
CD3
100
AcDbScale
 70
     0
300
3/4" = 1'-0"
140
0.75
141
12.0
290
     0
  0
SCALE
  5
CF0
102
{ACAD_REACTORS
330
CD3
102
}
330
CD3
100
AcDbScale
 70
     0
300
1" = 1'-0"
140
1.0
141
12.0
290
     0
  0
SCALE
  5
CF1
102
{ACAD_REACTORS
330
CD3
102
}
330
CD3
100
AcDbScale
 70
     0
300
1-1/2" = 1'-0"
140
1.5
141
12.0
290
     0
  0
SCALE
  5
CF2
102
{ACAD_REACTORS
330
CD3
102
}
330
CD3
100
AcDbScale
 70
     0
300
3" = 1'-0"
140
3.0
141
12.0
290
     0
  0
SCALE
  5
CF3
102
{ACAD_REACTORS
330
CD3
102
}
330
CD3
100
AcDbScale
 70
     0
300
6" = 1'-0"
140
6.0
141
12.0
290
     0
  0
SCALE
  5
CF4
102
{ACAD_REACTORS
330
CD3
102
}
330
CD3
100
AcDbScale
 70
     0
300
1'-0" = 1'-0"
140
12.0
141
12.0
290
     0
  0
TABLESTYLE
  5
CF9
102
{ACAD_REACTORS
330
CF8
102
}
102
{ACAD_XDICTIONARY
360
D7E
102
}
330
CF8
100
AcDbTableStyle
  3
Standard
 70
     0
 71
     0
 40
0.06
 41
0.06
280
     0
281
     0
  7
Standard
140
4.5
170
     2
 62
     0
 63
   257
283
     0
 90
        4
 91
        0
  1

274
    -2
284
     1
 64
     0
275
    -2
285
     1
 65
     0
276
    -2
286
     1
 66
     0
277
    -2
287
     1
 67
     0
278
    -2
288
     1
 68
     0
279
    -2
289
     1
 69
     0
  7
Standard
140
6.0
170
     5
 62
     0
 63
   257
283
     0
 90
        4
 91
        0
  1

274
    -2
284
     1
 64
     0
275
    -2
285
     1
 65
     0
276
    -2
286
     1
 66
     0
277
    -2
287
     1
 67
     0
278
    -2
288
     1
 68
     0
279
    -2
289
     1
 69
     0
  7
Standard
140
4.5
170
     5
 62
     0
 63
   257
283
     0
 90
        4
 91
        0
  1

274
    -2
284
     1
 64
     0
275
    -2
285
     1
 65
     0
276
    -2
286
     1
 66
     0
277
    -2
287
     1
 67
     0
278
    -2
288
     1
 68
     0
279
    -2
289
     1
 69
     0
  0
VISUALSTYLE
  5
CBF
102
{ACAD_REACTORS
330
CBA
102
}
330
CBA
100
AcDbVisualStyle
  2
2dWireframe
 70
     4
177
     3
291
     0
 70
    58
 90
        0
176
     1
 90
        2
176
     1
 90
        0
176
     1
 90
        0
176
     1
 40
0.6
176
     1
 40
30.0
176
     1
 62
     7
420
 16777215
176
     1
 90
        1
176
     1
 90
        4
176
     1
 62
     7
176
     1
 62
   257
176
     1
 90
        1
176
     1
 90
        1
176
     1
 40
1.0
176
     1
 90
        0
176
     1
 62
   257
176
     1
 40
1.0
176
     1
 90
        1
176
     1
 90
        6
176
     1
 90
        2
176
     1
 62
     7
176
     1
 90
        5
176
     1
 90
        0
176
     1
 90
        0
176
     1
290
     0
176
     1
 90
        1
176
     1
 40
0.0
176
     1
 90
        0
176
     1
290
     1
176
     1
290
     1
176
     1
290
     0
176
     1
290
     0
176
     1
290
     0
176
     1
290
     0
176
     1
290
     0
176
     1
290
     0
176
     1
290
     0
176
     1
 90
       50
176
     1
 40
0.0
176
     1
 40
1.0
176
     1
 90
        0
176
     1
 62
    18
420
        0
176
     1
 90
       50
176
     1
 90
        3
176
     1
 62
     5
420
      255
176
     1
290
     0
176
     1
 90
       50
176
     1
 90
       50
176
     1
 90
       50
176
     1
290
     0
176
     1
 90
       50
176
     1
 62
   256
176
     0
 40
1.0
176
     0
 90
        2
176
     1
  1
strokes_ogs.tif
176
     1
290
     0
176
     1
 40
1.0
176
     1
 40
1.0
176
     1
  0
VISUALSTYLE
  5
CC2
102
{ACAD_REACTORS
330
CBA
102
}
330
CBA
100
AcDbVisualStyle
  2
Basic
 70
     7
177
     3
291
     1
 70
    58
 90
        1
176
     1
 90
        0
176
     1
 90
        1
176
     1
 90
        0
176
     1
 40
0.6
176
     1
 40
30.0
176
     1
 62
     7
420
 16777215
176
     1
 90
        0
176
     1
 90
        4
176
     1
 62
     7
176
     1
 62
   257
176
     1
 90
        1
176
     1
 90
        1
176
     1
 40
1.0
176
     1
 90
        8
176
     1
 62
     7
176
     1
 40
1.0
176
     1
 90
        1
176
     1
 90
        6
176
     1
 90
        2
176
     1
 62
     7
176
     1
 90
        5
176
     1
 90
        0
176
     1
 90
        0
176
     1
290
     0
176
     1
 90
        1
176
     1
 40
0.0
176
     1
 90
        0
176
     1
290
     0
176
     1
290
     1
176
     1
290
     1
176
     1
290
     0
176
     1
290
     0
176
     1
290
     0
176
     1
290
     0
176
     1
290
     0
176
     1
290
     0
176
     1
 90
       50
176
     1
 40
0.0
176
     1
 40
1.0
176
     1
 90
        0
176
     1
 62
    18
420
        0
176
     1
 90
       50
176
     1
 90
        3
176
     1
 62
     5
420
      255
176
     1
290
     0
176
     1
 90
       50
176
     1
 90
       50
176
     1
 90
       50
176
     1
290
     0
176
     1
 90
       50
176
     1
 62
   256
176
     0
 40
1.0
176
     0
 90
        2
176
     1
  1
strokes_ogs.tif
176
     1
290
     0
176
     1
 40
1.0
176
     1
 40
1.0
176
     1
  0
VISUALSTYLE
  5
CC6
102
{ACAD_REACTORS
330
CBA
102
}
330
CBA
100
AcDbVisualStyle
  2
Brighten
 70
    12
177
     3
291
     1
 70
    58
 90
        2
176
     1
 90
        2
176
     1
 90
        0
176
     1
 90
        0
176
     1
 40
0.6
176
     1
 40
30.0
176
     1
 62
     7
420
 16777215
176
     1
 90
        1
176
     1
 90
        4
176
     1
 62
     7
176
     1
 62
   257
176
     1
 90
        1
176
     1
 90
        1
176
     1
 40
1.0
176
     1
 90
        8
176
     1
 62
     7
176
     1
 40
1.0
176
     1
 90
        1
176
     1
 90
        6
176
     1
 90
        2
176
     1
 62
     7
176
     1
 90
        5
176
     1
 90
        0
176
     1
 90
        0
176
     1
290
     0
176
     1
 90
        1
176
     1
 40
50.0
176
     1
 90
        0
176
     1
290
     0
176
     1
290
     1
176
     1
290
     1
176
     1
290
     0
176
     1
290
     0
176
     1
290
     0
176
     1
290
     0
176
     1
290
     0
176
     1
290
     0
176
     1
 90
       50
176
     1
 40
0.0
176
     1
 40
1.0
176
     1
 90
        0
176
     1
 62
    18
420
        0
176
     1
 90
       50
176
     1
 90
        3
176
     1
 62
     5
420
      255
176
     1
290
     0
176
     1
 90
       50
176
     1
 90
       50
176
     1
 90
       50
176
     1
290
     0
176
     1
 90
       50
176
     1
 62
   256
176
     0
 40
1.0
176
     0
 90
        2
176
     1
  1
strokes_ogs.tif
176
     1
290
     0
176
     1
 40
1.0
176
     1
 40
1.0
176
     1
  0
VISUALSTYLE
  5
CCA
102
{ACAD_REACTORS
330
CBA
102
}
330
CBA
100
AcDbVisualStyle
  2
ColorChange
 70
    16
177
     3
291
     1
 70
    58
 90
        2
176
     1
 90
        2
176
     1
 90
        3
176
     1
 90
        0
176
     1
 40
0.6
176
     1
 40
30.0
176
     1
 62
     8
420
  8421504
176
     1
 90
        1
176
     1
 90
        4
176
     1
 62
     7
176
     1
 62
   257
176
     1
 90
        1
176
     1
 90
        1
176
     1
 40
1.0
176
     1
 90
        8
176
     1
 62
     8
420
  8421504
176
     1
 40
1.0
176
     1
 90
        1
176
     1
 90
        6
176
     1
 90
        2
176
     1
 62
     7
176
     1
 90
        5
176
     1
 90
        0
176
     1
 90
        0
176
     1
290
     0
176
     1
 90
        1
176
     1
 40
0.0
176
     1
 90
        0
176
     1
290
     0
176
     1
290
     1
176
     1
290
     1
176
     1
290
     0
176
     1
290
     0
176
     1
290
     0
176
     1
290
     0
176
     1
290
     0
176
     1
290
     0
176
     1
 90
       50
176
     1
 40
0.0
176
     1
 40
1.0
176
     1
 90
        0
176
     1
 62
    18
420
        0
176
     1
 90
       50
176
     1
 90
        3
176
     1
 62
     5
420
      255
176
     1
290
     0
176
     1
 90
       50
176
     1
 90
       50
176
     1
 90
       50
176
     1
290
     0
176
     1
 90
       50
176
     1
 62
   256
176
     0
 40
1.0
176
     0
 90
        2
176
     1
  1
strokes_ogs.tif
176
     1
290
     0
176
     1
 40
1.0
176
     1
 40
1.0
176
     1
  0
VISUALSTYLE
  5
CC4
102
{ACAD_REACTORS
330
CBA
102
}
330
CBA
100
AcDbVisualStyle
  2
Conceptual
 70
     9
177
     3
291
     0
 70
    58
 90
        3
176
     1
 90
        2
176
     1
 90
        0
176
     1
 90
        0
176
     1
 40
0.6
176
     1
 40
30.0
176
     1
 62
     7
420
 16777215
176
     1
 90
        2
176
     1
 90
        2
176
     1
 62
     7
176
     1
 62
   257
176
     1
 90
        1
176
     1
 90
        1
176
     1
 40
179.0
176
     1
 90
        8
176
     1
 62
     7
176
     1
 40
1.0
176
     1
 90
        1
176
     1
 90
        6
176
     1
 90
        2
176
     1
 62
     7
176
     1
 90
        3
176
     1
 90
        0
176
     1
 90
        0
176
     1
290
     0
176
     1
 90
        1
176
     1
 40
0.0
176
     1
 90
        0
176
     1
290
     0
176
     1
290
     1
176
     1
290
     1
176
     1
290
     0
176
     1
290
     0
176
     1
290
     0
176
     1
290
     0
176
     1
290
     0
176
     1
290
     0
176
     1
 90
       50
176
     1
 40
0.0
176
     1
 40
1.0
176
     1
 90
        0
176
     1
 62
    18
420
        0
176
     1
 90
       50
176
     1
 90
        3
176
     1
 62
     5
420
      255
176
     1
290
     0
176
     1
 90
       50
176
     1
 90
       50
176
     1
 90
       50
176
     1
290
     0
176
     1
 90
       50
176
     1
 62
   256
176
     0
 40
1.0
176
     0
 90
        2
176
     1
  1
strokes_ogs.tif
176
     1
290
     0
176
     1
 40
1.0
176
     1
 40
1.0
176
     1
  0
VISUALSTYLE
  5
CC5
102
{ACAD_REACTORS
330
CBA
102
}
330
CBA
100
AcDbVisualStyle
  2
Dim
 70
    11
177
     3
291
     1
 70
    58
 90
        2
176
     1
 90
        2
176
     1
 90
        0
176
     1
 90
        0
176
     1
 40
0.6
176
     1
 40
30.0
176
     1
 62
     7
420
 16777215
176
     1
 90
        1
176
     1
 90
        4
176
     1
 62
     7
176
     1
 62
   257
176
     1
 90
        1
176
     1
 90
        1
176
     1
 40
1.0
176
     1
 90
        8
176
     1
 62
     7
176
     1
 40
1.0
176
     1
 90
        1
176
     1
 90
        6
176
     1
 90
        2
176
     1
 62
     7
176
     1
 90
        5
176
     1
 90
        0
176
     1
 90
        0
176
     1
290
     0
176
     1
 90
        1
176
     1
 40
-50.0
176
     1
 90
        0
176
     1
290
     0
176
     1
290
     1
176
     1
290
     1
176
     1
290
     0
176
     1
290
     0
176
     1
290
     0
176
     1
290
     0
176
     1
290
     0
176
     1
290
     0
176
     1
 90
       50
176
     1
 40
0.0
176
     1
 40
1.0
176
     1
 90
        0
176
     1
 62
    18
420
        0
176
     1
 90
       50
176
     1
 90
        3
176
     1
 62
     5
420
      255
176
     1
290
     0
176
     1
 90
       50
176
     1
 90
       50
176
     1
 90
       50
176
     1
290
     0
176
     1
 90
       50
176
     1
 62
   256
176
     0
 40
1.0
176
     0
 90
        2
176
     1
  1
strokes_ogs.tif
176
     1
290
     0
176
     1
 40
1.0
176
     1
 40
1.0
176
     1
  0
VISUALSTYLE
  5
CCD
102
{ACAD_REACTORS
330
CBA
102
}
330
CBA
100
AcDbVisualStyle
  2
EdgeColorOff
 70
    22
177
     3
291
     1
 70
    58
 90
        2
176
     0
 90
        2
176
     0
 90
        0
176
     0
 90
        0
176
     0
 40
0.6
176
     0
 40
30.0
176
     0
 62
     7
420
 16777215
176
     0
 90
        1
176
     0
 90
        4
176
     0
 62
     7
176
     0
 62
   257
176
     0
 90
        1
176
     0
 90
        1
176
     0
 40
1.0
176
     0
 90
        8
176
     2
 62
     7
176
     0
 40
1.0
176
     0
 90
        1
176
     0
 90
        6
176
     0
 90
        2
176
     0
 62
     7
176
     0
 90
        5
176
     0
 90
        0
176
     0
 90
        0
176
     0
290
     0
176
     0
 90
        1
176
     0
 40
0.0
176
     0
 90
        0
176
     0
290
     0
176
     0
290
     1
176
     0
290
     1
176
     0
290
     0
176
     0
290
     0
176
     0
290
     0
176
     0
290
     0
176
     0
290
     0
176
     0
290
     0
176
     0
 90
       50
176
     0
 40
0.0
176
     0
 40
1.0
176
     0
 90
        0
176
     0
 62
    18
420
        0
176
     0
 90
       50
176
     0
 90
        3
176
     0
 62
     5
420
      255
176
     0
290
     0
176
     0
 90
       50
176
     0
 90
       50
176
     0
 90
       50
176
     0
290
     0
176
     0
 90
       50
176
     0
 62
   256
176
     0
 40
1.0
176
     0
 90
        2
176
     0
  1
strokes_ogs.tif
176
     0
290
     0
176
     0
 40
1.0
176
     0
 40
1.0
176
     0
  0
VISUALSTYLE
  5
CC9
102
{ACAD_REACTORS
330
CBA
102
}
330
CBA
100
AcDbVisualStyle
  2
Facepattern
 70
    15
177
     3
291
     1
 70
    58
 90
        2
176
     1
 90
        2
176
     1
 90
        0
176
     1
 90
        0
176
     1
 40
0.6
176
     1
 40
30.0
176
     1
 62
     7
420
 16777215
176
     1
 90
        1
176
     1
 90
        4
176
     1
 62
     7
176
     1
 62
   257
176
     1
 90
        1
176
     1
 90
        1
176
     1
 40
1.0
176
     1
 90
        8
176
     1
 62
     7
176
     1
 40
1.0
176
     1
 90
        1
176
     1
 90
        6
176
     1
 90
        2
176
     1
 62
     7
176
     1
 90
        5
176
     1
 90
        0
176
     1
 90
        0
176
     1
290
     0
176
     1
 90
        1
176
     1
 40
0.0
176
     1
 90
        0
176
     1
290
     0
176
     1
290
     1
176
     1
290
     1
176
     1
290
     0
176
     1
290
     0
176
     1
290
     0
176
     1
290
     0
176
     1
290
     0
176
     1
290
     0
176
     1
 90
       50
176
     1
 40
0.0
176
     1
 40
1.0
176
     1
 90
        0
176
     1
 62
    18
420
        0
176
     1
 90
       50
176
     1
 90
        3
176
     1
 62
     5
420
      255
176
     1
290
     0
176
     1
 90
       50
176
     1
 90
       50
176
     1
 90
       50
176
     1
290
     0
176
     1
 90
       50
176
     1
 62
   256
176
     0
 40
1.0
176
     0
 90
        2
176
     1
  1
strokes_ogs.tif
176
     1
290
     0
176
     1
 40
1.0
176
     1
 40
1.0
176
     1
  0
VISUALSTYLE
  5
CBB
102
{ACAD_REACTORS
330
CBA
102
}
330
CBA
100
AcDbVisualStyle
  2
Flat
 70
     0
177
     3
291
     1
 70
    58
 90
        2
176
     1
 90
        1
176
     1
 90
        1
176
     1
 90
        2
176
     1
 40
0.6
176
     1
 40
30.0
176
     1
 62
     7
420
 16777215
176
     1
 90
        0
176
     1
 90
        0
176
     1
 62
     7
176
     1
 62
   257
176
     1
 90
        1
176
     1
 90
        1
176
     1
 40
1.0
176
     1
 90
        8
176
     1
 62
     7
176
     1
 40
1.0
176
     1
 90
        1
176
     1
 90
        6
176
     1
 90
        2
176
     1
 62
     7
176
     1
 90
        5
176
     1
 90
        0
176
     1
 90
        0
176
     1
290
     0
176
     1
 90
       13
176
     1
 40
0.0
176
     1
 90
        0
176
     1
290
     0
176
     1
290
     1
176
     1
290
     1
176
     1
290
     0
176
     1
290
     0
176
     1
290
     0
176
     1
290
     0
176
     1
290
     0
176
     1
290
     0
176
     1
 90
       50
176
     1
 40
0.0
176
     1
 40
1.0
176
     1
 90
        0
176
     1
 62
    18
420
        0
176
     1
 90
       50
176
     1
 90
        3
176
     1
 62
     5
420
      255
176
     1
290
     0
176
     1
 90
       50
176
     1
 90
       50
176
     1
 90
       50
176
     1
290
     0
176
     1
 90
       50
176
     1
 62
   256
176
     0
 40
1.0
176
     0
 90
        2
176
     1
  1
strokes_ogs.tif
176
     1
290
     0
176
     1
 40
1.0
176
     1
 40
1.0
176
     1
  0
VISUALSTYLE
  5
CBC
102
{ACAD_REACTORS
330
CBA
102
}
330
CBA
100
AcDbVisualStyle
  2
FlatWithEdges
 70
     1
177
     3
291
     1
 70
    58
 90
        2
176
     1
 90
        1
176
     1
 90
        1
176
     1
 90
        2
176
     1
 40
0.6
176
     1
 40
30.0
176
     1
 62
     7
420
 16777215
176
     1
 90
        1
176
     1
 90
        0
176
     1
 62
     7
176
     1
 62
   257
176
     1
 90
        1
176
     1
 90
        1
176
     1
 40
1.0
176
     1
 90
        0
176
     1
 62
   257
176
     1
 40
1.0
176
     1
 90
        1
176
     1
 90
        6
176
     1
 90
        2
176
     1
 62
     7
176
     1
 90
        5
176
     1
 90
        0
176
     1
 90
        0
176
     1
290
     0
176
     1
 90
       13
176
     1
 40
0.0
176
     1
 90
        0
176
     1
290
     0
176
     1
290
     1
176
     1
290
     1
176
     1
290
     0
176
     1
290
     0
176
     1
290
     0
176
     1
290
     0
176
     1
290
     0
176
     1
290
     0
176
     1
 90
       50
176
     1
 40
0.0
176
     1
 40
1.0
176
     1
 90
        0
176
     1
 62
    18
420
        0
176
     1
 90
       50
176
     1
 90
        3
176
     1
 62
     5
420
      255
176
     1
290
     0
176
     1
 90
       50
176
     1
 90
       50
176
     1
 90
       50
176
     1
290
     0
176
     1
 90
       50
176
     1
 62
   256
176
     0
 40
1.0
176
     0
 90
        2
176
     1
  1
strokes_ogs.tif
176
     1
290
     0
176
     1
 40
1.0
176
     1
 40
1.0
176
     1
  0
VISUALSTYLE
  5
CBD
102
{ACAD_REACTORS
330
CBA
102
}
330
CBA
100
AcDbVisualStyle
  2
Gouraud
 70
     2
177
     3
291
     1
 70
    58
 90
        2
176
     1
 90
        2
176
     1
 90
        1
176
     1
 90
        2
176
     1
 40
0.6
176
     1
 40
30.0
176
     1
 62
     7
420
 16777215
176
     1
 90
        0
176
     1
 90
        0
176
     1
 62
     7
176
     1
 62
   257
176
     1
 90
        1
176
     1
 90
        1
176
     1
 40
1.0
176
     1
 90
        0
176
     1
 62
     7
176
     1
 40
1.0
176
     1
 90
        1
176
     1
 90
        6
176
     1
 90
        2
176
     1
 62
     7
176
     1
 90
        5
176
     1
 90
        0
176
     1
 90
        0
176
     1
290
     0
176
     1
 90
       13
176
     1
 40
0.0
176
     1
 90
        0
176
     1
290
     0
176
     1
290
     1
176
     1
290
     1
176
     1
290
     0
176
     1
290
     0
176
     1
290
     0
176
     1
290
     0
176
     1
290
     0
176
     1
290
     0
176
     1
 90
       50
176
     1
 40
0.0
176
     1
 40
1.0
176
     1
 90
        0
176
     1
 62
    18
420
        0
176
     1
 90
       50
176
     1
 90
        3
176
     1
 62
     5
420
      255
176
     1
290
     0
176
     1
 90
       50
176
     1
 90
       50
176
     1
 90
       50
176
     1
290
     0
176
     1
 90
       50
176
     1
 62
   256
176
     0
 40
1.0
176
     0
 90
        2
176
     1
  1
strokes_ogs.tif
176
     1
290
     0
176
     1
 40
1.0
176
     1
 40
1.0
176
     1
  0
VISUALSTYLE
  5
CBE
102
{ACAD_REACTORS
330
CBA
102
}
330
CBA
100
AcDbVisualStyle
  2
GouraudWithEdges
 70
     3
177
     3
291
     1
 70
    58
 90
        2
176
     1
 90
        2
176
     1
 90
        1
176
     1
 90
        2
176
     1
 40
0.6
176
     1
 40
30.0
176
     1
 62
     7
420
 16777215
176
     1
 90
        1
176
     1
 90
        0
176
     1
 62
     7
176
     1
 62
   257
176
     1
 90
        1
176
     1
 90
        1
176
     1
 40
1.0
176
     1
 90
        0
176
     1
 62
   257
176
     1
 40
1.0
176
     1
 90
        1
176
     1
 90
        6
176
     1
 90
        2
176
     1
 62
     7
176
     1
 90
        5
176
     1
 90
        0
176
     1
 90
        0
176
     1
290
     0
176
     1
 90
       13
176
     1
 40
0.0
176
     1
 90
        0
176
     1
290
     0
176
     1
290
     1
176
     1
290
     1
176
     1
290
     0
176
     1
290
     0
176
     1
290
     0
176
     1
290
     0
176
     1
290
     0
176
     1
290
     0
176
     1
 90
       50
176
     1
 40
0.0
176
     1
 40
1.0
176
     1
 90
        0
176
     1
 62
    18
420
        0
176
     1
 90
       50
176
     1
 90
        3
176
     1
 62
     5
420
      255
176
     1
290
     0
176
     1
 90
       50
176
     1
 90
       50
176
     1
 90
       50
176
     1
290
     0
176
     1
 90
       50
176
     1
 62
   256
176
     0
 40
1.0
176
     0
 90
        2
176
     1
  1
strokes_ogs.tif
176
     1
290
     0
176
     1
 40
1.0
176
     1
 40
1.0
176
     1
  0
VISUALSTYLE
  5
CC1
102
{ACAD_REACTORS
330
CBA
102
}
330
CBA
100
AcDbVisualStyle
  2
Hidden
 70
     6
177
     3
291
     0
 70
    58
 90
        1
176
     1
 90
        2
176
     1
 90
        2
176
     1
 90
        0
176
     1
 40
0.6
176
     1
 40
30.0
176
     1
 62
     7
420
 16777215
176
     1
 90
        2
176
     1
 90
        2
176
     1
 62
     7
176
     1
 62
   257
176
     1
 90
        2
176
     1
 90
        1
176
     1
 40
40.0
176
     1
 90
        0
176
     1
 62
   257
176
     1
 40
1.0
176
     1
 90
        1
176
     1
 90
        6
176
     1
 90
        2
176
     1
 62
     7
176
     1
 90
        3
176
     1
 90
        0
176
     1
 90
        0
176
     1
290
     0
176
     1
 90
        1
176
     1
 40
0.0
176
     1
 90
        0
176
     1
290
     0
176
     1
290
     1
176
     1
290
     1
176
     1
290
     0
176
     1
290
     0
176
     1
290
     0
176
     1
290
     0
176
     1
290
     0
176
     1
290
     0
176
     1
 90
       50
176
     1
 40
0.0
176
     1
 40
1.0
176
     1
 90
        0
176
     1
 62
    18
420
        0
176
     1
 90
       50
176
     1
 90
        3
176
     1
 62
     5
420
      255
176
     1
290
     0
176
     1
 90
       50
176
     1
 90
       50
176
     1
 90
       50
176
     1
290
     0
176
     1
 90
       50
176
     1
 62
   256
176
     0
 40
1.0
176
     0
 90
        2
176
     1
  1
strokes_ogs.tif
176
     1
290
     0
176
     1
 40
1.0
176
     1
 40
1.0
176
     1
  0
VISUALSTYLE
  5
CCB
102
{ACAD_REACTORS
330
CBA
102
}
330
CBA
100
AcDbVisualStyle
  2
JitterOff
 70
    20
177
     3
291
     1
 70
    58
 90
        2
176
     0
 90
        2
176
     0
 90
        0
176
     0
 90
        0
176
     0
 40
0.6
176
     0
 40
30.0
176
     0
 62
     7
420
 16777215
176
     0
 90
        1
176
     0
 90
        4
176
     0
 62
     7
176
     0
 62
   257
176
     0
 90
        1
176
     0
 90
        1
176
     0
 40
1.0
176
     0
 90
       10
176
     2
 62
     7
176
     0
 40
1.0
176
     0
 90
        1
176
     0
 90
        6
176
     0
 90
        2
176
     0
 62
     7
176
     0
 90
        5
176
     0
 90
        0
176
     0
 90
        0
176
     0
290
     0
176
     0
 90
        1
176
     0
 40
0.0
176
     0
 90
        0
176
     0
290
     0
176
     0
290
     1
176
     0
290
     1
176
     0
290
     0
176
     0
290
     0
176
     0
290
     0
176
     0
290
     0
176
     0
290
     0
176
     0
290
     0
176
     0
 90
       50
176
     0
 40
0.0
176
     0
 40
1.0
176
     0
 90
        0
176
     0
 62
    18
420
        0
176
     0
 90
       50
176
     0
 90
        3
176
     0
 62
     5
420
      255
176
     0
290
     0
176
     0
 90
       50
176
     0
 90
       50
176
     0
 90
       50
176
     0
290
     0
176
     0
 90
       50
176
     0
 62
   256
176
     0
 40
1.0
176
     0
 90
        2
176
     0
  1
strokes_ogs.tif
176
     0
290
     0
176
     0
 40
1.0
176
     0
 40
1.0
176
     0
  0
VISUALSTYLE
  5
CC8
102
{ACAD_REACTORS
330
CBA
102
}
330
CBA
100
AcDbVisualStyle
  2
Linepattern
 70
    14
177
     3
291
     1
 70
    58
 90
        2
176
     1
 90
        2
176
     1
 90
        0
176
     1
 90
        0
176
     1
 40
0.6
176
     1
 40
30.0
176
     1
 62
     7
420
 16777215
176
     1
 90
        1
176
     1
 90
        4
176
     1
 62
     7
176
     1
 62
   257
176
     1
 90
        7
176
     1
 90
        7
176
     1
 40
1.0
176
     1
 90
        8
176
     1
 62
     7
176
     1
 40
1.0
176
     1
 90
        1
176
     1
 90
        6
176
     1
 90
        2
176
     1
 62
     7
176
     1
 90
        5
176
     1
 90
        0
176
     1
 90
        0
176
     1
290
     0
176
     1
 90
        1
176
     1
 40
0.0
176
     1
 90
        0
176
     1
290
     0
176
     1
290
     1
176
     1
290
     1
176
     1
290
     0
176
     1
290
     0
176
     1
290
     0
176
     1
290
     0
176
     1
290
     0
176
     1
290
     0
176
     1
 90
       50
176
     1
 40
0.0
176
     1
 40
1.0
176
     1
 90
        0
176
     1
 62
    18
420
        0
176
     1
 90
       50
176
     1
 90
        3
176
     1
 62
     5
420
      255
176
     1
290
     0
176
     1
 90
       50
176
     1
 90
       50
176
     1
 90
       50
176
     1
290
     0
176
     1
 90
       50
176
     1
 62
   256
176
     0
 40
1.0
176
     0
 90
        2
176
     1
  1
strokes_ogs.tif
176
     1
290
     0
176
     1
 40
1.0
176
     1
 40
1.0
176
     1
  0
VISUALSTYLE
  5
CCC
102
{ACAD_REACTORS
330
CBA
102
}
330
CBA
100
AcDbVisualStyle
  2
OverhangOff
 70
    21
177
     3
291
     1
 70
    58
 90
        2
176
     0
 90
        2
176
     0
 90
        0
176
     0
 90
        0
176
     0
 40
0.6
176
     0
 40
30.0
176
     0
 62
     7
420
 16777215
176
     0
 90
        1
176
     0
 90
        4
176
     0
 62
     7
176
     0
 62
   257
176
     0
 90
        1
176
     0
 90
        1
176
     0
 40
1.0
176
     0
 90
        9
176
     2
 62
     7
176
     0
 40
1.0
176
     0
 90
        1
176
     0
 90
        6
176
     0
 90
        2
176
     0
 62
     7
176
     0
 90
        5
176
     0
 90
        0
176
     0
 90
        0
176
     0
290
     0
176
     0
 90
        1
176
     0
 40
0.0
176
     0
 90
        0
176
     0
290
     0
176
     0
290
     1
176
     0
290
     1
176
     0
290
     0
176
     0
290
     0
176
     0
290
     0
176
     0
290
     0
176
     0
290
     0
176
     0
290
     0
176
     0
 90
       50
176
     0
 40
0.0
176
     0
 40
1.0
176
     0
 90
        0
176
     0
 62
    18
420
        0
176
     0
 90
       50
176
     0
 90
        3
176
     0
 62
     5
420
      255
176
     0
290
     0
176
     0
 90
       50
176
     0
 90
       50
176
     0
 90
       50
176
     0
290
     0
176
     0
 90
       50
176
     0
 62
   256
176
     0
 40
1.0
176
     0
 90
        2
176
     0
  1
strokes_ogs.tif
176
     0
290
     0
176
     0
 40
1.0
176
     0
 40
1.0
176
     0
  0
VISUALSTYLE
  5
CC3
102
{ACAD_REACTORS
330
CBA
102
}
330
CBA
100
AcDbVisualStyle
  2
Realistic
 70
     8
177
     3
291
     0
 70
    58
 90
        2
176
     1
 90
        3
176
     1
 90
        0
176
     1
 90
        2
176
     1
 40
0.6
176
     1
 40
30.0
176
     1
 62
     7
420
 16777215
176
     1
 90
        0
176
     1
 90
        0
176
     1
 62
     7
176
     1
 62
   257
176
     1
 90
        1
176
     1
 90
        1
176
     1
 40
1.0
176
     1
 90
        8
176
     1
 62
   257
176
     1
 40
1.0
176
     1
 90
        1
176
     1
 90
        6
176
     1
 90
        2
176
     1
 62
     7
176
     1
 90
        3
176
     1
 90
        0
176
     1
 90
        0
176
     1
290
     0
176
     1
 90
       13
176
     1
 40
0.0
176
     1
 90
        0
176
     1
290
     0
176
     1
290
     1
176
     1
290
     1
176
     1
290
     0
176
     1
290
     0
176
     1
290
     0
176
     1
290
     0
176
     1
290
     0
176
     1
290
     0
176
     1
 90
       50
176
     1
 40
0.0
176
     1
 40
1.0
176
     1
 90
        0
176
     1
 62
    18
420
        0
176
     1
 90
       50
176
     1
 90
        3
176
     1
 62
     5
420
      255
176
     1
290
     0
176
     1
 90
       50
176
     1
 90
       50
176
     1
 90
       50
176
     1
290
     0
176
     1
 90
       50
176
     1
 62
   256
176
     0
 40
1.0
176
     0
 90
        2
176
     1
  1
strokes_ogs.tif
176
     1
290
     0
176
     1
 40
1.0
176
     1
 40
1.0
176
     1
  0
VISUALSTYLE
  5
CD2
102
{ACAD_REACTORS
330
CBA
102
}
330
CBA
100
AcDbVisualStyle
  2
Shaded
 70
    27
177
     3
291
     0
 70
    58
 90
        2
176
     1
 90
        2
176
     1
 90
        1
176
     1
 90
        2
176
     1
 40
0.6
176
     1
 40
30.0
176
     1
 62
     7
420
 16777215
176
     1
 90
        0
176
     1
 90
        4
176
     1
 62
     7
176
     1
 62
   257
176
     1
 90
        1
176
     1
 90
        1
176
     1
 40
1.0
176
     1
 90
        8
176
     1
 62
   257
176
     1
 40
1.0
176
     1
 90
        1
176
     1
 90
        6
176
     1
 90
        2
176
     1
 62
     8
420
  7895160
176
     1
 90
        3
176
     1
 90
        0
176
     1
 90
        0
176
     1
290
     0
176
     1
 90
        5
176
     1
 40
0.0
176
     1
 90
        0
176
     1
290
     0
176
     1
290
     1
176
     1
290
     1
176
     1
290
     0
176
     1
290
     0
176
     1
290
     0
176
     1
290
     0
176
     1
290
     0
176
     1
290
     0
176
     1
 90
       50
176
     1
 40
0.0
176
     1
 40
1.0
176
     1
 90
        0
176
     1
 62
    18
420
        0
176
     1
 90
       50
176
     1
 90
        3
176
     1
 62
     5
420
      255
176
     1
290
     0
176
     1
 90
       50
176
     1
 90
       50
176
     1
 90
       50
176
     1
290
     0
176
     1
 90
       50
176
     1
 62
   256
176
     0
 40
1.0
176
     0
 90
        2
176
     1
  1
strokes_ogs.tif
176
     1
290
     0
176
     1
 40
1.0
176
     1
 40
1.0
176
     1
  0
VISUALSTYLE
  5
CD1
102
{ACAD_REACTORS
330
CBA
102
}
330
CBA
100
AcDbVisualStyle
  2
Shaded with edges
 70
    26
177
     3
291
     0
 70
    58
 90
        2
176
     1
 90
        2
176
     1
 90
        1
176
     1
 90
        2
176
     1
 40
0.6
176
     1
 40
30.0
176
     1
 62
     7
420
 16777215
176
     1
 90
        1
176
     1
 90
       10
176
     1
 62
     7
176
     1
 62
   257
176
     1
 90
        2
176
     1
 90
        1
176
     1
 40
1.0
176
     1
 90
        8
176
     1
 62
   257
176
     1
 40
1.0
176
     1
 90
        1
176
     1
 90
        6
176
     1
 90
        2
176
     1
 62
     7
176
     1
 90
        3
176
     1
 90
        0
176
     1
 90
        0
176
     1
290
     0
176
     1
 90
        5
176
     1
 40
0.0
176
     1
 90
        0
176
     1
290
     0
176
     1
290
     1
176
     1
290
     1
176
     1
290
     0
176
     1
290
     0
176
     1
290
     0
176
     1
290
     0
176
     1
290
     0
176
     1
290
     0
176
     1
 90
       50
176
     1
 40
0.0
176
     1
 40
1.0
176
     1
 90
        0
176
     1
 62
    18
420
        0
176
     1
 90
       50
176
     1
 90
        3
176
     1
 62
     5
420
      255
176
     1
290
     0
176
     1
 90
       50
176
     1
 90
       50
176
     1
 90
       50
176
     1
290
     0
176
     1
 90
       50
176
     1
 62
   256
176
     0
 40
1.0
176
     0
 90
        2
176
     1
  1
strokes_ogs.tif
176
     1
290
     0
176
     1
 40
1.0
176
     1
 40
1.0
176
     1
  0
VISUALSTYLE
  5
CCE
102
{ACAD_REACTORS
330
CBA
102
}
330
CBA
100
AcDbVisualStyle
  2
Shades of Gray
 70
    23
177
     3
291
     0
 70
    58
 90
        2
176
     1
 90
        2
176
     1
 90
        3
176
     1
 90
        0
176
     1
 40
0.6
176
     1
 40
30.0
176
     1
 62
     7
420
 16777215
176
     1
 90
        2
176
     1
 90
        2
176
     1
 62
     7
176
     1
 62
     7
176
     1
 90
        1
176
     1
 90
        1
176
     1
 40
40.0
176
     1
 90
        8
176
     1
 62
     7
176
     1
 40
1.0
176
     1
 90
        1
176
     1
 90
        6
176
     1
 90
        2
176
     1
 62
     7
176
     1
 90
        3
176
     1
 90
        0
176
     1
 90
        0
176
     1
290
     0
176
     1
 90
        1
176
     1
 40
0.0
176
     1
 90
        0
176
     1
290
     0
176
     1
290
     1
176
     1
290
     1
176
     1
290
     0
176
     1
290
     0
176
     1
290
     0
176
     1
290
     0
176
     1
290
     0
176
     1
290
     0
176
     1
 90
       50
176
     1
 40
0.0
176
     1
 40
1.0
176
     1
 90
        0
176
     1
 62
    18
420
        0
176
     1
 90
       50
176
     1
 90
        3
176
     1
 62
     5
420
      255
176
     1
290
     0
176
     1
 90
       50
176
     1
 90
       50
176
     1
 90
       50
176
     1
290
     0
176
     1
 90
       50
176
     1
 62
   256
176
     0
 40
1.0
176
     0
 90
        2
176
     1
  1
strokes_ogs.tif
176
     1
290
     0
176
     1
 40
1.0
176
     1
 40
1.0
176
     1
  0
VISUALSTYLE
  5
CCF
102
{ACAD_REACTORS
330
CBA
102
}
330
CBA
100
AcDbVisualStyle
  2
Sketchy
 70
    24
177
     3
291
     0
 70
    58
 90
        1
176
     1
 90
        2
176
     1
 90
        2
176
     1
 90
        0
176
     1
 40
0.6
176
     1
 40
30.0
176
     1
 62
     7
420
 16777215
176
     1
 90
        2
176
     1
 90
        2
176
     1
 62
     7
176
     1
 62
     7
176
     1
 90
        1
176
     1
 90
        1
176
     1
 40
40.0
176
     1
 90
       11
176
     1
 62
     7
176
     1
 40
1.0
176
     1
 90
        1
176
     1
 90
        6
176
     1
 90
        2
176
     1
 62
     7
176
     1
 90
        6
176
     1
 90
        0
176
     1
 90
        0
176
     1
290
     0
176
     1
 90
        1
176
     1
 40
0.0
176
     1
 90
        0
176
     1
290
     0
176
     1
290
     1
176
     1
290
     1
176
     1
290
     0
176
     1
290
     0
176
     1
290
     0
176
     1
290
     0
176
     1
290
     0
176
     1
290
     0
176
     1
 90
       50
176
     1
 40
0.0
176
     1
 40
1.0
176
     1
 90
        0
176
     1
 62
    18
420
        0
176
     1
 90
       50
176
     1
 90
        3
176
     1
 62
     5
420
      255
176
     1
290
     0
176
     1
 90
       50
176
     1
 90
       50
176
     1
 90
       50
176
     1
290
     0
176
     1
 90
       50
176
     1
 62
   256
176
     0
 40
1.0
176
     0
 90
        2
176
     1
  1
strokes_ogs.tif
176
     1
290
     0
176
     1
 40
1.0
176
     1
 40
1.0
176
     1
  0
VISUALSTYLE
  5
CC7
102
{ACAD_REACTORS
330
CBA
102
}
330
CBA
100
AcDbVisualStyle
  2
Thicken
 70
    13
177
     3
291
     1
 70
    58
 90
        2
176
     1
 90
        2
176
     1
 90
        0
176
     1
 90
        0
176
     1
 40
0.6
176
     1
 40
30.0
176
     1
 62
     7
420
 16777215
176
     1
 90
        1
176
     1
 90
        4
176
     1
 62
     7
176
     1
 62
   257
176
     1
 90
        1
176
     1
 90
        1
176
     1
 40
1.0
176
     1
 90
       12
176
     1
 62
     7
176
     1
 40
1.0
176
     1
 90
        1
176
     1
 90
        6
176
     1
 90
        2
176
     1
 62
     7
176
     1
 90
        5
176
     1
 90
        0
176
     1
 90
        0
176
     1
290
     0
176
     1
 90
        1
176
     1
 40
0.0
176
     1
 90
        0
176
     1
290
     0
176
     1
290
     1
176
     1
290
     1
176
     1
290
     0
176
     1
290
     0
176
     1
290
     0
176
     1
290
     0
176
     1
290
     0
176
     1
290
     0
176
     1
 90
       50
176
     1
 40
0.0
176
     1
 40
1.0
176
     1
 90
        0
176
     1
 62
    18
420
        0
176
     1
 90
       50
176
     1
 90
        3
176
     1
 62
     5
420
      255
176
     1
290
     0
176
     1
 90
       50
176
     1
 90
       50
176
     1
 90
       50
176
     1
290
     0
176
     1
 90
       50
176
     1
 62
   256
176
     0
 40
1.0
176
     0
 90
        2
176
     1
  1
strokes_ogs.tif
176
     1
290
     0
176
     1
 40
1.0
176
     1
 40
1.0
176
     1
  0
VISUALSTYLE
  5
CC0
102
{ACAD_REACTORS
330
CBA
102
}
330
CBA
100
AcDbVisualStyle
  2
Wireframe
 70
     5
177
     3
291
     0
 70
    58
 90
        0
176
     1
 90
        2
176
     1
 90
        0
176
     1
 90
        0
176
     1
 40
0.6
176
     1
 40
30.0
176
     1
 62
     7
420
 16777215
176
     1
 90
        1
176
     1
 90
        4
176
     1
 62
     7
176
     1
 62
   257
176
     1
 90
        1
176
     1
 90
        1
176
     1
 40
1.0
176
     1
 90
        0
176
     1
 62
   257
176
     1
 40
1.0
176
     1
 90
        1
176
     1
 90
        6
176
     1
 90
        2
176
     1
 62
     7
176
     1
 90
        3
176
     1
 90
        0
176
     1
 90
        0
176
     1
290
     0
176
     1
 90
        1
176
     1
 40
0.0
176
     1
 90
        0
176
     1
290
     0
176
     1
290
     1
176
     1
290
     1
176
     1
290
     0
176
     1
290
     0
176
     1
290
     0
176
     1
290
     0
176
     1
290
     0
176
     1
290
     0
176
     1
 90
       50
176
     1
 40
0.0
176
     1
 40
1.0
176
     1
 90
        0
176
     1
 62
    18
420
        0
176
     1
 90
       50
176
     1
 90
        3
176
     1
 62
     5
420
      255
176
     1
290
     0
176
     1
 90
       50
176
     1
 90
       50
176
     1
 90
       50
176
     1
290
     0
176
     1
 90
       50
176
     1
 62
   256
176
     0
 40
1.0
176
     0
 90
        2
176
     1
  1
strokes_ogs.tif
176
     1
290
     0
176
     1
 40
1.0
176
     1
 40
1.0
176
     1
  0
VISUALSTYLE
  5
CD0
102
{ACAD_REACTORS
330
CBA
102
}
330
CBA
100
AcDbVisualStyle
  2
X-Ray
 70
    25
177
     3
291
     0
 70
    58
 90
        2
176
     1
 90
        2
176
     1
 90
        1
176
     1
 90
        1
176
     1
 40
0.5
176
     1
 40
30.0
176
     1
 62
     7
420
 16777215
176
     1
 90
        1
176
     1
 90
        0
176
     1
 62
     7
176
     1
 62
   257
176
     1
 90
        1
176
     1
 90
        1
176
     1
 40
1.0
176
     1
 90
        8
176
     1
 62
     7
176
     1
 40
1.0
176
     1
 90
        1
176
     1
 90
        6
176
     1
 90
        2
176
     1
 62
     7
176
     1
 90
        3
176
     1
 90
        0
176
     1
 90
        0
176
     1
290
     0
176
     1
 90
       13
176
     1
 40
0.0
176
     1
 90
        0
176
     1
290
     0
176
     1
290
     1
176
     1
290
     1
176
     1
290
     0
176
     1
290
     0
176
     1
290
     0
176
     1
290
     0
176
     1
290
     0
176
     1
290
     0
176
     1
 90
       50
176
     1
 40
0.0
176
     1
 40
1.0
176
     1
 90
        0
176
     1
 62
    18
420
        0
176
     1
 90
       50
176
     1
 90
        3
176
     1
 62
     5
420
      255
176
     1
290
     0
176
     1
 90
       50
176
     1
 90
       50
176
     1
 90
       50
176
     1
290
     0
176
     1
 90
       50
176
     1
 62
   256
176
     0
 40
1.0
176
     0
 90
        2
176
     1
  1
strokes_ogs.tif
176
     1
290
     0
176
     1
 40
1.0
176
     1
 40
1.0
176
     1
  0
DICTIONARYVAR
  5
D02
102
{ACAD_REACTORS
330
D01
102
}
330
D01
100
DictionaryVariables
280
     0
  1
1:1
  0
DICTIONARYVAR
  5
D06
102
{ACAD_REACTORS
330
D01
102
}
330
D01
100
DictionaryVariables
280
     0
  1
Standard
  0
DICTIONARYVAR
  5
D08
102
{ACAD_REACTORS
330
D01
102
}
330
D01
100
DictionaryVariables
280
     0
  1
0
  0
DICTIONARYVAR
  5
D09
102
{ACAD_REACTORS
330
D01
102
}
330
D01
100
DictionaryVariables
280
     0
  1
0
  0
DICTIONARY
  5
D7E
330
CF9
100
AcDbDictionary
280
     1
281
     1
  3
ACAD_ROUNDTRIP_2008_TABLESTYLE_CELLSTYLEMAP
360
D7F
  0
CELLSTYLEMAP
  5
D7F
102
{ACAD_REACTORS
330
D7E
102
}
330
D7E
100
AcDbCellStyleMap
 90
        3
300
CELLSTYLE
  1
TABLEFORMAT_BEGIN
 90
        5
170
     1
 91
        0
 92
        0
 62
   257
 93
        1
300
CONTENTFORMAT
  1
CONTENTFORMAT_BEGIN
 90
        0
 91
        0
 92
        4
 93
        0
300

 40
0.0
140
1.0
 94
        5
 62
     0
340
11
144
6.0
309
CONTENTFORMAT_END
171
     1
301
MARGIN
  1
CELLMARGIN_BEGIN
 40
1.5
 40
1.5
 40
1.5
 40
1.5
 40
1.5
 40
1.5
309
CELLMARGIN_END
 94
        6
 95
        1
302
GRIDFORMAT
  1
GRIDFORMAT_BEGIN
 90
        0
 91
        1
 62
     0
 92
       -2
340
14
 93
        0
 40
0.045
309
GRIDFORMAT_END
 95
        2
302
GRIDFORMAT
  1
GRIDFORMAT_BEGIN
 90
        0
 91
        1
 62
     0
 92
       -2
340
14
 93
        0
 40
0.045
309
GRIDFORMAT_END
 95
        4
302
GRIDFORMAT
  1
GRIDFORMAT_BEGIN
 90
        0
 91
        1
 62
     0
 92
       -2
340
14
 93
        0
 40
0.045
309
GRIDFORMAT_END
 95
        8
302
GRIDFORMAT
  1
GRIDFORMAT_BEGIN
 90
        0
 91
        1
 62
     0
 92
       -2
340
14
 93
        0
 40
0.045
309
GRIDFORMAT_END
 95
       16
302
GRIDFORMAT
  1
GRIDFORMAT_BEGIN
 90
        0
 91
        1
 62
     0
 92
       -2
340
14
 93
        0
 40
0.045
309
GRIDFORMAT_END
 95
       32
302
GRIDFORMAT
  1
GRIDFORMAT_BEGIN
 90
        0
 91
        1
 62
     0
 92
       -2
340
14
 93
        0
 40
0.045
309
GRIDFORMAT_END
309
TABLEFORMAT_END
  1
CELLSTYLE_BEGIN
 90
        1
 91
        1
300
_TITLE
309
CELLSTYLE_END
300
CELLSTYLE
  1
TABLEFORMAT_BEGIN
 90
        5
170
     1
 91
        0
 92
        0
 62
   257
 93
        1
300
CONTENTFORMAT
  1
CONTENTFORMAT_BEGIN
 90
        0
 91
        0
 92
        4
 93
        0
300

 40
0.0
140
1.0
 94
        5
 62
     0
340
11
144
4.5
309
CONTENTFORMAT_END
171
     1
301
MARGIN
  1
CELLMARGIN_BEGIN
 40
1.5
 40
1.5
 40
1.5
 40
1.5
 40
1.5
 40
1.5
309
CELLMARGIN_END
 94
        6
 95
        1
302
GRIDFORMAT
  1
GRIDFORMAT_BEGIN
 90
        0
 91
        1
 62
     0
 92
       -2
340
14
 93
        0
 40
0.045
309
GRIDFORMAT_END
 95
        2
302
GRIDFORMAT
  1
GRIDFORMAT_BEGIN
 90
        0
 91
        1
 62
     0
 92
       -2
340
14
 93
        0
 40
0.045
309
GRIDFORMAT_END
 95
        4
302
GRIDFORMAT
  1
GRIDFORMAT_BEGIN
 90
        0
 91
        1
 62
     0
 92
       -2
340
14
 93
        0
 40
0.045
309
GRIDFORMAT_END
 95
        8
302
GRIDFORMAT
  1
GRIDFORMAT_BEGIN
 90
        0
 91
        1
 62
     0
 92
       -2
340
14
 93
        0
 40
0.045
309
GRIDFORMAT_END
 95
       16
302
GRIDFORMAT
  1
GRIDFORMAT_BEGIN
 90
        0
 91
        1
 62
     0
 92
       -2
340
14
 93
        0
 40
0.045
309
GRIDFORMAT_END
 95
       32
302
GRIDFORMAT
  1
GRIDFORMAT_BEGIN
 90
        0
 91
        1
 62
     0
 92
       -2
340
14
 93
        0
 40
0.045
309
GRIDFORMAT_END
309
TABLEFORMAT_END
  1
CELLSTYLE_BEGIN
 90
        2
 91
        1
300
_HEADER
309
CELLSTYLE_END
300
CELLSTYLE
  1
TABLEFORMAT_BEGIN
 90
        5
170
     1
 91
        0
 92
        0
 62
   257
 93
        1
300
CONTENTFORMAT
  1
CONTENTFORMAT_BEGIN
 90
        0
 91
        0
 92
        4
 93
        0
300

 40
0.0
140
1.0
 94
        2
 62
     0
340
11
144
4.5
309
CONTENTFORMAT_END
171
     1
301
MARGIN
  1
CELLMARGIN_BEGIN
 40
1.5
 40
1.5
 40
1.5
 40
1.5
 40
1.5
 40
1.5
309
CELLMARGIN_END
 94
        6
 95
        1
302
GRIDFORMAT
  1
GRIDFORMAT_BEGIN
 90
        0
 91
        1
 62
     0
 92
       -2
340
14
 93
        0
 40
0.045
309
GRIDFORMAT_END
 95
        2
302
GRIDFORMAT
  1
GRIDFORMAT_BEGIN
 90
        0
 91
        1
 62
     0
 92
       -2
340
14
 93
        0
 40
0.045
309
GRIDFORMAT_END
 95
        4
302
GRIDFORMAT
  1
GRIDFORMAT_BEGIN
 90
        0
 91
        1
 62
     0
 92
       -2
340
14
 93
        0
 40
0.045
309
GRIDFORMAT_END
 95
        8
302
GRIDFORMAT
  1
GRIDFORMAT_BEGIN
 90
        0
 91
        1
 62
     0
 92
       -2
340
14
 93
        0
 40
0.045
309
GRIDFORMAT_END
 95
       16
302
GRIDFORMAT
  1
GRIDFORMAT_BEGIN
 90
        0
 91
        1
 62
     0
 92
       -2
340
14
 93
        0
 40
0.045
309
GRIDFORMAT_END
 95
       32
302
GRIDFORMAT
  1
GRIDFORMAT_BEGIN
 90
        0
 91
        1
 62
     0
 92
       -2
340
14
 93
        0
 40
0.045
309
GRIDFORMAT_END
309
TABLEFORMAT_END
  1
CELLSTYLE_BEGIN
 90
        3
 91
        2
300
_DATA
309
CELLSTYLE_END
  0
ENDSEC
  0
EOF
