  0
SECTION
  2
HEADER
  9
$ACADVER
  1
AC1027
  9
$ACADMAINTVER
 70
     8
  9
$DWGCODEPAGE
  3
ANSI_932
  9
$REQUIREDVERSIONS
160
                 0
  9
$LASTSAVEDBY
  1
Yasu
  9
$INSBASE
 10
0.0
 20
0.0
 30
0.0
  9
$EXTMIN
 10
29.34440354002921
 20
20.29430777181449
 30
0.0
  9
$EXTMAX
 10
220.3408224359301
 20
213.4905633418002
 30
0.0
  9
$LIMMIN
 10
0.0
 20
0.0
  9
$LIMMAX
 10
420.0
 20
297.0
  9
$ORTHOMODE
 70
     0
  9
$REGENMODE
 70
     1
  9
$FILLMODE
 70
     1
  9
$QTEXTMODE
 70
     0
  9
$MIRRTEXT
 70
     0
  9
$LTSCALE
 40
0.2
  9
$ATTMODE
 70
     1
  9
$TEXTSIZE
 40
3.0
  9
$TRACEWID
 40
1.0
  9
$TEXTSTYLE
  7
Standard
  9
$CLAYER
  8
文字
  9
$CELTYPE
  6
ByLayer
  9
$CECOLOR
 62
   256
  9
$CELTSCALE
 40
1.0
  9
$DISPSILH
 70
     0
  9
$DIMSCALE
 40
1.0
  9
$DIMASZ
 40
2.5
  9
$DIMEXO
 40
0.625
  9
$DIMDLI
 40
3.75
  9
$DIMRND
 40
0.0
  9
$DIMDLE
 40
0.0
  9
$DIMEXE
 40
1.25
  9
$DIMTP
 40
0.0
  9
$DIMTM
 40
0.0
  9
$DIMTXT
 40
2.5
  9
$DIMCEN
 40
2.5
  9
$DIMTSZ
 40
0.0
  9
$DIMTOL
 70
     0
  9
$DIMLIM
 70
     0
  9
$DIMTIH
 70
     0
  9
$DIMTOH
 70
     0
  9
$DIMSE1
 70
     0
  9
$DIMSE2
 70
     0
  9
$DIMTAD
 70
     1
  9
$DIMZIN
 70
     8
  9
$DIMBLK
  1

  9
$DIMASO
 70
     1
  9
$DIMSHO
 70
     1
  9
$DIMPOST
  1

  9
$DIMAPOST
  1

  9
$DIMALT
 70
     0
  9
$DIMALTD
 70
     3
  9
$DIMALTF
 40
0.03937007874016
  9
$DIMLFAC
 40
1.0
  9
$DIMTOFL
 70
     1
  9
$DIMTVP
 40
0.0
  9
$DIMTIX
 70
     0
  9
$DIMSOXD
 70
     0
  9
$DIMSAH
 70
     0
  9
$DIMBLK1
  1

  9
$DIMBLK2
  1

  9
$DIMSTYLE
  2
ISO-25
  9
$DIMCLRD
 70
     0
  9
$DIMCLRE
 70
     0
  9
$DIMCLRT
 70
     0
  9
$DIMTFAC
 40
1.0
  9
$DIMGAP
 40
0.625
  9
$DIMJUST
 70
     0
  9
$DIMSD1
 70
     0
  9
$DIMSD2
 70
     0
  9
$DIMTOLJ
 70
     0
  9
$DIMTZIN
 70
     8
  9
$DIMALTZ
 70
     0
  9
$DIMALTTZ
 70
     0
  9
$DIMUPT
 70
     0
  9
$DIMDEC
 70
     2
  9
$DIMTDEC
 70
     2
  9
$DIMALTU
 70
     2
  9
$DIMALTTD
 70
     3
  9
$DIMTXSTY
  7
Standard
  9
$DIMAUNIT
 70
     0
  9
$DIMADEC
 70
     0
  9
$DIMALTRND
 40
0.0
  9
$DIMAZIN
 70
     0
  9
$DIMDSEP
 70
    46
  9
$DIMATFIT
 70
     3
  9
$DIMFRAC
 70
     0
  9
$DIMLDRBLK
  1

  9
$DIMLUNIT
 70
     2
  9
$DIMLWD
 70
    -2
  9
$DIMLWE
 70
    -2
  9
$DIMTMOVE
 70
     0
  9
$DIMFXL
 40
1.0
  9
$DIMFXLON
 70
     0
  9
$DIMJOGANG
 40
0.7853981633974483
  9
$DIMTFILL
 70
     0
  9
$DIMTFILLCLR
 70
     0
  9
$DIMARCSYM
 70
     0
  9
$DIMLTYPE
  6

  9
$DIMLTEX1
  6

  9
$DIMLTEX2
  6

  9
$DIMTXTDIRECTION
 70
     0
  9
$LUNITS
 70
     2
  9
$LUPREC
 70
     4
  9
$SKETCHINC
 40
1.0
  9
$FILLETRAD
 40
3.0
  9
$AUNITS
 70
     0
  9
$AUPREC
 70
     0
  9
$MENU
  1
.
  9
$ELEVATION
 40
0.0
  9
$PELEVATION
 40
0.0
  9
$THICKNESS
 40
0.0
  9
$LIMCHECK
 70
     0
  9
$CHAMFERA
 40
2.0
  9
$CHAMFERB
 40
2.0
  9
$CHAMFERC
 40
0.0
  9
$CHAMFERD
 40
0.0
  9
$SKPOLY
 70
     0
  9
$TDCREATE
 40
2452936.788310359
  9
$TDUCREATE
 40
2452936.413310359
  9
$TDUPDATE
 40
2456739.520773391
  9
$TDUUPDATE
 40
2456739.145773391
  9
$TDINDWG
 40
0.5766698032
  9
$TDUSRTIMER
 40
2456739.14553625
  9
$USRTIMER
 70
     1
  9
$ANGBASE
 50
0.0
  9
$ANGDIR
 70
     0
  9
$PDMODE
 70
     0
  9
$PDSIZE
 40
0.0
  9
$PLINEWID
 40
0.0
  9
$SPLFRAME
 70
     0
  9
$SPLINETYPE
 70
     6
  9
$SPLINESEGS
 70
     8
  9
$HANDSEED
  5
D4C
  9
$SURFTAB1
 70
     6
  9
$SURFTAB2
 70
     6
  9
$SURFTYPE
 70
     6
  9
$SURFU
 70
     6
  9
$SURFV
 70
     6
  9
$UCSBASE
  2

  9
$UCSNAME
  2

  9
$UCSORG
 10
0.0
 20
0.0
 30
0.0
  9
$UCSXDIR
 10
1.0
 20
0.0
 30
0.0
  9
$UCSYDIR
 10
0.0
 20
1.0
 30
0.0
  9
$UCSORTHOREF
  2

  9
$UCSORTHOVIEW
 70
     0
  9
$UCSORGTOP
 10
0.0
 20
0.0
 30
0.0
  9
$UCSORGBOTTOM
 10
0.0
 20
0.0
 30
0.0
  9
$UCSORGLEFT
 10
0.0
 20
0.0
 30
0.0
  9
$UCSORGRIGHT
 10
0.0
 20
0.0
 30
0.0
  9
$UCSORGFRONT
 10
0.0
 20
0.0
 30
0.0
  9
$UCSORGBACK
 10
0.0
 20
0.0
 30
0.0
  9
$PUCSBASE
  2

  9
$PUCSNAME
  2

  9
$PUCSORG
 10
0.0
 20
0.0
 30
0.0
  9
$PUCSXDIR
 10
1.0
 20
0.0
 30
0.0
  9
$PUCSYDIR
 10
0.0
 20
1.0
 30
0.0
  9
$PUCSORTHOREF
  2

  9
$PUCSORTHOVIEW
 70
     0
  9
$PUCSORGTOP
 10
0.0
 20
0.0
 30
0.0
  9
$PUCSORGBOTTOM
 10
0.0
 20
0.0
 30
0.0
  9
$PUCSORGLEFT
 10
0.0
 20
0.0
 30
0.0
  9
$PUCSORGRIGHT
 10
0.0
 20
0.0
 30
0.0
  9
$PUCSORGFRONT
 10
0.0
 20
0.0
 30
0.0
  9
$PUCSORGBACK
 10
0.0
 20
0.0
 30
0.0
  9
$USERI1
 70
     0
  9
$USERI2
 70
     0
  9
$USERI3
 70
     0
  9
$USERI4
 70
     0
  9
$USERI5
 70
     0
  9
$USERR1
 40
0.0
  9
$USERR2
 40
0.0
  9
$USERR3
 40
0.0
  9
$USERR4
 40
0.0
  9
$USERR5
 40
0.0
  9
$WORLDVIEW
 70
     1
  9
$SHADEDGE
 70
     3
  9
$SHADEDIF
 70
    70
  9
$TILEMODE
 70
     1
  9
$MAXACTVP
 70
    64
  9
$PINSBASE
 10
0.0
 20
0.0
 30
0.0
  9
$PLIMCHECK
 70
     0
  9
$PEXTMIN
 10
1.000000000000000E+20
 20
1.000000000000000E+20
 30
1.000000000000000E+20
  9
$PEXTMAX
 10
-1.000000000000000E+20
 20
-1.000000000000000E+20
 30
-1.000000000000000E+20
  9
$PLIMMIN
 10
0.0
 20
0.0
  9
$PLIMMAX
 10
0.0
 20
0.0
  9
$UNITMODE
 70
     0
  9
$VISRETAIN
 70
     1
  9
$PLINEGEN
 70
     0
  9
$PSLTSCALE
 70
     0
  9
$TREEDEPTH
 70
  3020
  9
$CMLSTYLE
  2
Standard
  9
$CMLJUST
 70
     0
  9
$CMLSCALE
 40
20.0
  9
$PROXYGRAPHICS
 70
     1
  9
$MEASUREMENT
 70
     1
  9
$CELWEIGHT
370
    -1
  9
$ENDCAPS
280
     0
  9
$JOINSTYLE
280
     0
  9
$LWDISPLAY
290
     0
  9
$INSUNITS
 70
     4
  9
$HYPERLINKBASE
  1

  9
$STYLESHEET
  1

  9
$XEDIT
290
     1
  9
$CEPSNTYPE
380
     0
  9
$PSTYLEMODE
290
     1
  9
$FINGERPRINTGUID
  2
{86E58535-AB5B-4AFE-AB1B-6758AAB7EA7D}
  9
$VERSIONGUID
  2
{5A693E3A-D6F7-4FAD-8424-2E2FF15E594C}
  9
$EXTNAMES
290
     1
  9
$PSVPSCALE
 40
0.0
  9
$OLESTARTUP
290
     0
  9
$SORTENTS
280
   127
  9
$INDEXCTL
280
     0
  9
$HIDETEXT
280
     1
  9
$XCLIPFRAME
280
     0
  9
$HALOGAP
280
     0
  9
$OBSCOLOR
 70
   257
  9
$OBSLTYPE
280
     0
  9
$INTERSECTIONDISPLAY
280
     0
  9
$INTERSECTIONCOLOR
 70
   257
  9
$DIMASSOC
280
     2
  9
$PROJECTNAME
  1

  9
$CAMERADISPLAY
290
     0
  9
$LENSLENGTH
 40
50.0
  9
$CAMERAHEIGHT
 40
0.0
  9
$STEPSPERSEC
 40
2.0
  9
$STEPSIZE
 40
6.0
  9
$3DDWFPREC
 40
2.0
  9
$PSOLWIDTH
 40
0.25
  9
$PSOLHEIGHT
 40
4.0
  9
$LOFTANG1
 40
1.570796326794897
  9
$LOFTANG2
 40
1.570796326794897
  9
$LOFTMAG1
 40
0.0
  9
$LOFTMAG2
 40
0.0
  9
$LOFTPARAM
 70
     7
  9
$LOFTNORMALS
280
     1
  9
$LATITUDE
 40
37.795
  9
$LONGITUDE
 40
-122.394
  9
$NORTHDIRECTION
 40
0.0
  9
$TIMEZONE
 70
 -8000
  9
$LIGHTGLYPHDISPLAY
280
     1
  9
$TILEMODELIGHTSYNCH
280
     1
  9
$SOLIDHIST
280
     1
  9
$SHOWHIST
280
     1
  9
$DWFFRAME
280
     2
  9
$DGNFRAME
280
     2
  9
$REALWORLDSCALE
290
     1
  9
$INTERFERECOLOR
 62
   256
  9
$CSHADOW
280
     0
  9
$SHADOWPLANELOCATION
 40
0.0
  0
ENDSEC
  0
SECTION
  2
CLASSES
  0
CLASS
  1
ACDBDICTIONARYWDFLT
  2
AcDbDictionaryWithDefault
  3
ObjectDBX Classes
 90
        0
 91
       13
280
     0
281
     0
  0
CLASS
  1
DIMASSOC
  2
AcDbDimAssoc
  3
"AcDbDimAssoc|Product Desc:     AcDim ARX App For Dimension|Company:          Autodesk, Inc.|WEB Address:      www.autodesk.com"
 90
        0
 91
        8
280
     0
281
     0
  0
CLASS
  1
VISUALSTYLE
  2
AcDbVisualStyle
  3
ObjectDBX Classes
 90
     4095
 91
       13
280
     0
281
     0
  0
CLASS
  1
SCALE
  2
AcDbScale
  3
ObjectDBX Classes
 90
     1153
 91
       13
280
     0
281
     0
  0
CLASS
  1
MATERIAL
  2
AcDbMaterial
  3
ObjectDBX Classes
 90
     1153
 91
       13
280
     0
281
     0
  0
CLASS
  1
TABLESTYLE
  2
AcDbTableStyle
  3
ObjectDBX Classes
 90
     4095
 91
       13
280
     0
281
     0
  0
CLASS
  1
SUN
  2
AcDbSun
  3
SCENEOE
 90
     1153
 91
       13
280
     0
281
     0
  0
CLASS
  1
RASTERVARIABLES
  2
AcDbRasterVariables
  3
ISM
 90
        0
 91
       13
280
     0
281
     0
  0
CLASS
  1
DICTIONARYVAR
  2
AcDbDictionaryVar
  3
ObjectDBX Classes
 90
        0
 91
        8
280
     0
281
     0
  0
CLASS
  1
CELLSTYLEMAP
  2
AcDbCellStyleMap
  3
ObjectDBX Classes
 90
     1152
 91
        8
280
     0
281
     0
  0
ENDSEC
  0
SECTION
  2
TABLES
  0
TABLE
  2
VPORT
  5
8
330
0
100
AcDbSymbolTable
 70
     1
  0
VPORT
  5
C87
330
8
100
AcDbSymbolTableRecord
100
AcDbViewportTableRecord
  2
*Active
 70
     0
 10
0.0
 20
0.0
 11
1.0
 21
1.0
 12
124.8426129879796
 22
116.8924355568073
 13
0.0
 23
0.0
 14
10.0
 24
10.0
 15
10.0
 25
10.0
 16
0.0
 26
0.0
 36
1.0
 17
0.0
 27
0.0
 37
0.0
 40
197.0601806813854
 41
1.762376237623762
 42
50.0
 43
0.0
 44
0.0
 50
0.0
 51
0.0
 71
    16
 72
  1000
 73
     1
 74
     3
 75
     0
 76
     0
 77
     0
 78
     0
281
     0
 65
     1
110
0.0
120
0.0
130
0.0
111
1.0
121
0.0
131
0.0
112
0.0
122
1.0
132
0.0
 79
     0
146
0.0
348
C8D
 60
     3
 61
     5
292
     1
282
     1
141
0.0
142
0.0
 63
   256
361
CC9
  0
ENDTAB
  0
TABLE
  2
LTYPE
  5
5
330
0
100
AcDbSymbolTable
 70
     6
  0
LTYPE
  5
14
330
5
100
AcDbSymbolTableRecord
100
AcDbLinetypeTableRecord
  2
ByBlock
 70
     0
  3

 72
    65
 73
     0
 40
0.0
  0
LTYPE
  5
15
330
5
100
AcDbSymbolTableRecord
100
AcDbLinetypeTableRecord
  2
ByLayer
 70
     0
  3

 72
    65
 73
     0
 40
0.0
  0
LTYPE
  5
16
330
5
100
AcDbSymbolTableRecord
100
AcDbLinetypeTableRecord
  2
Continuous
 70
     0
  3
Solid line
 72
    65
 73
     0
 40
0.0
  0
LTYPE
  5
35
330
5
100
AcDbSymbolTableRecord
100
AcDbLinetypeTableRecord
  2
ACAD_ISO08W100
 70
     0
  3
ISO long-dash short-dash ____ __ ____ __ ____ _
 72
    65
 73
     4
 40
36.0
 49
24.0
 74
     0
 49
-3.0
 74
     0
 49
6.0
 74
     0
 49
-3.0
 74
     0
  0
LTYPE
  5
127
330
5
100
AcDbSymbolTableRecord
100
AcDbLinetypeTableRecord
  2
HIDDENX2
 70
     0
  3
Hidden (2x) ____ ____ ____ ____ ____ ____ ____
 72
    65
 73
     2
 40
19.05
 49
12.7
 74
     0
 49
-6.35
 74
     0
  0
LTYPE
  5
5EC
330
5
100
AcDbSymbolTableRecord
100
AcDbLinetypeTableRecord
  2
CENTER
 70
     0
  3
Center ____ _ ____ _ ____ _ ____ _ ____ _ ____
 72
    65
 73
     4
 40
50.8
 49
31.75
 74
     0
 49
-6.35
 74
     0
 49
6.35
 74
     0
 49
-6.35
 74
     0
  0
LTYPE
  5
5ED
330
5
100
AcDbSymbolTableRecord
100
AcDbLinetypeTableRecord
  2
ACAD_ISO02W100
 70
     0
  3
ISO dash __ __ __ __ __ __ __ __ __ __ __ __ __
 72
    65
 73
     2
 40
15.0
 49
12.0
 74
     0
 49
-3.0
 74
     0
  0
LTYPE
  5
605
330
5
100
AcDbSymbolTableRecord
100
AcDbLinetypeTableRecord
  2
DASHED
 70
     0
  3
Dashed __ __ __ __ __ __ __ __ __ __ __ __ __ _
 72
    65
 73
     2
 40
19.05
 49
12.7
 74
     0
 49
-6.35
 74
     0
  0
ENDTAB
  0
TABLE
  2
LAYER
  5
2
330
0
100
AcDbSymbolTable
 70
     9
  0
LAYER
  5
10
330
2
100
AcDbSymbolTableRecord
100
AcDbLayerTableRecord
  2
0
 70
     0
 62
     7
  6
Continuous
370
    -3
390
F
347
CC5
348
0
  0
LAYER
  5
2E
330
2
100
AcDbSymbolTableRecord
100
AcDbLayerTableRecord
  2
枠
 70
     0
 62
     1
  6
Continuous
370
    30
390
F
347
CC5
348
0
  0
LAYER
  5
2F
330
2
100
AcDbSymbolTableRecord
100
AcDbLayerTableRecord
  2
文字
 70
     0
 62
     7
  6
Continuous
370
    30
390
F
347
CC5
348
0
  0
LAYER
  5
36
330
2
100
AcDbSymbolTableRecord
100
AcDbLayerTableRecord
  2
中心線
 70
     0
 62
     7
  6
CENTER
370
    30
390
F
347
CC5
348
0
  0
LAYER
  5
52
330
2
100
AcDbSymbolTableRecord
100
AcDbLayerTableRecord
  2
隠れ線
 70
     0
 62
     2
  6
Continuous
290
     0
370
    -3
390
F
347
CC5
348
0
  0
LAYER
  5
128
330
2
100
AcDbSymbolTableRecord
100
AcDbLayerTableRecord
  2
実線
 70
     0
 62
     7
  6
Continuous
370
    50
390
F
347
CC5
348
0
  0
LAYER
  5
129
330
2
100
AcDbSymbolTableRecord
100
AcDbLayerTableRecord
  2
破線
 70
     0
 62
     7
  6
DASHED
370
    20
390
F
347
CC5
348
0
  0
LAYER
  5
693
330
2
100
AcDbSymbolTableRecord
100
AcDbLayerTableRecord
  2
Defpoints
 70
     0
 62
     7
  6
Continuous
290
     0
370
    -3
390
F
347
CC5
348
0
  0
LAYER
  5
CDD
330
2
100
AcDbSymbolTableRecord
100
AcDbLayerTableRecord
  2
文字・寸法線
 70
     0
 62
     7
  6
Continuous
370
    -3
390
F
347
CC5
348
0
  0
ENDTAB
  0
TABLE
  2
STYLE
  5
3
330
0
100
AcDbSymbolTable
 70
     2
  0
STYLE
  5
11
330
3
100
AcDbSymbolTableRecord
100
AcDbTextStyleTableRecord
  2
Standard
 70
     0
 40
0.0
 41
1.0
 50
0.0
 71
     0
 42
3.0
  3
txt.shx
  4
bigfont.shx
  0
STYLE
  5
34
330
3
100
AcDbSymbolTableRecord
100
AcDbTextStyleTableRecord
  2

 70
     1
 40
0.0
 41
1.0
 50
0.0
 71
     0
 42
2.5
  3
ltypeshp.shx
  4

  0
ENDTAB
  0
TABLE
  2
VIEW
  5
6
330
0
100
AcDbSymbolTable
 70
     0
  0
ENDTAB
  0
TABLE
  2
UCS
  5
7
330
0
100
AcDbSymbolTable
 70
     0
  0
ENDTAB
  0
TABLE
  2
APPID
  5
9
330
0
100
AcDbSymbolTable
 70
     1
  0
APPID
  5
12
330
9
100
AcDbSymbolTableRecord
100
AcDbRegAppTableRecord
  2
ACAD
 70
     0
  0
ENDTAB
  0
TABLE
  2
DIMSTYLE
  5
A
330
0
100
AcDbSymbolTable
 70
     1
100
AcDbDimStyleTable
  0
DIMSTYLE
105
29
102
{ACAD_REACTORS
330
A07
330
A0A
330
A78
330
B89
330
BC2
330
BFC
330
C14
330
D2A
330
D3B
102
}
330
A
100
AcDbSymbolTableRecord
100
AcDbDimStyleTableRecord
  2
ISO-25
 70
     0
 41
2.5
 42
0.625
 43
3.75
 44
1.25
 73
     0
 74
     0
 77
     1
 78
     8
140
2.5
141
2.5
143
0.03937007874016
147
0.625
171
     3
172
     1
178
     0
271
     2
272
     2
274
     3
283
     0
284
     8
340
11
  0
ENDTAB
  0
TABLE
  2
BLOCK_RECORD
  5
1
330
0
100
AcDbSymbolTable
 70
    10
  0
BLOCK_RECORD
  5
21
330
1
100
AcDbSymbolTableRecord
100
AcDbBlockTableRecord
  2
*Model_Space
340
24
 70
     0
280
     1
281
     0
  0
BLOCK_RECORD
  5
CCB
330
1
100
AcDbSymbolTableRecord
100
AcDbBlockTableRecord
  2
*Paper_Space
340
CCC
 70
     0
280
     1
281
     0
  0
BLOCK_RECORD
  5
A2E
330
1
100
AcDbSymbolTableRecord
100
AcDbBlockTableRecord
  2
*D0
340
0
 70
     0
280
     1
281
     0
  0
BLOCK_RECORD
  5
A3A
330
1
100
AcDbSymbolTableRecord
100
AcDbBlockTableRecord
  2
*D1
340
0
 70
     0
280
     1
281
     0
  0
BLOCK_RECORD
  5
A79
330
1
100
AcDbSymbolTableRecord
100
AcDbBlockTableRecord
  2
*D2
340
0
 70
     0
280
     1
281
     0
  0
BLOCK_RECORD
  5
B8A
330
1
100
AcDbSymbolTableRecord
100
AcDbBlockTableRecord
  2
*D3
340
0
 70
     0
280
     1
281
     0
  0
BLOCK_RECORD
  5
BC3
330
1
100
AcDbSymbolTableRecord
100
AcDbBlockTableRecord
  2
*D4
340
0
 70
     0
280
     1
281
     0
  0
BLOCK_RECORD
  5
BFD
330
1
100
AcDbSymbolTableRecord
100
AcDbBlockTableRecord
  2
*D5
340
0
 70
     0
280
     1
281
     0
  0
BLOCK_RECORD
  5
C15
330
1
100
AcDbSymbolTableRecord
100
AcDbBlockTableRecord
  2
*D6
340
0
 70
     0
280
     1
281
     0
  0
BLOCK_RECORD
  5
D2C
330
1
100
AcDbSymbolTableRecord
100
AcDbBlockTableRecord
  2
*D8
340
0
 70
     0
280
     1
281
     0
  0
BLOCK_RECORD
  5
D3D
330
1
100
AcDbSymbolTableRecord
100
AcDbBlockTableRecord
  2
*D9
340
0
 70
     0
280
     1
281
     0
  0
ENDTAB
  0
ENDSEC
  0
SECTION
  2
BLOCKS
  0
BLOCK
  5
22
330
21
100
AcDbEntity
  8
0
100
AcDbBlockBegin
  2
*Model_Space
 70
     0
 10
0.0
 20
0.0
 30
0.0
  3
*Model_Space
  1
*Model_Space
  0
ENDBLK
  5
23
330
21
100
AcDbEntity
  8
0
100
AcDbBlockEnd
  0
BLOCK
  5
CCD
330
CCB
100
AcDbEntity
 67
     1
  8
0
100
AcDbBlockBegin
  2
*Paper_Space
 70
     0
 10
0.0
 20
0.0
 30
0.0
  3
*Paper_Space
  1
*Paper_Space
  0
ENDBLK
  5
CCE
330
CCB
100
AcDbEntity
 67
     1
  8
0
100
AcDbBlockEnd
  0
BLOCK
  5
A38
330
A2E
100
AcDbEntity
  8
0
100
AcDbBlockBegin
  2
*D0
 70
     1
 10
0.0
 20
0.0
 30
0.0
  3
*D0
  1
*D5
  0
LINE
  5
C59
330
A2E
100
AcDbEntity
  8
文字
 62
     0
370
    -2
100
AcDbLine
 10
95.11330259097528
 20
61.95999383033649
 30
0.0
 11
119.6972066414391
 21
61.95999383033648
 31
0.0
  0
LINE
  5
C5A
330
A2E
100
AcDbEntity
  8
文字
 62
     0
370
    -2
100
AcDbLine
 10
103.6133025909753
 20
43.83789777117418
 30
0.0
 11
119.6972066414391
 21
43.83789777117418
 31
0.0
  0
LINE
  5
C5B
330
A2E
100
AcDbEntity
  8
文字
 62
     0
370
    -2
100
AcDbLine
 10
118.4472066414391
 20
59.45999383033648
 30
0.0
 11
118.4472066414391
 21
46.33789777117418
 31
0.0
  0
SOLID
  5
C5C
330
A2E
100
AcDbEntity
  8
文字
 62
     0
100
AcDbTrace
 10
118.0305399747725
 20
59.45999383033648
 30
0.0
 11
118.8638733081058
 21
59.45999383033648
 31
0.0
 12
118.4472066414391
 22
61.95999383033648
 32
0.0
 13
118.4472066414391
 23
61.95999383033648
 33
0.0
  0
SOLID
  5
C5D
330
A2E
100
AcDbEntity
  8
文字
 62
     0
100
AcDbTrace
 10
118.0305399747725
 20
46.33789777117418
 30
0.0
 11
118.8638733081058
 21
46.33789777117418
 31
0.0
 12
118.4472066414391
 22
43.83789777117418
 32
0.0
 13
118.4472066414391
 23
43.83789777117418
 33
0.0
  0
MTEXT
  5
C5E
330
A2E
100
AcDbEntity
  8
文字
 62
     0
100
AcDbMText
 10
116.5722066414391
 20
52.89894580075535
 30
0.0
 40
2.5
 41
0.0
 46
0.0
 71
     5
 72
     1
  1
18
 11
6.123031769111886E-17
 21
1.0
 31
0.0
 73
     1
 44
1.0
  0
POINT
  5
C5F
330
A2E
100
AcDbEntity
  8
Defpoints
 62
     0
100
AcDbPoint
 10
94.48830259097528
 20
61.95999383033649
 30
0.0
  0
POINT
  5
C60
330
A2E
100
AcDbEntity
  8
Defpoints
 62
     0
100
AcDbPoint
 10
102.9883025909753
 20
43.83789777117418
 30
0.0
  0
POINT
  5
C61
330
A2E
100
AcDbEntity
  8
Defpoints
 62
     0
100
AcDbPoint
 10
118.4472066414391
 20
43.83789777117418
 30
0.0
  0
ENDBLK
  5
A39
330
A2E
100
AcDbEntity
  8
0
100
AcDbBlockEnd
  0
BLOCK
  5
A44
330
A3A
100
AcDbEntity
  8
0
100
AcDbBlockBegin
  2
*D1
 70
     1
 10
0.0
 20
0.0
 30
0.0
  3
*D1
  1
*D6
  0
LINE
  5
C50
330
A3A
100
AcDbEntity
  8
文字
 62
     0
370
    -2
100
AcDbLine
 10
44.98830259097525
 20
44.58789777117417
 30
0.0
 11
44.98830259097525
 21
21.21716500680357
 31
0.0
  0
LINE
  5
C51
330
A3A
100
AcDbEntity
  8
文字
 62
     0
370
    -2
100
AcDbLine
 10
104.9883025909752
 20
45.21289777117418
 30
0.0
 11
104.9883025909752
 21
21.21716500680357
 31
0.0
  0
LINE
  5
C52
330
A3A
100
AcDbEntity
  8
文字
 62
     0
370
    -2
100
AcDbLine
 10
47.48830259097525
 20
22.46716500680357
 30
0.0
 11
102.4883025909752
 21
22.46716500680357
 31
0.0
  0
SOLID
  5
C53
330
A3A
100
AcDbEntity
  8
文字
 62
     0
100
AcDbTrace
 10
47.48830259097525
 20
22.88383167347024
 30
0.0
 11
47.48830259097525
 21
22.0504983401369
 31
0.0
 12
44.98830259097525
 22
22.46716500680357
 32
0.0
 13
44.98830259097525
 23
22.46716500680357
 33
0.0
  0
SOLID
  5
C54
330
A3A
100
AcDbEntity
  8
文字
 62
     0
100
AcDbTrace
 10
102.4883025909752
 20
22.88383167347024
 30
0.0
 11
102.4883025909752
 21
22.0504983401369
 31
0.0
 12
104.9883025909752
 22
22.46716500680357
 32
0.0
 13
104.9883025909752
 23
22.46716500680357
 33
0.0
  0
MTEXT
  5
C55
330
A3A
100
AcDbEntity
  8
文字
 62
     0
100
AcDbMText
 10
74.98830259097524
 20
24.34216500680357
 30
0.0
 40
2.5
 41
0.0
 46
0.0
 71
     5
 72
     1
  1
%%c60
 73
     1
 44
1.0
  0
POINT
  5
C56
330
A3A
100
AcDbEntity
  8
Defpoints
 62
     0
100
AcDbPoint
 10
44.98830259097525
 20
45.21289777117417
 30
0.0
  0
POINT
  5
C57
330
A3A
100
AcDbEntity
  8
Defpoints
 62
     0
100
AcDbPoint
 10
104.9883025909752
 20
45.83789777117418
 30
0.0
  0
POINT
  5
C58
330
A3A
100
AcDbEntity
  8
Defpoints
 62
     0
100
AcDbPoint
 10
104.9883025909752
 20
22.46716500680357
 30
0.0
  0
ENDBLK
  5
A45
330
A3A
100
AcDbEntity
  8
0
100
AcDbBlockEnd
  0
BLOCK
  5
A83
330
A79
100
AcDbEntity
  8
0
100
AcDbBlockBegin
  2
*D2
 70
     1
 10
0.0
 20
0.0
 30
0.0
  3
*D2
  1
*D7
  0
LINE
  5
A90
330
A79
100
AcDbEntity
  8
文字
 62
     0
370
    -2
100
AcDbLine
 10
156.3809350221649
 20
73.04075860270952
 30
0.0
 11
156.3809350221649
 21
20.29430777181449
 31
0.0
  0
LINE
  5
A91
330
A79
100
AcDbEntity
  8
文字
 62
     0
370
    -2
100
AcDbLine
 10
195.3809350221649
 20
73.04075860270952
 30
0.0
 11
195.3809350221649
 21
20.29430777181449
 31
0.0
  0
LINE
  5
A92
330
A79
100
AcDbEntity
  8
文字
 62
     0
370
    -2
100
AcDbLine
 10
158.8809350221649
 20
21.54430777181449
 30
0.0
 11
192.8809350221649
 21
21.54430777181449
 31
0.0
  0
SOLID
  5
A93
330
A79
100
AcDbEntity
  8
文字
 62
     0
100
AcDbTrace
 10
158.8809350221649
 20
21.96097443848116
 30
0.0
 11
158.8809350221649
 21
21.12764110514782
 31
0.0
 12
156.3809350221649
 22
21.54430777181449
 32
0.0
 13
156.3809350221649
 23
21.54430777181449
 33
0.0
  0
SOLID
  5
A94
330
A79
100
AcDbEntity
  8
文字
 62
     0
100
AcDbTrace
 10
192.8809350221649
 20
21.12764110514782
 30
0.0
 11
192.8809350221649
 21
21.96097443848116
 31
0.0
 12
195.3809350221649
 22
21.54430777181449
 32
0.0
 13
195.3809350221649
 23
21.54430777181449
 33
0.0
  0
MTEXT
  5
A95
330
A79
100
AcDbEntity
  8
文字
 62
     0
100
AcDbMText
 10
175.8809350221649
 20
23.41930777181449
 30
0.0
 40
2.5
 41
0.0
 46
0.0
 71
     5
 72
     1
  1
%%c39
 73
     1
 44
1.0
  0
POINT
  5
A96
330
A79
100
AcDbEntity
  8
Defpoints
 62
     0
100
AcDbPoint
 10
156.3809350221649
 20
73.66575860270952
 30
0.0
  0
POINT
  5
A97
330
A79
100
AcDbEntity
  8
Defpoints
 62
     0
100
AcDbPoint
 10
195.3809350221649
 20
73.66575860270952
 30
0.0
  0
POINT
  5
A98
330
A79
100
AcDbEntity
  8
Defpoints
 62
     0
100
AcDbPoint
 10
195.3809350221649
 20
21.54430777181449
 30
0.0
  0
ENDBLK
  5
A84
330
A79
100
AcDbEntity
  8
0
100
AcDbBlockEnd
  0
BLOCK
  5
B94
330
B8A
100
AcDbEntity
  8
0
100
AcDbBlockBegin
  2
*D3
 70
     1
 10
0.0
 20
0.0
 30
0.0
  3
*D3
  1
*D14
  0
LINE
  5
BA1
330
B8A
100
AcDbEntity
  8
文字
 62
     0
370
    -2
100
AcDbLine
 10
163.8864831797504
 20
66.11575860270962
 30
0.0
 11
163.8864831797504
 21
29.0977123254799
 31
0.0
  0
LINE
  5
BA2
330
B8A
100
AcDbEntity
  8
文字
 62
     0
370
    -2
100
AcDbLine
 10
187.8753868645794
 20
66.11575860270962
 30
0.0
 11
187.8753868645794
 21
29.0977123254799
 31
0.0
  0
LINE
  5
BA3
330
B8A
100
AcDbEntity
  8
文字
 62
     0
370
    -2
100
AcDbLine
 10
166.3864831797504
 20
30.3477123254799
 30
0.0
 11
185.3753868645794
 21
30.3477123254799
 31
0.0
  0
SOLID
  5
BA4
330
B8A
100
AcDbEntity
  8
文字
 62
     0
100
AcDbTrace
 10
166.3864831797504
 20
30.76437899214657
 30
0.0
 11
166.3864831797504
 21
29.93104565881324
 31
0.0
 12
163.8864831797504
 22
30.3477123254799
 32
0.0
 13
163.8864831797504
 23
30.3477123254799
 33
0.0
  0
SOLID
  5
BA5
330
B8A
100
AcDbEntity
  8
文字
 62
     0
100
AcDbTrace
 10
185.3753868645794
 20
29.93104565881324
 30
0.0
 11
185.3753868645794
 21
30.76437899214657
 31
0.0
 12
187.8753868645794
 22
30.3477123254799
 32
0.0
 13
187.8753868645794
 23
30.3477123254799
 33
0.0
  0
MTEXT
  5
BA6
330
B8A
100
AcDbEntity
  8
文字
 62
     0
100
AcDbMText
 10
175.8809350221649
 20
32.2227123254799
 30
0.0
 40
2.5
 41
0.0
 46
0.0
 71
     5
 72
     1
  1
24
 73
     1
 44
1.0
  0
POINT
  5
BA7
330
B8A
100
AcDbEntity
  8
Defpoints
 62
     0
100
AcDbPoint
 10
163.8864831797504
 20
66.74075860270962
 30
0.0
  0
POINT
  5
BA8
330
B8A
100
AcDbEntity
  8
Defpoints
 62
     0
100
AcDbPoint
 10
187.8753868645794
 20
66.74075860270962
 30
0.0
  0
POINT
  5
BA9
330
B8A
100
AcDbEntity
  8
Defpoints
 62
     0
100
AcDbPoint
 10
187.8753868645794
 20
30.3477123254799
 30
0.0
  0
ENDBLK
  5
B95
330
B8A
100
AcDbEntity
  8
0
100
AcDbBlockEnd
  0
BLOCK
  5
BCD
330
BC3
100
AcDbEntity
  8
0
100
AcDbBlockBegin
  2
*D4
 70
     1
 10
0.0
 20
0.0
 30
0.0
  3
*D4
  1
*D16
  0
LINE
  5
C47
330
BC3
100
AcDbEntity
  8
文字
 62
     0
370
    -2
100
AcDbLine
 10
89.46330259097525
 20
71.95999498704352
 30
0.0
 11
119.6972066414391
 21
71.9599949870435
 31
0.0
  0
LINE
  5
C48
330
BC3
100
AcDbEntity
  8
文字
 62
     0
370
    -2
100
AcDbLine
 10
90.48588124996948
 20
61.95999383033649
 30
0.0
 11
119.6972066414391
 21
61.95999383033648
 31
0.0
  0
LINE
  5
C49
330
BC3
100
AcDbEntity
  8
文字
 62
     0
370
    -2
100
AcDbLine
 10
118.4472066414391
 20
69.4599949870435
 30
0.0
 11
118.4472066414391
 21
64.45999383033649
 31
0.0
  0
SOLID
  5
C4A
330
BC3
100
AcDbEntity
  8
文字
 62
     0
100
AcDbTrace
 10
118.0305399747725
 20
69.4599949870435
 30
0.0
 11
118.8638733081058
 21
69.4599949870435
 31
0.0
 12
118.4472066414391
 22
71.9599949870435
 32
0.0
 13
118.4472066414391
 23
71.9599949870435
 33
0.0
  0
SOLID
  5
C4B
330
BC3
100
AcDbEntity
  8
文字
 62
     0
100
AcDbTrace
 10
118.0305399747725
 20
64.45999383033649
 30
0.0
 11
118.8638733081058
 21
64.45999383033649
 31
0.0
 12
118.4472066414391
 22
61.95999383033648
 32
0.0
 13
118.4472066414391
 23
61.95999383033648
 33
0.0
  0
MTEXT
  5
C4C
330
BC3
100
AcDbEntity
  8
文字
 62
     0
100
AcDbMText
 10
116.5722066414391
 20
66.95999440869001
 30
0.0
 40
2.5
 41
0.0
 46
0.0
 71
     5
 72
     1
  1
10
 11
6.123031769111886E-17
 21
1.0
 31
0.0
 73
     1
 44
1.0
  0
POINT
  5
C4D
330
BC3
100
AcDbEntity
  8
Defpoints
 62
     0
100
AcDbPoint
 10
88.83830259097525
 20
71.95999498704352
 30
0.0
  0
POINT
  5
C4E
330
BC3
100
AcDbEntity
  8
Defpoints
 62
     0
100
AcDbPoint
 10
89.86088124996948
 20
61.95999383033649
 30
0.0
  0
POINT
  5
C4F
330
BC3
100
AcDbEntity
  8
Defpoints
 62
     0
100
AcDbPoint
 10
118.4472066414391
 20
61.95999383033648
 30
0.0
  0
ENDBLK
  5
BCE
330
BC3
100
AcDbEntity
  8
0
100
AcDbBlockEnd
  0
BLOCK
  5
C07
330
BFD
100
AcDbEntity
  8
0
100
AcDbBlockBegin
  2
*D5
 70
     1
 10
0.0
 20
0.0
 30
0.0
  3
*D5
  1
*D17
  0
LINE
  5
C3E
330
BFD
100
AcDbEntity
  8
文字
 62
     0
370
    -2
100
AcDbLine
 10
66.98830259097527
 20
170.5849949870435
 30
0.0
 11
66.98830259097527
 21
187.0211999741692
 31
0.0
  0
LINE
  5
C3F
330
BFD
100
AcDbEntity
  8
文字
 62
     0
370
    -2
100
AcDbLine
 10
82.98830259097527
 20
170.5849949870435
 30
0.0
 11
82.98830259097527
 21
187.0211999741692
 31
0.0
  0
LINE
  5
C40
330
BFD
100
AcDbEntity
  8
文字
 62
     0
370
    -2
100
AcDbLine
 10
69.48830259097527
 20
185.7711999741692
 30
0.0
 11
80.48830259097527
 21
185.7711999741692
 31
0.0
  0
SOLID
  5
C41
330
BFD
100
AcDbEntity
  8
文字
 62
     0
100
AcDbTrace
 10
69.48830259097527
 20
186.1878666408359
 30
0.0
 11
69.48830259097527
 21
185.3545333075026
 31
0.0
 12
66.98830259097527
 22
185.7711999741692
 32
0.0
 13
66.98830259097527
 23
185.7711999741692
 33
0.0
  0
SOLID
  5
C42
330
BFD
100
AcDbEntity
  8
文字
 62
     0
100
AcDbTrace
 10
80.48830259097527
 20
186.1878666408359
 30
0.0
 11
80.48830259097527
 21
185.3545333075026
 31
0.0
 12
82.98830259097527
 22
185.7711999741692
 32
0.0
 13
82.98830259097527
 23
185.7711999741692
 33
0.0
  0
MTEXT
  5
C43
330
BFD
100
AcDbEntity
  8
文字
 62
     0
100
AcDbMText
 10
74.98830259097527
 20
187.6461999741692
 30
0.0
 40
2.5
 41
0.0
 46
0.0
 71
     5
 72
     1
  1
{\fArial|b0|i0|c0|p32;M}16
 73
     1
 44
1.0
  0
POINT
  5
C44
330
BFD
100
AcDbEntity
  8
Defpoints
 62
     0
100
AcDbPoint
 10
66.98830259097527
 20
169.9599949870435
 30
0.0
  0
POINT
  5
C45
330
BFD
100
AcDbEntity
  8
Defpoints
 62
     0
100
AcDbPoint
 10
82.98830259097527
 20
169.9599949870435
 30
0.0
  0
POINT
  5
C46
330
BFD
100
AcDbEntity
  8
Defpoints
 62
     0
100
AcDbPoint
 10
82.98830259097527
 20
185.7711999741692
 30
0.0
  0
ENDBLK
  5
C08
330
BFD
100
AcDbEntity
  8
0
100
AcDbBlockEnd
  0
BLOCK
  5
C1F
330
C15
100
AcDbEntity
  8
0
100
AcDbBlockBegin
  2
*D6
 70
     1
 10
0.0
 20
0.0
 30
0.0
  3
*D6
  1
*D18
  0
LINE
  5
C76
330
C15
100
AcDbEntity
  8
文字
 62
     0
370
    -2
100
AcDbLine
 10
83.61330259097525
 20
171.9599949870435
 30
0.0
 11
119.6972066414392
 21
171.9599949870435
 31
0.0
  0
LINE
  5
C77
330
C15
100
AcDbEntity
  8
文字
 62
     0
370
    -2
100
AcDbLine
 10
89.46330259097525
 20
71.95999498704352
 30
0.0
 11
119.6972066414391
 21
71.9599949870435
 31
0.0
  0
LINE
  5
C78
330
C15
100
AcDbEntity
  8
文字
 62
     0
370
    -2
100
AcDbLine
 10
118.4472066414392
 20
169.4599949870435
 30
0.0
 11
118.4472066414391
 21
74.4599949870435
 31
0.0
  0
SOLID
  5
C79
330
C15
100
AcDbEntity
  8
文字
 62
     0
100
AcDbTrace
 10
118.0305399747725
 20
169.4599949870435
 30
0.0
 11
118.8638733081058
 21
169.4599949870435
 31
0.0
 12
118.4472066414392
 22
171.9599949870435
 32
0.0
 13
118.4472066414392
 23
171.9599949870435
 33
0.0
  0
SOLID
  5
C7A
330
C15
100
AcDbEntity
  8
文字
 62
     0
100
AcDbTrace
 10
118.0305399747725
 20
74.4599949870435
 30
0.0
 11
118.8638733081058
 21
74.4599949870435
 31
0.0
 12
118.4472066414391
 22
71.9599949870435
 32
0.0
 13
118.4472066414391
 23
71.9599949870435
 33
0.0
  0
MTEXT
  5
C7B
330
C15
100
AcDbEntity
  8
文字
 62
     0
100
AcDbMText
 10
116.5722066414391
 20
121.9599949870435
 30
0.0
 40
2.5
 41
0.0
 46
0.0
 71
     5
 72
     1
  1
150
 11
6.123031769111886E-17
 21
1.0
 31
0.0
 73
     1
 44
1.0
  0
POINT
  5
C7C
330
C15
100
AcDbEntity
  8
Defpoints
 62
     0
100
AcDbPoint
 10
82.98830259097525
 20
171.9599949870435
 30
0.0
  0
POINT
  5
C7D
330
C15
100
AcDbEntity
  8
Defpoints
 62
     0
100
AcDbPoint
 10
88.83830259097525
 20
71.95999498704352
 30
0.0
  0
POINT
  5
C7E
330
C15
100
AcDbEntity
  8
Defpoints
 62
     0
100
AcDbPoint
 10
118.4472066414391
 20
71.9599949870435
 30
0.0
  0
ENDBLK
  5
C20
330
C15
100
AcDbEntity
  8
0
100
AcDbBlockEnd
  0
BLOCK
  5
D2D
330
D2C
100
AcDbEntity
  8
0
100
AcDbBlockBegin
  2
*D8
 70
     1
 10
0.0
 20
0.0
 30
0.0
  3
*D8
  1
*D8
  0
LINE
  5
D2E
330
D2C
100
AcDbEntity
  8
文字
 62
     0
370
    -2
100
AcDbLine
 10
15.00069579844845
 20
10.00019833783685
 30
0.0
 11
1.875
 21
10.00019833783685
 31
0.0
  0
LINE
  5
D2F
330
D2C
100
AcDbEntity
  8
文字
 62
     0
370
    -2
100
AcDbLine
 10
15.8422714469077
 20
0.0
 30
0.0
 11
1.875
 21
0.0
 31
0.0
  0
LINE
  5
D30
330
D2C
100
AcDbEntity
  8
文字
 62
     0
370
    -2
100
AcDbLine
 10
3.125
 20
7.500198337836849
 30
0.0
 11
3.125
 21
2.5
 31
0.0
  0
SOLID
  5
D31
330
D2C
100
AcDbEntity
  8
文字
 62
     0
100
AcDbTrace
 10
3.541666666666667
 20
7.500198337836849
 30
0.0
 11
2.708333333333333
 21
7.500198337836849
 31
0.0
 12
3.125
 22
10.00019833783685
 32
0.0
 13
3.125
 23
10.00019833783685
 33
0.0
  0
SOLID
  5
D32
330
D2C
100
AcDbEntity
  8
文字
 62
     0
100
AcDbTrace
 10
2.708333333333333
 20
2.5
 30
0.0
 11
3.541666666666666
 21
2.5
 31
0.0
 12
3.125
 22
0.0
 32
0.0
 13
3.125
 23
0.0
 33
0.0
  0
MTEXT
  5
D33
330
D2C
100
AcDbEntity
  8
文字
 62
     0
100
AcDbMText
 10
1.25
 20
5.156323232109969
 30
0.0
 40
2.5
 41
0.0
 46
0.0
 71
     5
 72
     1
  1
10
 11
4.440804020554295E-17
 21
1.0
 31
0.0
 73
     1
 44
1.0
  0
POINT
  5
D34
330
D2C
100
AcDbEntity
  8
Defpoints
 62
     0
100
AcDbPoint
 10
15.62569579844845
 20
10.00019833783685
 30
0.0
  0
POINT
  5
D35
330
D2C
100
AcDbEntity
  8
Defpoints
 62
     0
100
AcDbPoint
 10
16.4672714469077
 20
0.0
 30
0.0
  0
POINT
  5
D36
330
D2C
100
AcDbEntity
  8
Defpoints
 62
     0
100
AcDbPoint
 10
3.125
 20
0.0000000000000008
 30
0.0
  0
ENDBLK
  5
D37
330
D2C
100
AcDbEntity
  8
0
100
AcDbBlockEnd
  0
BLOCK
  5
D3E
330
D3D
100
AcDbEntity
  8
0
100
AcDbBlockBegin
  2
*D9
 70
     1
 10
0.0
 20
0.0
 30
0.0
  3
*D9
  1
*D9
  0
LINE
  5
D40
330
D3D
100
AcDbEntity
  8
文字
 62
     0
370
    -2
100
AcDbLine
 10
44.34509933847765
 20
53.89038793323246
 30
0.0
 11
31.21940354002921
 21
53.89038793323246
 31
0.0
  0
LINE
  5
D41
330
D3D
100
AcDbEntity
  8
文字
 62
     0
370
    -2
100
AcDbLine
 10
45.18667498693691
 20
43.89018959539561
 30
0.0
 11
31.21940354002921
 21
43.89018959539561
 31
0.0
  0
LINE
  5
D42
330
D3D
100
AcDbEntity
  8
文字
 62
     0
370
    -2
100
AcDbLine
 10
32.46940354002921
 20
51.39038793323246
 30
0.0
 11
32.46940354002921
 21
46.39018959539561
 31
0.0
  0
SOLID
  5
D43
330
D3D
100
AcDbEntity
  8
文字
 62
     0
100
AcDbTrace
 10
32.88607020669587
 20
51.39038793323246
 30
0.0
 11
32.05273687336254
 21
51.39038793323246
 31
0.0
 12
32.46940354002921
 22
53.89038793323246
 32
0.0
 13
32.46940354002921
 23
53.89038793323246
 33
0.0
  0
SOLID
  5
D44
330
D3D
100
AcDbEntity
  8
文字
 62
     0
100
AcDbTrace
 10
32.05273687336254
 20
46.39018959539561
 30
0.0
 11
32.88607020669587
 21
46.39018959539561
 31
0.0
 12
32.46940354002921
 22
43.89018959539561
 32
0.0
 13
32.46940354002921
 23
43.89018959539561
 33
0.0
  0
MTEXT
  5
D45
330
D3D
100
AcDbEntity
  8
文字
 62
     0
100
AcDbMText
 10
30.59440354002921
 20
49.04651282750558
 30
0.0
 40
2.5
 41
0.0
 46
0.0
 71
     5
 72
     1
  1
10
 11
0.0
 21
1.0
 31
0.0
 73
     1
 44
1.0
  0
POINT
  5
D46
330
D3D
100
AcDbEntity
  8
Defpoints
 62
     0
100
AcDbPoint
 10
44.97009933847765
 20
53.89038793323246
 30
0.0
  0
POINT
  5
D47
330
D3D
100
AcDbEntity
  8
Defpoints
 62
     0
100
AcDbPoint
 10
45.81167498693691
 20
43.89018959539561
 30
0.0
  0
POINT
  5
D48
330
D3D
100
AcDbEntity
  8
Defpoints
 62
     0
100
AcDbPoint
 10
32.46940354002921
 20
43.89018959539561
 30
0.0
  0
ENDBLK
  5
D3F
330
D3D
100
AcDbEntity
  8
0
100
AcDbBlockEnd
  0
ENDSEC
  0
SECTION
  2
ENTITIES
  0
CIRCLE
  5
640
330
21
100
AcDbEntity
  8
実線
100
AcDbCircle
 10
175.8809350221649
 20
73.66575860270952
 30
0.0
 40
30.0
  0
LINE
  5
88B
330
21
100
AcDbEntity
  8
中心線
100
AcDbLine
 10
175.8809350221649
 20
73.66575860270952
 30
0.0
 11
175.8809350221649
 21
116.4330852772378
 31
0.0
  0
LINE
  5
88C
330
21
100
AcDbEntity
  8
中心線
100
AcDbLine
 10
175.8809350221649
 20
73.66575860270952
 30
0.0
 11
175.8809350221649
 21
37.25540179114228
 31
0.0
  0
LINE
  5
98C
102
{ACAD_REACTORS
330
A8F
102
}
330
21
100
AcDbEntity
  8
中心線
100
AcDbLine
 10
175.8809350221649
 20
73.66575860270952
 30
0.0
 11
133.3546338377198
 21
73.66575860270952
 31
0.0
  0
LINE
  5
98D
102
{ACAD_REACTORS
330
A8F
102
}
330
21
100
AcDbEntity
  8
中心線
100
AcDbLine
 10
175.8809350221649
 20
73.66575860270952
 30
0.0
 11
220.3408224359301
 21
73.66575860270952
 31
0.0
  0
LINE
  5
9F1
330
21
100
AcDbEntity
  8
実線
100
AcDbLine
 10
74.98830259097528
 20
61.95999383033649
 30
0.0
 11
89.86088124996948
 21
61.95999383033649
 31
0.0
  0
LINE
  5
9F5
330
21
100
AcDbEntity
  8
実線
100
AcDbLine
 10
94.48830259097528
 20
61.95999383033649
 30
0.0
 11
104.160973150297
 21
54.95882275882745
 31
0.0
  0
LINE
  5
9F6
102
{ACAD_REACTORS
330
A0C
102
}
330
21
100
AcDbEntity
  8
実線
100
AcDbLine
 10
104.9883025909752
 20
53.33868580186979
 30
0.0
 11
104.9883025909753
 21
45.83789777117418
 31
0.0
  0
LINE
  5
9F7
330
21
100
AcDbEntity
  8
実線
100
AcDbLine
 10
102.9883025909753
 20
43.83789777117418
 30
0.0
 11
46.98830259097525
 21
43.83789777117417
 31
0.0
  0
LINE
  5
9F8
330
21
100
AcDbEntity
  8
実線
100
AcDbLine
 10
44.98830259097525
 20
45.83789777117417
 30
0.0
 11
44.98830259097528
 21
53.33868580186977
 31
0.0
  0
LINE
  5
9F9
330
21
100
AcDbEntity
  8
実線
100
AcDbLine
 10
45.81563203165351
 20
54.95882275882744
 30
0.0
 11
55.48830259097525
 21
61.95999383033649
 31
0.0
  0
LINE
  5
9FA
330
21
100
AcDbEntity
  8
実線
100
AcDbLine
 10
55.48830259097525
 20
61.95999383033649
 30
0.0
 11
74.98830259097525
 21
61.95999383033649
 31
0.0
  0
LINE
  5
9FB
330
21
100
AcDbEntity
  8
実線
100
AcDbLine
 10
44.98830259097525
 20
54.23789777117418
 30
0.0
 11
104.9883025909753
 21
54.23789777117418
 31
0.0
  0
LINE
  5
A02
102
{ACAD_REACTORS
330
A09
330
BD9
102
}
330
21
100
AcDbEntity
  8
実線
100
AcDbLine
 10
89.86088124996948
 20
61.95999383033649
 30
0.0
 11
94.48830259097528
 21
61.95999383033649
 31
0.0
  0
ARC
  5
A03
330
21
100
AcDbEntity
  8
実線
100
AcDbCircle
 10
46.98830259097525
 20
45.83789777117417
 30
0.0
 40
2.0
100
AcDbArc
 50
180.0
 51
270.0
  0
ARC
  5
A04
102
{ACAD_REACTORS
330
A09
330
A0C
102
}
330
21
100
AcDbEntity
  8
実線
100
AcDbCircle
 10
102.9883025909753
 20
45.83789777117418
 30
0.0
 40
2.0
100
AcDbArc
 50
270.0
 51
0.0
  0
ARC
  5
A05
330
21
100
AcDbEntity
  8
実線
100
AcDbCircle
 10
102.9883025909752
 20
53.33868580186979
 30
0.0
 40
2.0
100
AcDbArc
 50
0.0
 51
54.10262248829268
  0
ARC
  5
A06
330
21
100
AcDbEntity
  8
実線
100
AcDbCircle
 10
46.98830259097528
 20
53.33868580186977
 30
0.0
 40
2.0
100
AcDbArc
 50
125.8973775117073
 51
180.0
  0
DIMENSION
  5
A07
102
{ACAD_REACTORS
330
A09
102
}
102
{ACAD_XDICTIONARY
360
A08
102
}
330
21
100
AcDbEntity
  8
文字
100
AcDbDimension
280
     0
  2
*D0
 10
118.4472066414391
 20
43.83789777117418
 30
0.0
 11
116.5722066414391
 21
52.89894580075535
 31
0.0
 70
    32
  1
18
 71
     5
 42
18.1220960591623
 73
     0
 74
     0
 75
     0
  3
ISO-25
100
AcDbAlignedDimension
 13
94.48830259097528
 23
61.95999383033649
 33
0.0
 14
102.9883025909753
 24
43.83789777117418
 34
0.0
 50
90.0
100
AcDbRotatedDimension
  0
DIMENSION
  5
A0A
102
{ACAD_REACTORS
330
A0C
102
}
102
{ACAD_XDICTIONARY
360
A0B
102
}
330
21
100
AcDbEntity
  8
文字
100
AcDbDimension
280
     0
  2
*D1
 10
104.9883025909752
 20
22.46716500680357
 30
0.0
 11
74.98830259097524
 21
24.34216500680357
 31
0.0
 70
    32
  1
%%c<>
 71
     5
 42
59.99999999999997
 73
     0
 74
     0
 75
     0
  3
ISO-25
100
AcDbAlignedDimension
 13
44.98830259097525
 23
45.21289777117417
 33
0.0
 14
104.9883025909752
 24
45.83789777117418
 34
0.0
100
AcDbRotatedDimension
  0
LINE
  5
A5A
330
21
100
AcDbEntity
  8
実線
100
AcDbLine
 10
66.53830259097526
 20
61.95999383033649
 30
0.0
 11
83.06146010374849
 21
61.95999383033649
 31
0.0
  0
CIRCLE
  5
A77
102
{ACAD_REACTORS
330
A8F
102
}
330
21
100
AcDbEntity
  8
実線
100
AcDbCircle
 10
175.8809350221649
 20
73.66575860270952
 30
0.0
 40
19.5
  0
DIMENSION
  5
A78
102
{ACAD_REACTORS
330
A8F
102
}
102
{ACAD_XDICTIONARY
360
A85
102
}
330
21
100
AcDbEntity
  8
文字
100
AcDbDimension
280
     0
  2
*D2
 10
195.3809350221649
 20
21.54430777181449
 30
0.0
 11
175.8809350221649
 21
23.41930777181449
 31
0.0
 70
    32
  1
%%c<>
 71
     5
 42
39.0
 73
     0
 74
     0
 75
     0
  3
ISO-25
100
AcDbAlignedDimension
 13
156.3809350221649
 23
73.66575860270952
 33
0.0
 14
195.3809350221649
 24
73.66575860270952
 34
0.0
100
AcDbRotatedDimension
  0
LWPOLYLINE
  5
ADF
102
{ACAD_REACTORS
330
BD9
330
C2B
102
}
330
21
100
AcDbEntity
  8
実線
100
AcDbPolyline
 90
        4
 70
     0
 43
0.0
 10
88.83830259097525
 20
62.95999498704353
 10
88.83830259097525
 20
71.95999498704352
 10
61.13830259097526
 20
71.95999498704352
 10
61.13830259097526
 20
62.95999498704352
  0
LINE
  5
AE0
330
21
100
AcDbEntity
  8
実線
100
AcDbLine
 10
68.13830259097526
 20
71.95999498704352
 30
0.0
 11
68.13830259097526
 21
62.95999498704352
 31
0.0
  0
LINE
  5
AE1
330
21
100
AcDbEntity
  8
実線
100
AcDbLine
 10
81.83830259097525
 20
71.95999498704352
 30
0.0
 11
81.83830259097525
 21
62.95999498704352
 31
0.0
  0
ARC
  5
AE2
330
21
100
AcDbEntity
  8
実線
100
AcDbCircle
 10
64.63830259097526
 20
68.58498732386778
 30
0.0
 40
6.624993493531275
100
AcDbArc
 50
238.1091731852506
 51
301.8908268147494
  0
ARC
  5
AE3
330
21
100
AcDbEntity
  8
実線
100
AcDbCircle
 10
74.98830259097525
 20
85.92124498704341
 30
0.0
 40
23.96124999999989
100
AcDbArc
 50
253.3886475888884
 51
286.6113524111116
  0
ARC
  5
AE4
330
21
100
AcDbEntity
  8
実線
100
AcDbCircle
 10
85.33830259097522
 20
68.58474379154347
 30
0.0
 40
6.624786722131047
100
AcDbArc
 50
238.1080604549013
 51
301.8919395450987
  0
LINE
  5
AE8
330
21
100
AcDbEntity
  8
実線
100
AcDbLine
 10
64.63830259097526
 20
61.9599938303365
 30
0.0
 11
85.36037214493606
 21
61.9599938303365
 31
0.0
  0
LINE
  5
AF0
330
21
100
AcDbEntity
  8
実線
100
AcDbLine
 10
65.40132016242083
 20
61.95999383033647
 30
0.0
 11
84.5752850195297
 21
61.9599938303365
 31
0.0
  0
LINE
  5
AF1
330
21
100
AcDbEntity
  8
中心線
100
AcDbLine
 10
74.98830259097524
 20
182.286051478011
 30
0.0
 11
74.98830259097525
 21
121.9599949870435
 31
0.0
  0
CIRCLE
  5
B86
330
21
100
AcDbEntity
  8
実線
100
AcDbCircle
 10
175.8809350221649
 20
73.66575860270952
 30
0.0
 40
8.0
  0
CIRCLE
  5
B87
330
21
100
AcDbEntity
  8
実線
370
    30
100
AcDbCircle
 10
175.8809350221649
 20
73.66575860270952
 30
0.0
 40
6.0
  0
LWPOLYLINE
  5
B88
102
{ACAD_REACTORS
330
BA0
102
}
330
21
100
AcDbEntity
  8
実線
100
AcDbPolyline
 90
        6
 70
     1
 43
0.0
 10
187.8753868645794
 20
80.59075860270963
 10
175.8809350221649
 20
87.51575860270962
 10
163.8864831797504
 20
80.59075860270963
 10
163.8864831797504
 20
66.74075860270962
 10
175.8809350221649
 20
59.81575860270959
 10
187.8753868645794
 20
66.74075860270962
  0
DIMENSION
  5
B89
102
{ACAD_REACTORS
330
BA0
102
}
102
{ACAD_XDICTIONARY
360
B96
102
}
330
21
100
AcDbEntity
  8
文字
100
AcDbDimension
280
     0
  2
*D3
 10
187.8753868645794
 20
30.3477123254799
 30
0.0
 11
175.8809350221649
 21
32.2227123254799
 31
0.0
 70
    32
  1
24
 71
     5
 42
23.98890368482901
 73
     0
 74
     0
 75
     0
  3
ISO-25
100
AcDbAlignedDimension
 13
163.8864831797504
 23
66.74075860270962
 33
0.0
 14
187.8753868645794
 24
66.74075860270962
 34
0.0
100
AcDbRotatedDimension
  0
DIMENSION
  5
BC2
102
{ACAD_REACTORS
330
BD9
102
}
102
{ACAD_XDICTIONARY
360
BCF
102
}
330
21
100
AcDbEntity
  8
文字
100
AcDbDimension
280
     0
  2
*D4
 10
118.4472066414391
 20
61.95999383033648
 30
0.0
 11
116.5722066414391
 21
66.95999440869001
 31
0.0
 70
    32
 71
     5
 42
10.00000115670702
 73
     0
 74
     0
 75
     0
  3
ISO-25
100
AcDbAlignedDimension
 13
88.83830259097525
 23
71.95999498704352
 33
0.0
 14
89.86088124996948
 24
61.95999383033649
 34
0.0
 50
90.0
100
AcDbRotatedDimension
  0
LWPOLYLINE
  5
BDC
330
21
100
AcDbEntity
  8
実線
100
AcDbPolyline
 90
        6
 70
     0
 43
0.0
 10
82.98830259097527
 20
126.5787971405605
 10
82.98830259097527
 20
169.9599949870435
 10
80.98830259097527
 20
171.9599949870435
 10
68.98830259097527
 20
171.9599949870435
 10
66.98830259097527
 20
169.9599949870435
 10
66.98830259097527
 20
117.3411928335265
  0
LINE
  5
BF9
102
{ACAD_REACTORS
330
C13
102
}
330
21
100
AcDbEntity
  8
実線
370
    20
100
AcDbLine
 10
66.98830259097527
 20
169.9599949870435
 30
0.0
 11
82.98830259097527
 21
169.9599949870435
 31
0.0
  0
LINE
  5
BFA
330
21
100
AcDbEntity
  8
実線
370
    20
100
AcDbLine
 10
68.98830259097527
 20
171.9599949870435
 30
0.0
 11
68.98830259097525
 21
118.4958933719058
 31
0.0
  0
LINE
  5
BFB
330
21
100
AcDbEntity
  8
実線
370
    20
100
AcDbLine
 10
80.98830259097527
 20
171.9599949870435
 30
0.0
 11
80.98830259097528
 21
125.4240966021813
 31
0.0
  0
DIMENSION
  5
BFC
102
{ACAD_REACTORS
330
C13
102
}
102
{ACAD_XDICTIONARY
360
C09
102
}
330
21
100
AcDbEntity
  8
文字
100
AcDbDimension
280
     0
  2
*D5
 10
82.98830259097527
 20
185.7711999741692
 30
0.0
 11
74.98830259097527
 21
187.6461999741692
 31
0.0
 70
    32
  1
{\fArial|b0|i0|c0|p32;M}<>
 71
     5
 42
16.0
 73
     0
 74
     0
 75
     0
  3
ISO-25
100
AcDbAlignedDimension
 13
66.98830259097527
 23
169.9599949870435
 33
0.0
 14
82.98830259097527
 24
169.9599949870435
 34
0.0
100
AcDbRotatedDimension
  0
DIMENSION
  5
C14
102
{ACAD_REACTORS
330
C2B
102
}
102
{ACAD_XDICTIONARY
360
C21
102
}
330
21
100
AcDbEntity
  8
文字
100
AcDbDimension
280
     0
  2
*D6
 10
118.4472066414391
 20
71.9599949870435
 30
0.0
 11
116.5722066414391
 21
121.9599949870435
 31
0.0
 70
    32
  1
150
 71
     5
 42
100.0
 73
     0
 74
     0
 75
     0
  3
ISO-25
100
AcDbAlignedDimension
 13
82.98830259097525
 23
171.9599949870435
 33
0.0
 14
88.83830259097525
 24
71.95999498704352
 34
0.0
 50
90.0
100
AcDbRotatedDimension
  0
LINE
  5
C64
330
21
100
AcDbEntity
  8
実線
370
    30
100
AcDbLine
 10
74.98830259097527
 20
121.9599949870435
 30
0.0
 11
92.67160673777965
 21
132.169455396363
 31
0.0
  0
LINE
  5
C65
330
21
100
AcDbEntity
  8
実線
370
    30
100
AcDbLine
 10
74.98830259097525
 20
121.9599949870435
 30
0.0
 11
57.16402504359989
 21
111.6691435469558
 31
0.0
  0
LINE
  5
C66
330
21
100
AcDbEntity
  8
実線
370
    30
100
AcDbLine
 10
75.98830259097527
 20
120.2279441794746
 30
0.0
 11
93.67160673777965
 21
130.4374045887942
 31
0.0
  0
LINE
  5
C67
330
21
100
AcDbEntity
  8
実線
370
    30
100
AcDbLine
 10
75.98830259097525
 20
120.2279441794746
 30
0.0
 11
58.16402504359989
 21
109.9370927393869
 31
0.0
  0
LINE
  5
C68
330
21
100
AcDbEntity
  8
実線
370
    20
100
AcDbLine
 10
80.98830259097528
 20
123.1146955254228
 30
0.0
 11
80.98830259097525
 21
71.95999498704352
 31
0.0
  0
LINE
  5
C69
330
21
100
AcDbEntity
  8
実線
370
    20
100
AcDbLine
 10
68.98830259097525
 20
116.1864922951473
 30
0.0
 11
68.98830259097525
 21
71.95999498704352
 31
0.0
  0
LWPOLYLINE
  5
C6A
330
21
100
AcDbEntity
  8
実線
100
AcDbPolyline
 90
        4
 70
     0
 43
0.0
 10
66.98830259097527
 20
115.031791756768
 10
66.98830259097527
 20
71.95999498704352
 10
82.98830259097527
 20
71.95999498704352
 10
82.98830259097527
 20
124.269396063802
  0
LINE
  5
C6B
330
21
100
AcDbEntity
  8
中心線
100
AcDbLine
 10
74.98830259097525
 20
121.9599949870435
 30
0.0
 11
74.98830259097528
 21
30.72254509301759
 31
0.0
  0
MTEXT
  5
D01
330
21
100
AcDbEntity
  8
文字・寸法線
 62
     0
100
AcDbMText
 10
93.2525214086082
 20
207.4905633418002
 30
0.0
 40
6.0
 41
0.0
 46
6.0
 71
     9
 72
     1
  1
{\fＭＳ ゴシック|b0|i0|c0|p0;S-W M16X150}
 73
     1
 44
1.0
1001
ACAD
1000
ACAD_MTEXT_DEFINED_HEIGHT_BEGIN
1070
    46
1040
6.0
1000
ACAD_MTEXT_DEFINED_HEIGHT_END
  0
DIMENSION
  5
D3B
102
{ACAD_XDICTIONARY
360
D3C
102
}
330
21
100
AcDbEntity
  8
文字
100
AcDbDimension
280
     0
  2
*D9
 10
32.46940354002921
 20
43.89018959539561
 30
0.0
 11
32.46940354002921
 21
49.04651282750558
 31
0.0
 70
   160
 71
     5
 42
10.00019833783685
 73
     0
 74
     0
 75
     0
  3
ISO-25
100
AcDbAlignedDimension
 13
44.97009933847765
 23
53.89038793323246
 33
0.0
 14
45.81167498693691
 24
43.89018959539561
 34
0.0
 50
90.0
100
AcDbRotatedDimension
  0
ENDSEC
  0
SECTION
  2
OBJECTS
  0
DICTIONARY
  5
C
330
0
100
AcDbDictionary
281
     1
  3
ACAD_COLOR
350
1C
  3
ACAD_DETAILVIEWSTYLE
350
CD8
  3
ACAD_GROUP
350
D
  3
ACAD_IMAGE_VARS
350
CCA
  3
ACAD_LAYOUT
350
1A
  3
ACAD_MATERIAL
350
1B
  3
ACAD_MLEADERSTYLE
350
CD5
  3
ACAD_MLINESTYLE
350
17
  3
ACAD_PLOTSETTINGS
350
19
  3
ACAD_PLOTSTYLENAME
350
E
  3
ACAD_SCALELIST
350
CA1
  3
ACAD_SECTIONVIEWSTYLE
350
CD9
  3
ACAD_TABLESTYLE
350
CC6
  3
ACAD_VISUALSTYLE
350
C88
  3
AcadDim
350
6E9
  3
ACDB_RECOMPOSE_DATA
350
D4B
  3
AcDbVariableDictionary
350
CCF
  3
APPDATA
350
CC8
  0
SUN
  5
CC9
330
C87
100
AcDbSun
 90
        1
290
     0
 63
     7
421
 16777215
 40
1.0
291
     1
 91
  2455826
 92
 54000000
292
     0
 70
     2
 71
   256
280
     1
  0
DICTIONARY
  5
A08
330
A07
100
AcDbDictionary
280
     1
281
     1
  3
ACAD_DIMASSOC
360
A09
  0
DICTIONARY
  5
A0B
330
A0A
100
AcDbDictionary
280
     1
281
     1
  3
ACAD_DIMASSOC
360
A0C
  0
DICTIONARY
  5
A85
330
A78
100
AcDbDictionary
280
     1
281
     1
  3
ACAD_DIMASSOC
360
A8F
  0
DICTIONARY
  5
B96
330
B89
100
AcDbDictionary
280
     1
281
     1
  3
ACAD_DIMASSOC
360
BA0
  0
DICTIONARY
  5
BCF
330
BC2
100
AcDbDictionary
280
     1
281
     1
  3
ACAD_DIMASSOC
360
BD9
  0
DICTIONARY
  5
C09
330
BFC
100
AcDbDictionary
280
     1
281
     1
  3
ACAD_DIMASSOC
360
C13
  0
DICTIONARY
  5
C21
330
C14
100
AcDbDictionary
280
     1
281
     1
  3
ACAD_DIMASSOC
360
C2B
  0
DICTIONARY
  5
D3C
330
D3B
100
AcDbDictionary
280
     1
281
     1
  0
DICTIONARY
  5
1C
102
{ACAD_REACTORS
330
C
102
}
330
C
100
AcDbDictionary
281
     1
  0
DICTIONARY
  5
CD8
102
{ACAD_REACTORS
330
C
102
}
330
C
100
AcDbDictionary
281
     1
  0
DICTIONARY
  5
D
102
{ACAD_REACTORS
330
C
102
}
330
C
100
AcDbDictionary
281
     1
  0
RASTERVARIABLES
  5
CCA
102
{ACAD_REACTORS
330
C
102
}
330
C
100
AcDbRasterVariables
 90
        0
 70
     1
 71
     1
 72
     1
  0
DICTIONARY
  5
1A
102
{ACAD_REACTORS
330
C
102
}
330
C
100
AcDbDictionary
281
     1
  3
Model
350
24
  3
Sheet1
350
CCC
  0
DICTIONARY
  5
1B
102
{ACAD_REACTORS
330
C
102
}
330
C
100
AcDbDictionary
281
     1
  3
ByBlock
350
CC4
  3
ByLayer
350
CC3
  3
Global
350
CC5
  0
DICTIONARY
  5
CD5
102
{ACAD_REACTORS
330
C
102
}
330
C
100
AcDbDictionary
281
     1
  0
DICTIONARY
  5
17
102
{ACAD_REACTORS
330
C
102
}
330
C
100
AcDbDictionary
281
     1
  3
Standard
350
18
  0
DICTIONARY
  5
19
102
{ACAD_REACTORS
330
C
102
}
330
C
100
AcDbDictionary
281
     1
  0
ACDBDICTIONARYWDFLT
  5
E
102
{ACAD_REACTORS
330
C
102
}
330
C
100
AcDbDictionary
281
     1
  3
Normal
350
F
100
AcDbDictionaryWithDefault
340
F
  0
DICTIONARY
  5
CA1
102
{ACAD_REACTORS
330
C
102
}
330
C
100
AcDbDictionary
281
     1
  3
A0
350
CA2
  3
A1
350
CA3
  3
A2
350
CA4
  3
A3
350
CA5
  3
A4
350
CA6
  3
A5
350
CA7
  3
A6
350
CA8
  3
A7
350
CA9
  3
A8
350
CAA
  3
A9
350
CAB
  3
B0
350
CAC
  3
B1
350
CAD
  3
B2
350
CAE
  3
B3
350
CAF
  3
B4
350
CB0
  3
B5
350
CB1
  3
B6
350
CB2
  3
B7
350
CB3
  3
B8
350
CB4
  3
B9
350
CB5
  3
C0
350
CB6
  3
C1
350
CB7
  3
C2
350
CB8
  3
C3
350
CB9
  3
C4
350
CBA
  3
C5
350
CBB
  3
C6
350
CBC
  3
C7
350
CBD
  3
C8
350
CBE
  3
C9
350
CBF
  3
D0
350
CC0
  3
D1
350
CC1
  3
D2
350
CC2
  0
DICTIONARY
  5
CD9
102
{ACAD_REACTORS
330
C
102
}
330
C
100
AcDbDictionary
281
     1
  0
DICTIONARY
  5
CC6
102
{ACAD_REACTORS
330
C
102
}
330
C
100
AcDbDictionary
281
     1
  3
Standard
350
CC7
  0
DICTIONARY
  5
C88
102
{ACAD_REACTORS
330
C
102
}
330
C
100
AcDbDictionary
281
     1
  3
2dWireframe
350
C8D
  3
Basic
350
C90
  3
Brighten
350
C94
  3
ColorChange
350
C98
  3
Conceptual
350
C92
  3
Dim
350
C93
  3
EdgeColorOff
350
C9B
  3
Facepattern
350
C97
  3
Flat
350
C89
  3
FlatWithEdges
350
C8A
  3
Gouraud
350
C8B
  3
GouraudWithEdges
350
C8C
  3
Hidden
350
C8F
  3
JitterOff
350
C99
  3
Linepattern
350
C96
  3
OverhangOff
350
C9A
  3
Realistic
350
C91
  3
Shaded
350
CA0
  3
Shaded with edges
350
C9F
  3
Shades of Gray
350
C9C
  3
Sketchy
350
C9D
  3
Thicken
350
C95
  3
Wireframe
350
C8E
  3
X-Ray
350
C9E
  0
XRECORD
  5
6E9
102
{ACAD_REACTORS
330
C
102
}
330
C
100
AcDbXrecord
280
     1
 90
   990106
  3

 60
     0
 61
     0
 62
     1
 63
     3
 64
     1
 65
     0
 66
     0
 67
     3
 68
     1
 69
     0
 70
     0
 71
     0
 72
     0
 40
0.0
170
     2
340
0
  0
XRECORD
  5
D4B
102
{ACAD_REACTORS
330
C
102
}
330
C
100
AcDbXrecord
280
     1
 90
        1
330
CC7
  0
DICTIONARY
  5
CCF
102
{ACAD_REACTORS
330
C
102
}
330
C
100
AcDbDictionary
281
     1
  3
CANNOSCALE
350
CD0
  3
CTABLESTYLE
350
CD4
  3
MSLTSCALE
350
CD6
  3
XCLIPFRAME
350
CD7
  0
DICTIONARY
  5
CC8
102
{ACAD_REACTORS
330
C
102
}
330
C
100
AcDbDictionary
281
     1
  0
DIMASSOC
  5
A09
102
{ACAD_REACTORS
330
A08
102
}
330
A08
100
AcDbDimAssoc
330
A07
 90
        3
 70
     0
 71
     0
  1
AcDbOsnapPointRef
 72
     1
331
A02
 73
     2
 91
        0
 40
1.0
 10
0.0
 20
0.0
 30
2.000000000000000E+50
 75
     0
  1
AcDbOsnapPointRef
 72
    13
331
A04
 73
     2
 91
        0
 40
4.71238898038469
 10
0.0
 20
0.0
 30
2.000000000000000E+50
 75
     0
  0
DIMASSOC
  5
A0C
102
{ACAD_REACTORS
330
A0B
102
}
330
A0B
100
AcDbDimAssoc
330
A0A
 90
        2
 70
     0
 71
     0
  1
AcDbOsnapPointRef
 72
     6
331
9F6
 73
     2
 91
        0
 40
0.9999999999999999
 10
0.0
 20
0.0
 30
0.0
332
A04
 74
     2
 92
        0
 75
     0
  0
DIMASSOC
  5
A8F
102
{ACAD_REACTORS
330
A85
102
}
330
A85
100
AcDbDimAssoc
330
A78
 90
        3
 70
     0
 71
     0
  1
AcDbOsnapPointRef
 72
     6
331
98C
 73
     2
 91
        0
 40
0.4585397614390354
 10
0.0
 20
0.0
 30
0.0
332
A77
 74
     2
 92
        0
 75
     0
  1
AcDbOsnapPointRef
 72
     6
331
98D
 73
     2
 91
        0
 40
0.438597601890522
 10
0.0
 20
0.0
 30
0.0
332
A77
 74
     2
 92
        0
 75
     0
  0
DIMASSOC
  5
BA0
102
{ACAD_REACTORS
330
B96
102
}
330
B96
100
AcDbDimAssoc
330
B89
 90
        3
 70
     0
 71
     0
  1
AcDbOsnapPointRef
 72
     1
331
B88
 73
     2
 91
        3
 40
1.0
 10
0.0
 20
0.0
 30
2.000000000000000E+50
 75
     0
  1
AcDbOsnapPointRef
 72
     1
331
B88
 73
     2
 91
        5
 40
0.9999999999999999
 10
0.0
 20
0.0
 30
2.000000000000000E+50
 75
     0
  0
DIMASSOC
  5
BD9
102
{ACAD_REACTORS
330
BCF
102
}
330
BCF
100
AcDbDimAssoc
330
BC2
 90
        3
 70
     0
 71
     0
  1
AcDbOsnapPointRef
 72
     1
331
ADF
 73
     2
 91
        1
 40
1.0
 10
0.0
 20
0.0
 30
2.000000000000000E+50
 75
     0
  1
AcDbOsnapPointRef
 72
    13
331
A02
 73
     2
 91
        0
 40
0.0
 10
0.0
 20
0.0
 30
2.000000000000000E+50
 75
     0
  0
DIMASSOC
  5
C13
102
{ACAD_REACTORS
330
C09
102
}
330
C09
100
AcDbDimAssoc
330
BFC
 90
        3
 70
     0
 71
     0
  1
AcDbOsnapPointRef
 72
    13
331
BF9
 73
     2
 91
        0
 40
0.0
 10
0.0
 20
0.0
 30
2.000000000000000E+50
 75
     0
  1
AcDbOsnapPointRef
 72
     1
331
BF9
 73
     2
 91
        0
 40
1.0
 10
0.0
 20
0.0
 30
2.000000000000000E+50
 75
     0
  0
DIMASSOC
  5
C2B
102
{ACAD_REACTORS
330
C21
102
}
330
C21
100
AcDbDimAssoc
330
C14
 90
        2
 70
     0
 71
     0
  1
AcDbOsnapPointRef
 72
     1
331
ADF
 73
     2
 91
        1
 40
1.0
 10
0.0
 20
0.0
 30
2.000000000000000E+50
 75
     0
  0
LAYOUT
  5
24
102
{ACAD_REACTORS
330
1A
102
}
330
1A
100
AcDbPlotSettings
  1

  2
\\SF05\Brother HL-1440 series
  4
A4
  6

 40
6.72041654586792
 41
5.027085304260254
 42
6.889755249023438
 43
5.027069091796875
 44
209.9733276367188
 45
296.9259948730469
 46
-6.82
 47
-5.06
 48
0.0
 49
0.0
140
297.0000000000001
141
210.0
142
1.0
143
1.0
 70
 11956
 72
     1
 73
     1
 74
     4
  7

 75
    16
 76
     1
 77
     2
 78
   300
147
1.0
148
0.0
149
0.0
100
AcDbLayout
  1
Model
 70
     1
 71
     0
 10
0.0
 20
0.0
 11
12.0
 21
9.0
 12
0.0
 22
0.0
 32
0.0
 14
29.34440354002921
 24
20.29430777181449
 34
0.0
 15
220.3408224359301
 25
213.4905633418002
 35
0.0
146
0.0
 13
0.0
 23
0.0
 33
0.0
 16
1.0
 26
0.0
 36
0.0
 17
0.0
 27
1.0
 37
0.0
 76
     0
330
21
331
C87
  0
LAYOUT
  5
CCC
102
{ACAD_REACTORS
330
1A
102
}
330
1A
100
AcDbPlotSettings
  1

  2
none_device
  4

  6

 40
0.0
 41
0.0
 42
0.0
 43
0.0
 44
0.0
 45
0.0
 46
0.0
 47
0.0
 48
0.0
 49
0.0
140
0.0
141
0.0
142
1.0
143
1.0
 70
   688
 72
     1
 73
     0
 74
     5
  7

 75
    16
 76
     0
 77
     2
 78
   300
147
1.0
148
0.0
149
0.0
100
AcDbLayout
  1
Sheet1
 70
     1
 71
     1
 10
0.0
 20
0.0
 11
0.0
 21
0.0
 12
0.0
 22
0.0
 32
0.0
 14
0.0
 24
0.0
 34
0.0
 15
0.0
 25
0.0
 35
0.0
146
0.0
 13
0.0
 23
0.0
 33
0.0
 16
1.0
 26
0.0
 36
0.0
 17
0.0
 27
1.0
 37
0.0
 76
     0
330
CCB
  0
MATERIAL
  5
CC4
102
{ACAD_REACTORS
330
1B
102
}
330
1B
100
AcDbMaterial
  1
ByBlock
 72
     1
 94
      127
  0
MATERIAL
  5
CC3
102
{ACAD_REACTORS
330
1B
102
}
330
1B
100
AcDbMaterial
  1
ByLayer
 72
     1
 94
      127
  0
MATERIAL
  5
CC5
102
{ACAD_REACTORS
330
1B
102
}
330
1B
100
AcDbMaterial
  1
Global
 72
     1
 94
      127
  0
MLINESTYLE
  5
18
102
{ACAD_REACTORS
330
17
102
}
330
17
100
AcDbMlineStyle
  2
STANDARD
 70
     0
  3

 62
   256
 51
90.0
 52
90.0
 71
     2
 49
0.5
 62
   256
  6
BYLAYER
 49
-0.5
 62
   256
  6
BYLAYER
  0
ACDBPLACEHOLDER
  5
F
102
{ACAD_REACTORS
330
E
102
}
330
E
  0
SCALE
  5
CA2
102
{ACAD_REACTORS
330
CA1
102
}
330
CA1
100
AcDbScale
 70
     0
300
1:1
140
1.0
141
1.0
290
     1
  0
SCALE
  5
CA3
102
{ACAD_REACTORS
330
CA1
102
}
330
CA1
100
AcDbScale
 70
     0
300
1:2
140
1.0
141
2.0
290
     0
  0
SCALE
  5
CA4
102
{ACAD_REACTORS
330
CA1
102
}
330
CA1
100
AcDbScale
 70
     0
300
1:4
140
1.0
141
4.0
290
     0
  0
SCALE
  5
CA5
102
{ACAD_REACTORS
330
CA1
102
}
330
CA1
100
AcDbScale
 70
     0
300
1:5
140
1.0
141
5.0
290
     0
  0
SCALE
  5
CA6
102
{ACAD_REACTORS
330
CA1
102
}
330
CA1
100
AcDbScale
 70
     0
300
1:8
140
1.0
141
8.0
290
     0
  0
SCALE
  5
CA7
102
{ACAD_REACTORS
330
CA1
102
}
330
CA1
100
AcDbScale
 70
     0
300
1:10
140
1.0
141
10.0
290
     0
  0
SCALE
  5
CA8
102
{ACAD_REACTORS
330
CA1
102
}
330
CA1
100
AcDbScale
 70
     0
300
1:16
140
1.0
141
16.0
290
     0
  0
SCALE
  5
CA9
102
{ACAD_REACTORS
330
CA1
102
}
330
CA1
100
AcDbScale
 70
     0
300
1:20
140
1.0
141
20.0
290
     0
  0
SCALE
  5
CAA
102
{ACAD_REACTORS
330
CA1
102
}
330
CA1
100
AcDbScale
 70
     0
300
1:30
140
1.0
141
30.0
290
     0
  0
SCALE
  5
CAB
102
{ACAD_REACTORS
330
CA1
102
}
330
CA1
100
AcDbScale
 70
     0
300
1:40
140
1.0
141
40.0
290
     0
  0
SCALE
  5
CAC
102
{ACAD_REACTORS
330
CA1
102
}
330
CA1
100
AcDbScale
 70
     0
300
1:50
140
1.0
141
50.0
290
     0
  0
SCALE
  5
CAD
102
{ACAD_REACTORS
330
CA1
102
}
330
CA1
100
AcDbScale
 70
     0
300
1:100
140
1.0
141
100.0
290
     0
  0
SCALE
  5
CAE
102
{ACAD_REACTORS
330
CA1
102
}
330
CA1
100
AcDbScale
 70
     0
300
2:1
140
2.0
141
1.0
290
     0
  0
SCALE
  5
CAF
102
{ACAD_REACTORS
330
CA1
102
}
330
CA1
100
AcDbScale
 70
     0
300
4:1
140
4.0
141
1.0
290
     0
  0
SCALE
  5
CB0
102
{ACAD_REACTORS
330
CA1
102
}
330
CA1
100
AcDbScale
 70
     0
300
8:1
140
8.0
141
1.0
290
     0
  0
SCALE
  5
CB1
102
{ACAD_REACTORS
330
CA1
102
}
330
CA1
100
AcDbScale
 70
     0
300
10:1
140
10.0
141
1.0
290
     0
  0
SCALE
  5
CB2
102
{ACAD_REACTORS
330
CA1
102
}
330
CA1
100
AcDbScale
 70
     0
300
100:1
140
100.0
141
1.0
290
     0
  0
SCALE
  5
CB3
102
{ACAD_REACTORS
330
CA1
102
}
330
CA1
100
AcDbScale
 70
     0
300
1/128" = 1'-0"
140
0.0078125
141
12.0
290
     0
  0
SCALE
  5
CB4
102
{ACAD_REACTORS
330
CA1
102
}
330
CA1
100
AcDbScale
 70
     0
300
1/64" = 1'-0"
140
0.015625
141
12.0
290
     0
  0
SCALE
  5
CB5
102
{ACAD_REACTORS
330
CA1
102
}
330
CA1
100
AcDbScale
 70
     0
300
1/32" = 1'-0"
140
0.03125
141
12.0
290
     0
  0
SCALE
  5
CB6
102
{ACAD_REACTORS
330
CA1
102
}
330
CA1
100
AcDbScale
 70
     0
300
1/16" = 1'-0"
140
0.0625
141
12.0
290
     0
  0
SCALE
  5
CB7
102
{ACAD_REACTORS
330
CA1
102
}
330
CA1
100
AcDbScale
 70
     0
300
3/32" = 1'-0"
140
0.09375
141
12.0
290
     0
  0
SCALE
  5
CB8
102
{ACAD_REACTORS
330
CA1
102
}
330
CA1
100
AcDbScale
 70
     0
300
1/8" = 1'-0"
140
0.125
141
12.0
290
     0
  0
SCALE
  5
CB9
102
{ACAD_REACTORS
330
CA1
102
}
330
CA1
100
AcDbScale
 70
     0
300
3/16" = 1'-0"
140
0.1875
141
12.0
290
     0
  0
SCALE
  5
CBA
102
{ACAD_REACTORS
330
CA1
102
}
330
CA1
100
AcDbScale
 70
     0
300
1/4" = 1'-0"
140
0.25
141
12.0
290
     0
  0
SCALE
  5
CBB
102
{ACAD_REACTORS
330
CA1
102
}
330
CA1
100
AcDbScale
 70
     0
300
3/8" = 1'-0"
140
0.375
141
12.0
290
     0
  0
SCALE
  5
CBC
102
{ACAD_REACTORS
330
CA1
102
}
330
CA1
100
AcDbScale
 70
     0
300
1/2" = 1'-0"
140
0.5
141
12.0
290
     0
  0
SCALE
  5
CBD
102
{ACAD_REACTORS
330
CA1
102
}
330
CA1
100
AcDbScale
 70
     0
300
3/4" = 1'-0"
140
0.75
141
12.0
290
     0
  0
SCALE
  5
CBE
102
{ACAD_REACTORS
330
CA1
102
}
330
CA1
100
AcDbScale
 70
     0
300
1" = 1'-0"
140
1.0
141
12.0
290
     0
  0
SCALE
  5
CBF
102
{ACAD_REACTORS
330
CA1
102
}
330
CA1
100
AcDbScale
 70
     0
300
1-1/2" = 1'-0"
140
1.5
141
12.0
290
     0
  0
SCALE
  5
CC0
102
{ACAD_REACTORS
330
CA1
102
}
330
CA1
100
AcDbScale
 70
     0
300
3" = 1'-0"
140
3.0
141
12.0
290
     0
  0
SCALE
  5
CC1
102
{ACAD_REACTORS
330
CA1
102
}
330
CA1
100
AcDbScale
 70
     0
300
6" = 1'-0"
140
6.0
141
12.0
290
     0
  0
SCALE
  5
CC2
102
{ACAD_REACTORS
330
CA1
102
}
330
CA1
100
AcDbScale
 70
     0
300
1'-0" = 1'-0"
140
12.0
141
12.0
290
     0
  0
TABLESTYLE
  5
CC7
102
{ACAD_REACTORS
330
CC6
102
}
102
{ACAD_XDICTIONARY
360
D49
102
}
330
CC6
100
AcDbTableStyle
  3
Standard
 70
     0
 71
     0
 40
0.06
 41
0.06
280
     0
281
     0
  7
Standard
140
4.5
170
     2
 62
     0
 63
   257
283
     0
 90
        4
 91
        0
  1

274
    -2
284
     1
 64
     0
275
    -2
285
     1
 65
     0
276
    -2
286
     1
 66
     0
277
    -2
287
     1
 67
     0
278
    -2
288
     1
 68
     0
279
    -2
289
     1
 69
     0
  7
Standard
140
6.0
170
     5
 62
     0
 63
   257
283
     0
 90
        4
 91
        0
  1

274
    -2
284
     1
 64
     0
275
    -2
285
     1
 65
     0
276
    -2
286
     1
 66
     0
277
    -2
287
     1
 67
     0
278
    -2
288
     1
 68
     0
279
    -2
289
     1
 69
     0
  7
Standard
140
4.5
170
     5
 62
     0
 63
   257
283
     0
 90
        4
 91
        0
  1

274
    -2
284
     1
 64
     0
275
    -2
285
     1
 65
     0
276
    -2
286
     1
 66
     0
277
    -2
287
     1
 67
     0
278
    -2
288
     1
 68
     0
279
    -2
289
     1
 69
     0
  0
VISUALSTYLE
  5
C8D
102
{ACAD_REACTORS
330
C88
102
}
330
C88
100
AcDbVisualStyle
  2
2dWireframe
 70
     4
177
     3
291
     0
 70
    58
 90
        0
176
     1
 90
        2
176
     1
 90
        0
176
     1
 90
        0
176
     1
 40
0.6
176
     1
 40
30.0
176
     1
 62
     7
420
 16777215
176
     1
 90
        1
176
     1
 90
        4
176
     1
 62
     7
176
     1
 62
   257
176
     1
 90
        1
176
     1
 90
        1
176
     1
 40
1.0
176
     1
 90
        0
176
     1
 62
   257
176
     1
 40
1.0
176
     1
 90
        1
176
     1
 90
        6
176
     1
 90
        2
176
     1
 62
     7
176
     1
 90
        5
176
     1
 90
        0
176
     1
 90
        0
176
     1
290
     0
176
     1
 90
        1
176
     1
 40
0.0
176
     1
 90
        0
176
     1
290
     1
176
     1
290
     1
176
     1
290
     0
176
     1
290
     0
176
     1
290
     0
176
     1
290
     0
176
     1
290
     0
176
     1
290
     0
176
     1
290
     0
176
     1
 90
       50
176
     1
 40
0.0
176
     1
 40
1.0
176
     1
 90
        0
176
     1
 62
    18
420
        0
176
     1
 90
       50
176
     1
 90
        3
176
     1
 62
     5
420
      255
176
     1
290
     0
176
     1
 90
       50
176
     1
 90
       50
176
     1
 90
       50
176
     1
290
     0
176
     1
 90
       50
176
     1
 62
   256
176
     0
 40
1.0
176
     0
 90
        2
176
     1
  1
strokes_ogs.tif
176
     1
290
     0
176
     1
 40
1.0
176
     1
 40
1.0
176
     1
  0
VISUALSTYLE
  5
C90
102
{ACAD_REACTORS
330
C88
102
}
330
C88
100
AcDbVisualStyle
  2
Basic
 70
     7
177
     3
291
     1
 70
    58
 90
        1
176
     1
 90
        0
176
     1
 90
        1
176
     1
 90
        0
176
     1
 40
0.6
176
     1
 40
30.0
176
     1
 62
     7
420
 16777215
176
     1
 90
        0
176
     1
 90
        4
176
     1
 62
     7
176
     1
 62
   257
176
     1
 90
        1
176
     1
 90
        1
176
     1
 40
1.0
176
     1
 90
        8
176
     1
 62
     7
176
     1
 40
1.0
176
     1
 90
        1
176
     1
 90
        6
176
     1
 90
        2
176
     1
 62
     7
176
     1
 90
        5
176
     1
 90
        0
176
     1
 90
        0
176
     1
290
     0
176
     1
 90
        1
176
     1
 40
0.0
176
     1
 90
        0
176
     1
290
     0
176
     1
290
     1
176
     1
290
     1
176
     1
290
     0
176
     1
290
     0
176
     1
290
     0
176
     1
290
     0
176
     1
290
     0
176
     1
290
     0
176
     1
 90
       50
176
     1
 40
0.0
176
     1
 40
1.0
176
     1
 90
        0
176
     1
 62
    18
420
        0
176
     1
 90
       50
176
     1
 90
        3
176
     1
 62
     5
420
      255
176
     1
290
     0
176
     1
 90
       50
176
     1
 90
       50
176
     1
 90
       50
176
     1
290
     0
176
     1
 90
       50
176
     1
 62
   256
176
     0
 40
1.0
176
     0
 90
        2
176
     1
  1
strokes_ogs.tif
176
     1
290
     0
176
     1
 40
1.0
176
     1
 40
1.0
176
     1
  0
VISUALSTYLE
  5
C94
102
{ACAD_REACTORS
330
C88
102
}
330
C88
100
AcDbVisualStyle
  2
Brighten
 70
    12
177
     3
291
     1
 70
    58
 90
        2
176
     1
 90
        2
176
     1
 90
        0
176
     1
 90
        0
176
     1
 40
0.6
176
     1
 40
30.0
176
     1
 62
     7
420
 16777215
176
     1
 90
        1
176
     1
 90
        4
176
     1
 62
     7
176
     1
 62
   257
176
     1
 90
        1
176
     1
 90
        1
176
     1
 40
1.0
176
     1
 90
        8
176
     1
 62
     7
176
     1
 40
1.0
176
     1
 90
        1
176
     1
 90
        6
176
     1
 90
        2
176
     1
 62
     7
176
     1
 90
        5
176
     1
 90
        0
176
     1
 90
        0
176
     1
290
     0
176
     1
 90
        1
176
     1
 40
50.0
176
     1
 90
        0
176
     1
290
     0
176
     1
290
     1
176
     1
290
     1
176
     1
290
     0
176
     1
290
     0
176
     1
290
     0
176
     1
290
     0
176
     1
290
     0
176
     1
290
     0
176
     1
 90
       50
176
     1
 40
0.0
176
     1
 40
1.0
176
     1
 90
        0
176
     1
 62
    18
420
        0
176
     1
 90
       50
176
     1
 90
        3
176
     1
 62
     5
420
      255
176
     1
290
     0
176
     1
 90
       50
176
     1
 90
       50
176
     1
 90
       50
176
     1
290
     0
176
     1
 90
       50
176
     1
 62
   256
176
     0
 40
1.0
176
     0
 90
        2
176
     1
  1
strokes_ogs.tif
176
     1
290
     0
176
     1
 40
1.0
176
     1
 40
1.0
176
     1
  0
VISUALSTYLE
  5
C98
102
{ACAD_REACTORS
330
C88
102
}
330
C88
100
AcDbVisualStyle
  2
ColorChange
 70
    16
177
     3
291
     1
 70
    58
 90
        2
176
     1
 90
        2
176
     1
 90
        3
176
     1
 90
        0
176
     1
 40
0.6
176
     1
 40
30.0
176
     1
 62
     8
420
  8421504
176
     1
 90
        1
176
     1
 90
        4
176
     1
 62
     7
176
     1
 62
   257
176
     1
 90
        1
176
     1
 90
        1
176
     1
 40
1.0
176
     1
 90
        8
176
     1
 62
     8
420
  8421504
176
     1
 40
1.0
176
     1
 90
        1
176
     1
 90
        6
176
     1
 90
        2
176
     1
 62
     7
176
     1
 90
        5
176
     1
 90
        0
176
     1
 90
        0
176
     1
290
     0
176
     1
 90
        1
176
     1
 40
0.0
176
     1
 90
        0
176
     1
290
     0
176
     1
290
     1
176
     1
290
     1
176
     1
290
     0
176
     1
290
     0
176
     1
290
     0
176
     1
290
     0
176
     1
290
     0
176
     1
290
     0
176
     1
 90
       50
176
     1
 40
0.0
176
     1
 40
1.0
176
     1
 90
        0
176
     1
 62
    18
420
        0
176
     1
 90
       50
176
     1
 90
        3
176
     1
 62
     5
420
      255
176
     1
290
     0
176
     1
 90
       50
176
     1
 90
       50
176
     1
 90
       50
176
     1
290
     0
176
     1
 90
       50
176
     1
 62
   256
176
     0
 40
1.0
176
     0
 90
        2
176
     1
  1
strokes_ogs.tif
176
     1
290
     0
176
     1
 40
1.0
176
     1
 40
1.0
176
     1
  0
VISUALSTYLE
  5
C92
102
{ACAD_REACTORS
330
C88
102
}
330
C88
100
AcDbVisualStyle
  2
Conceptual
 70
     9
177
     3
291
     0
 70
    58
 90
        3
176
     1
 90
        2
176
     1
 90
        0
176
     1
 90
        0
176
     1
 40
0.6
176
     1
 40
30.0
176
     1
 62
     7
420
 16777215
176
     1
 90
        2
176
     1
 90
        2
176
     1
 62
     7
176
     1
 62
   257
176
     1
 90
        1
176
     1
 90
        1
176
     1
 40
179.0
176
     1
 90
        8
176
     1
 62
     7
176
     1
 40
1.0
176
     1
 90
        1
176
     1
 90
        6
176
     1
 90
        2
176
     1
 62
     7
176
     1
 90
        3
176
     1
 90
        0
176
     1
 90
        0
176
     1
290
     0
176
     1
 90
        1
176
     1
 40
0.0
176
     1
 90
        0
176
     1
290
     0
176
     1
290
     1
176
     1
290
     1
176
     1
290
     0
176
     1
290
     0
176
     1
290
     0
176
     1
290
     0
176
     1
290
     0
176
     1
290
     0
176
     1
 90
       50
176
     1
 40
0.0
176
     1
 40
1.0
176
     1
 90
        0
176
     1
 62
    18
420
        0
176
     1
 90
       50
176
     1
 90
        3
176
     1
 62
     5
420
      255
176
     1
290
     0
176
     1
 90
       50
176
     1
 90
       50
176
     1
 90
       50
176
     1
290
     0
176
     1
 90
       50
176
     1
 62
   256
176
     0
 40
1.0
176
     0
 90
        2
176
     1
  1
strokes_ogs.tif
176
     1
290
     0
176
     1
 40
1.0
176
     1
 40
1.0
176
     1
  0
VISUALSTYLE
  5
C93
102
{ACAD_REACTORS
330
C88
102
}
330
C88
100
AcDbVisualStyle
  2
Dim
 70
    11
177
     3
291
     1
 70
    58
 90
        2
176
     1
 90
        2
176
     1
 90
        0
176
     1
 90
        0
176
     1
 40
0.6
176
     1
 40
30.0
176
     1
 62
     7
420
 16777215
176
     1
 90
        1
176
     1
 90
        4
176
     1
 62
     7
176
     1
 62
   257
176
     1
 90
        1
176
     1
 90
        1
176
     1
 40
1.0
176
     1
 90
        8
176
     1
 62
     7
176
     1
 40
1.0
176
     1
 90
        1
176
     1
 90
        6
176
     1
 90
        2
176
     1
 62
     7
176
     1
 90
        5
176
     1
 90
        0
176
     1
 90
        0
176
     1
290
     0
176
     1
 90
        1
176
     1
 40
-50.0
176
     1
 90
        0
176
     1
290
     0
176
     1
290
     1
176
     1
290
     1
176
     1
290
     0
176
     1
290
     0
176
     1
290
     0
176
     1
290
     0
176
     1
290
     0
176
     1
290
     0
176
     1
 90
       50
176
     1
 40
0.0
176
     1
 40
1.0
176
     1
 90
        0
176
     1
 62
    18
420
        0
176
     1
 90
       50
176
     1
 90
        3
176
     1
 62
     5
420
      255
176
     1
290
     0
176
     1
 90
       50
176
     1
 90
       50
176
     1
 90
       50
176
     1
290
     0
176
     1
 90
       50
176
     1
 62
   256
176
     0
 40
1.0
176
     0
 90
        2
176
     1
  1
strokes_ogs.tif
176
     1
290
     0
176
     1
 40
1.0
176
     1
 40
1.0
176
     1
  0
VISUALSTYLE
  5
C9B
102
{ACAD_REACTORS
330
C88
102
}
330
C88
100
AcDbVisualStyle
  2
EdgeColorOff
 70
    22
177
     3
291
     1
 70
    58
 90
        2
176
     0
 90
        2
176
     0
 90
        0
176
     0
 90
        0
176
     0
 40
0.6
176
     0
 40
30.0
176
     0
 62
     7
420
 16777215
176
     0
 90
        1
176
     0
 90
        4
176
     0
 62
     7
176
     0
 62
   257
176
     0
 90
        1
176
     0
 90
        1
176
     0
 40
1.0
176
     0
 90
        8
176
     2
 62
     7
176
     0
 40
1.0
176
     0
 90
        1
176
     0
 90
        6
176
     0
 90
        2
176
     0
 62
     7
176
     0
 90
        5
176
     0
 90
        0
176
     0
 90
        0
176
     0
290
     0
176
     0
 90
        1
176
     0
 40
0.0
176
     0
 90
        0
176
     0
290
     0
176
     0
290
     1
176
     0
290
     1
176
     0
290
     0
176
     0
290
     0
176
     0
290
     0
176
     0
290
     0
176
     0
290
     0
176
     0
290
     0
176
     0
 90
       50
176
     0
 40
0.0
176
     0
 40
1.0
176
     0
 90
        0
176
     0
 62
    18
420
        0
176
     0
 90
       50
176
     0
 90
        3
176
     0
 62
     5
420
      255
176
     0
290
     0
176
     0
 90
       50
176
     0
 90
       50
176
     0
 90
       50
176
     0
290
     0
176
     0
 90
       50
176
     0
 62
   256
176
     0
 40
1.0
176
     0
 90
        2
176
     0
  1
strokes_ogs.tif
176
     0
290
     0
176
     0
 40
1.0
176
     0
 40
1.0
176
     0
  0
VISUALSTYLE
  5
C97
102
{ACAD_REACTORS
330
C88
102
}
330
C88
100
AcDbVisualStyle
  2
Facepattern
 70
    15
177
     3
291
     1
 70
    58
 90
        2
176
     1
 90
        2
176
     1
 90
        0
176
     1
 90
        0
176
     1
 40
0.6
176
     1
 40
30.0
176
     1
 62
     7
420
 16777215
176
     1
 90
        1
176
     1
 90
        4
176
     1
 62
     7
176
     1
 62
   257
176
     1
 90
        1
176
     1
 90
        1
176
     1
 40
1.0
176
     1
 90
        8
176
     1
 62
     7
176
     1
 40
1.0
176
     1
 90
        1
176
     1
 90
        6
176
     1
 90
        2
176
     1
 62
     7
176
     1
 90
        5
176
     1
 90
        0
176
     1
 90
        0
176
     1
290
     0
176
     1
 90
        1
176
     1
 40
0.0
176
     1
 90
        0
176
     1
290
     0
176
     1
290
     1
176
     1
290
     1
176
     1
290
     0
176
     1
290
     0
176
     1
290
     0
176
     1
290
     0
176
     1
290
     0
176
     1
290
     0
176
     1
 90
       50
176
     1
 40
0.0
176
     1
 40
1.0
176
     1
 90
        0
176
     1
 62
    18
420
        0
176
     1
 90
       50
176
     1
 90
        3
176
     1
 62
     5
420
      255
176
     1
290
     0
176
     1
 90
       50
176
     1
 90
       50
176
     1
 90
       50
176
     1
290
     0
176
     1
 90
       50
176
     1
 62
   256
176
     0
 40
1.0
176
     0
 90
        2
176
     1
  1
strokes_ogs.tif
176
     1
290
     0
176
     1
 40
1.0
176
     1
 40
1.0
176
     1
  0
VISUALSTYLE
  5
C89
102
{ACAD_REACTORS
330
C88
102
}
330
C88
100
AcDbVisualStyle
  2
Flat
 70
     0
177
     3
291
     1
 70
    58
 90
        2
176
     1
 90
        1
176
     1
 90
        1
176
     1
 90
        2
176
     1
 40
0.6
176
     1
 40
30.0
176
     1
 62
     7
420
 16777215
176
     1
 90
        0
176
     1
 90
        0
176
     1
 62
     7
176
     1
 62
   257
176
     1
 90
        1
176
     1
 90
        1
176
     1
 40
1.0
176
     1
 90
        8
176
     1
 62
     7
176
     1
 40
1.0
176
     1
 90
        1
176
     1
 90
        6
176
     1
 90
        2
176
     1
 62
     7
176
     1
 90
        5
176
     1
 90
        0
176
     1
 90
        0
176
     1
290
     0
176
     1
 90
       13
176
     1
 40
0.0
176
     1
 90
        0
176
     1
290
     0
176
     1
290
     1
176
     1
290
     1
176
     1
290
     0
176
     1
290
     0
176
     1
290
     0
176
     1
290
     0
176
     1
290
     0
176
     1
290
     0
176
     1
 90
       50
176
     1
 40
0.0
176
     1
 40
1.0
176
     1
 90
        0
176
     1
 62
    18
420
        0
176
     1
 90
       50
176
     1
 90
        3
176
     1
 62
     5
420
      255
176
     1
290
     0
176
     1
 90
       50
176
     1
 90
       50
176
     1
 90
       50
176
     1
290
     0
176
     1
 90
       50
176
     1
 62
   256
176
     0
 40
1.0
176
     0
 90
        2
176
     1
  1
strokes_ogs.tif
176
     1
290
     0
176
     1
 40
1.0
176
     1
 40
1.0
176
     1
  0
VISUALSTYLE
  5
C8A
102
{ACAD_REACTORS
330
C88
102
}
330
C88
100
AcDbVisualStyle
  2
FlatWithEdges
 70
     1
177
     3
291
     1
 70
    58
 90
        2
176
     1
 90
        1
176
     1
 90
        1
176
     1
 90
        2
176
     1
 40
0.6
176
     1
 40
30.0
176
     1
 62
     7
420
 16777215
176
     1
 90
        1
176
     1
 90
        0
176
     1
 62
     7
176
     1
 62
   257
176
     1
 90
        1
176
     1
 90
        1
176
     1
 40
1.0
176
     1
 90
        0
176
     1
 62
   257
176
     1
 40
1.0
176
     1
 90
        1
176
     1
 90
        6
176
     1
 90
        2
176
     1
 62
     7
176
     1
 90
        5
176
     1
 90
        0
176
     1
 90
        0
176
     1
290
     0
176
     1
 90
       13
176
     1
 40
0.0
176
     1
 90
        0
176
     1
290
     0
176
     1
290
     1
176
     1
290
     1
176
     1
290
     0
176
     1
290
     0
176
     1
290
     0
176
     1
290
     0
176
     1
290
     0
176
     1
290
     0
176
     1
 90
       50
176
     1
 40
0.0
176
     1
 40
1.0
176
     1
 90
        0
176
     1
 62
    18
420
        0
176
     1
 90
       50
176
     1
 90
        3
176
     1
 62
     5
420
      255
176
     1
290
     0
176
     1
 90
       50
176
     1
 90
       50
176
     1
 90
       50
176
     1
290
     0
176
     1
 90
       50
176
     1
 62
   256
176
     0
 40
1.0
176
     0
 90
        2
176
     1
  1
strokes_ogs.tif
176
     1
290
     0
176
     1
 40
1.0
176
     1
 40
1.0
176
     1
  0
VISUALSTYLE
  5
C8B
102
{ACAD_REACTORS
330
C88
102
}
330
C88
100
AcDbVisualStyle
  2
Gouraud
 70
     2
177
     3
291
     1
 70
    58
 90
        2
176
     1
 90
        2
176
     1
 90
        1
176
     1
 90
        2
176
     1
 40
0.6
176
     1
 40
30.0
176
     1
 62
     7
420
 16777215
176
     1
 90
        0
176
     1
 90
        0
176
     1
 62
     7
176
     1
 62
   257
176
     1
 90
        1
176
     1
 90
        1
176
     1
 40
1.0
176
     1
 90
        0
176
     1
 62
     7
176
     1
 40
1.0
176
     1
 90
        1
176
     1
 90
        6
176
     1
 90
        2
176
     1
 62
     7
176
     1
 90
        5
176
     1
 90
        0
176
     1
 90
        0
176
     1
290
     0
176
     1
 90
       13
176
     1
 40
0.0
176
     1
 90
        0
176
     1
290
     0
176
     1
290
     1
176
     1
290
     1
176
     1
290
     0
176
     1
290
     0
176
     1
290
     0
176
     1
290
     0
176
     1
290
     0
176
     1
290
     0
176
     1
 90
       50
176
     1
 40
0.0
176
     1
 40
1.0
176
     1
 90
        0
176
     1
 62
    18
420
        0
176
     1
 90
       50
176
     1
 90
        3
176
     1
 62
     5
420
      255
176
     1
290
     0
176
     1
 90
       50
176
     1
 90
       50
176
     1
 90
       50
176
     1
290
     0
176
     1
 90
       50
176
     1
 62
   256
176
     0
 40
1.0
176
     0
 90
        2
176
     1
  1
strokes_ogs.tif
176
     1
290
     0
176
     1
 40
1.0
176
     1
 40
1.0
176
     1
  0
VISUALSTYLE
  5
C8C
102
{ACAD_REACTORS
330
C88
102
}
330
C88
100
AcDbVisualStyle
  2
GouraudWithEdges
 70
     3
177
     3
291
     1
 70
    58
 90
        2
176
     1
 90
        2
176
     1
 90
        1
176
     1
 90
        2
176
     1
 40
0.6
176
     1
 40
30.0
176
     1
 62
     7
420
 16777215
176
     1
 90
        1
176
     1
 90
        0
176
     1
 62
     7
176
     1
 62
   257
176
     1
 90
        1
176
     1
 90
        1
176
     1
 40
1.0
176
     1
 90
        0
176
     1
 62
   257
176
     1
 40
1.0
176
     1
 90
        1
176
     1
 90
        6
176
     1
 90
        2
176
     1
 62
     7
176
     1
 90
        5
176
     1
 90
        0
176
     1
 90
        0
176
     1
290
     0
176
     1
 90
       13
176
     1
 40
0.0
176
     1
 90
        0
176
     1
290
     0
176
     1
290
     1
176
     1
290
     1
176
     1
290
     0
176
     1
290
     0
176
     1
290
     0
176
     1
290
     0
176
     1
290
     0
176
     1
290
     0
176
     1
 90
       50
176
     1
 40
0.0
176
     1
 40
1.0
176
     1
 90
        0
176
     1
 62
    18
420
        0
176
     1
 90
       50
176
     1
 90
        3
176
     1
 62
     5
420
      255
176
     1
290
     0
176
     1
 90
       50
176
     1
 90
       50
176
     1
 90
       50
176
     1
290
     0
176
     1
 90
       50
176
     1
 62
   256
176
     0
 40
1.0
176
     0
 90
        2
176
     1
  1
strokes_ogs.tif
176
     1
290
     0
176
     1
 40
1.0
176
     1
 40
1.0
176
     1
  0
VISUALSTYLE
  5
C8F
102
{ACAD_REACTORS
330
C88
102
}
330
C88
100
AcDbVisualStyle
  2
Hidden
 70
     6
177
     3
291
     0
 70
    58
 90
        1
176
     1
 90
        2
176
     1
 90
        2
176
     1
 90
        0
176
     1
 40
0.6
176
     1
 40
30.0
176
     1
 62
     7
420
 16777215
176
     1
 90
        2
176
     1
 90
        2
176
     1
 62
     7
176
     1
 62
   257
176
     1
 90
        2
176
     1
 90
        1
176
     1
 40
40.0
176
     1
 90
        0
176
     1
 62
   257
176
     1
 40
1.0
176
     1
 90
        1
176
     1
 90
        6
176
     1
 90
        2
176
     1
 62
     7
176
     1
 90
        3
176
     1
 90
        0
176
     1
 90
        0
176
     1
290
     0
176
     1
 90
        1
176
     1
 40
0.0
176
     1
 90
        0
176
     1
290
     0
176
     1
290
     1
176
     1
290
     1
176
     1
290
     0
176
     1
290
     0
176
     1
290
     0
176
     1
290
     0
176
     1
290
     0
176
     1
290
     0
176
     1
 90
       50
176
     1
 40
0.0
176
     1
 40
1.0
176
     1
 90
        0
176
     1
 62
    18
420
        0
176
     1
 90
       50
176
     1
 90
        3
176
     1
 62
     5
420
      255
176
     1
290
     0
176
     1
 90
       50
176
     1
 90
       50
176
     1
 90
       50
176
     1
290
     0
176
     1
 90
       50
176
     1
 62
   256
176
     0
 40
1.0
176
     0
 90
        2
176
     1
  1
strokes_ogs.tif
176
     1
290
     0
176
     1
 40
1.0
176
     1
 40
1.0
176
     1
  0
VISUALSTYLE
  5
C99
102
{ACAD_REACTORS
330
C88
102
}
330
C88
100
AcDbVisualStyle
  2
JitterOff
 70
    20
177
     3
291
     1
 70
    58
 90
        2
176
     0
 90
        2
176
     0
 90
        0
176
     0
 90
        0
176
     0
 40
0.6
176
     0
 40
30.0
176
     0
 62
     7
420
 16777215
176
     0
 90
        1
176
     0
 90
        4
176
     0
 62
     7
176
     0
 62
   257
176
     0
 90
        1
176
     0
 90
        1
176
     0
 40
1.0
176
     0
 90
       10
176
     2
 62
     7
176
     0
 40
1.0
176
     0
 90
        1
176
     0
 90
        6
176
     0
 90
        2
176
     0
 62
     7
176
     0
 90
        5
176
     0
 90
        0
176
     0
 90
        0
176
     0
290
     0
176
     0
 90
        1
176
     0
 40
0.0
176
     0
 90
        0
176
     0
290
     0
176
     0
290
     1
176
     0
290
     1
176
     0
290
     0
176
     0
290
     0
176
     0
290
     0
176
     0
290
     0
176
     0
290
     0
176
     0
290
     0
176
     0
 90
       50
176
     0
 40
0.0
176
     0
 40
1.0
176
     0
 90
        0
176
     0
 62
    18
420
        0
176
     0
 90
       50
176
     0
 90
        3
176
     0
 62
     5
420
      255
176
     0
290
     0
176
     0
 90
       50
176
     0
 90
       50
176
     0
 90
       50
176
     0
290
     0
176
     0
 90
       50
176
     0
 62
   256
176
     0
 40
1.0
176
     0
 90
        2
176
     0
  1
strokes_ogs.tif
176
     0
290
     0
176
     0
 40
1.0
176
     0
 40
1.0
176
     0
  0
VISUALSTYLE
  5
C96
102
{ACAD_REACTORS
330
C88
102
}
330
C88
100
AcDbVisualStyle
  2
Linepattern
 70
    14
177
     3
291
     1
 70
    58
 90
        2
176
     1
 90
        2
176
     1
 90
        0
176
     1
 90
        0
176
     1
 40
0.6
176
     1
 40
30.0
176
     1
 62
     7
420
 16777215
176
     1
 90
        1
176
     1
 90
        4
176
     1
 62
     7
176
     1
 62
   257
176
     1
 90
        7
176
     1
 90
        7
176
     1
 40
1.0
176
     1
 90
        8
176
     1
 62
     7
176
     1
 40
1.0
176
     1
 90
        1
176
     1
 90
        6
176
     1
 90
        2
176
     1
 62
     7
176
     1
 90
        5
176
     1
 90
        0
176
     1
 90
        0
176
     1
290
     0
176
     1
 90
        1
176
     1
 40
0.0
176
     1
 90
        0
176
     1
290
     0
176
     1
290
     1
176
     1
290
     1
176
     1
290
     0
176
     1
290
     0
176
     1
290
     0
176
     1
290
     0
176
     1
290
     0
176
     1
290
     0
176
     1
 90
       50
176
     1
 40
0.0
176
     1
 40
1.0
176
     1
 90
        0
176
     1
 62
    18
420
        0
176
     1
 90
       50
176
     1
 90
        3
176
     1
 62
     5
420
      255
176
     1
290
     0
176
     1
 90
       50
176
     1
 90
       50
176
     1
 90
       50
176
     1
290
     0
176
     1
 90
       50
176
     1
 62
   256
176
     0
 40
1.0
176
     0
 90
        2
176
     1
  1
strokes_ogs.tif
176
     1
290
     0
176
     1
 40
1.0
176
     1
 40
1.0
176
     1
  0
VISUALSTYLE
  5
C9A
102
{ACAD_REACTORS
330
C88
102
}
330
C88
100
AcDbVisualStyle
  2
OverhangOff
 70
    21
177
     3
291
     1
 70
    58
 90
        2
176
     0
 90
        2
176
     0
 90
        0
176
     0
 90
        0
176
     0
 40
0.6
176
     0
 40
30.0
176
     0
 62
     7
420
 16777215
176
     0
 90
        1
176
     0
 90
        4
176
     0
 62
     7
176
     0
 62
   257
176
     0
 90
        1
176
     0
 90
        1
176
     0
 40
1.0
176
     0
 90
        9
176
     2
 62
     7
176
     0
 40
1.0
176
     0
 90
        1
176
     0
 90
        6
176
     0
 90
        2
176
     0
 62
     7
176
     0
 90
        5
176
     0
 90
        0
176
     0
 90
        0
176
     0
290
     0
176
     0
 90
        1
176
     0
 40
0.0
176
     0
 90
        0
176
     0
290
     0
176
     0
290
     1
176
     0
290
     1
176
     0
290
     0
176
     0
290
     0
176
     0
290
     0
176
     0
290
     0
176
     0
290
     0
176
     0
290
     0
176
     0
 90
       50
176
     0
 40
0.0
176
     0
 40
1.0
176
     0
 90
        0
176
     0
 62
    18
420
        0
176
     0
 90
       50
176
     0
 90
        3
176
     0
 62
     5
420
      255
176
     0
290
     0
176
     0
 90
       50
176
     0
 90
       50
176
     0
 90
       50
176
     0
290
     0
176
     0
 90
       50
176
     0
 62
   256
176
     0
 40
1.0
176
     0
 90
        2
176
     0
  1
strokes_ogs.tif
176
     0
290
     0
176
     0
 40
1.0
176
     0
 40
1.0
176
     0
  0
VISUALSTYLE
  5
C91
102
{ACAD_REACTORS
330
C88
102
}
330
C88
100
AcDbVisualStyle
  2
Realistic
 70
     8
177
     3
291
     0
 70
    58
 90
        2
176
     1
 90
        3
176
     1
 90
        0
176
     1
 90
        2
176
     1
 40
0.6
176
     1
 40
30.0
176
     1
 62
     7
420
 16777215
176
     1
 90
        0
176
     1
 90
        0
176
     1
 62
     7
176
     1
 62
   257
176
     1
 90
        1
176
     1
 90
        1
176
     1
 40
1.0
176
     1
 90
        8
176
     1
 62
   257
176
     1
 40
1.0
176
     1
 90
        1
176
     1
 90
        6
176
     1
 90
        2
176
     1
 62
     7
176
     1
 90
        3
176
     1
 90
        0
176
     1
 90
        0
176
     1
290
     0
176
     1
 90
       13
176
     1
 40
0.0
176
     1
 90
        0
176
     1
290
     0
176
     1
290
     1
176
     1
290
     1
176
     1
290
     0
176
     1
290
     0
176
     1
290
     0
176
     1
290
     0
176
     1
290
     0
176
     1
290
     0
176
     1
 90
       50
176
     1
 40
0.0
176
     1
 40
1.0
176
     1
 90
        0
176
     1
 62
    18
420
        0
176
     1
 90
       50
176
     1
 90
        3
176
     1
 62
     5
420
      255
176
     1
290
     0
176
     1
 90
       50
176
     1
 90
       50
176
     1
 90
       50
176
     1
290
     0
176
     1
 90
       50
176
     1
 62
   256
176
     0
 40
1.0
176
     0
 90
        2
176
     1
  1
strokes_ogs.tif
176
     1
290
     0
176
     1
 40
1.0
176
     1
 40
1.0
176
     1
  0
VISUALSTYLE
  5
CA0
102
{ACAD_REACTORS
330
C88
102
}
330
C88
100
AcDbVisualStyle
  2
Shaded
 70
    27
177
     3
291
     0
 70
    58
 90
        2
176
     1
 90
        2
176
     1
 90
        1
176
     1
 90
        2
176
     1
 40
0.6
176
     1
 40
30.0
176
     1
 62
     7
420
 16777215
176
     1
 90
        0
176
     1
 90
        4
176
     1
 62
     7
176
     1
 62
   257
176
     1
 90
        1
176
     1
 90
        1
176
     1
 40
1.0
176
     1
 90
        8
176
     1
 62
   257
176
     1
 40
1.0
176
     1
 90
        1
176
     1
 90
        6
176
     1
 90
        2
176
     1
 62
     8
420
  7895160
176
     1
 90
        3
176
     1
 90
        0
176
     1
 90
        0
176
     1
290
     0
176
     1
 90
        5
176
     1
 40
0.0
176
     1
 90
        0
176
     1
290
     0
176
     1
290
     1
176
     1
290
     1
176
     1
290
     0
176
     1
290
     0
176
     1
290
     0
176
     1
290
     0
176
     1
290
     0
176
     1
290
     0
176
     1
 90
       50
176
     1
 40
0.0
176
     1
 40
1.0
176
     1
 90
        0
176
     1
 62
    18
420
        0
176
     1
 90
       50
176
     1
 90
        3
176
     1
 62
     5
420
      255
176
     1
290
     0
176
     1
 90
       50
176
     1
 90
       50
176
     1
 90
       50
176
     1
290
     0
176
     1
 90
       50
176
     1
 62
   256
176
     0
 40
1.0
176
     0
 90
        2
176
     1
  1
strokes_ogs.tif
176
     1
290
     0
176
     1
 40
1.0
176
     1
 40
1.0
176
     1
  0
VISUALSTYLE
  5
C9F
102
{ACAD_REACTORS
330
C88
102
}
330
C88
100
AcDbVisualStyle
  2
Shaded with edges
 70
    26
177
     3
291
     0
 70
    58
 90
        2
176
     1
 90
        2
176
     1
 90
        1
176
     1
 90
        2
176
     1
 40
0.6
176
     1
 40
30.0
176
     1
 62
     7
420
 16777215
176
     1
 90
        1
176
     1
 90
       10
176
     1
 62
     7
176
     1
 62
   257
176
     1
 90
        2
176
     1
 90
        1
176
     1
 40
1.0
176
     1
 90
        8
176
     1
 62
   257
176
     1
 40
1.0
176
     1
 90
        1
176
     1
 90
        6
176
     1
 90
        2
176
     1
 62
     7
176
     1
 90
        3
176
     1
 90
        0
176
     1
 90
        0
176
     1
290
     0
176
     1
 90
        5
176
     1
 40
0.0
176
     1
 90
        0
176
     1
290
     0
176
     1
290
     1
176
     1
290
     1
176
     1
290
     0
176
     1
290
     0
176
     1
290
     0
176
     1
290
     0
176
     1
290
     0
176
     1
290
     0
176
     1
 90
       50
176
     1
 40
0.0
176
     1
 40
1.0
176
     1
 90
        0
176
     1
 62
    18
420
        0
176
     1
 90
       50
176
     1
 90
        3
176
     1
 62
     5
420
      255
176
     1
290
     0
176
     1
 90
       50
176
     1
 90
       50
176
     1
 90
       50
176
     1
290
     0
176
     1
 90
       50
176
     1
 62
   256
176
     0
 40
1.0
176
     0
 90
        2
176
     1
  1
strokes_ogs.tif
176
     1
290
     0
176
     1
 40
1.0
176
     1
 40
1.0
176
     1
  0
VISUALSTYLE
  5
C9C
102
{ACAD_REACTORS
330
C88
102
}
330
C88
100
AcDbVisualStyle
  2
Shades of Gray
 70
    23
177
     3
291
     0
 70
    58
 90
        2
176
     1
 90
        2
176
     1
 90
        3
176
     1
 90
        0
176
     1
 40
0.6
176
     1
 40
30.0
176
     1
 62
     7
420
 16777215
176
     1
 90
        2
176
     1
 90
        2
176
     1
 62
     7
176
     1
 62
     7
176
     1
 90
        1
176
     1
 90
        1
176
     1
 40
40.0
176
     1
 90
        8
176
     1
 62
     7
176
     1
 40
1.0
176
     1
 90
        1
176
     1
 90
        6
176
     1
 90
        2
176
     1
 62
     7
176
     1
 90
        3
176
     1
 90
        0
176
     1
 90
        0
176
     1
290
     0
176
     1
 90
        1
176
     1
 40
0.0
176
     1
 90
        0
176
     1
290
     0
176
     1
290
     1
176
     1
290
     1
176
     1
290
     0
176
     1
290
     0
176
     1
290
     0
176
     1
290
     0
176
     1
290
     0
176
     1
290
     0
176
     1
 90
       50
176
     1
 40
0.0
176
     1
 40
1.0
176
     1
 90
        0
176
     1
 62
    18
420
        0
176
     1
 90
       50
176
     1
 90
        3
176
     1
 62
     5
420
      255
176
     1
290
     0
176
     1
 90
       50
176
     1
 90
       50
176
     1
 90
       50
176
     1
290
     0
176
     1
 90
       50
176
     1
 62
   256
176
     0
 40
1.0
176
     0
 90
        2
176
     1
  1
strokes_ogs.tif
176
     1
290
     0
176
     1
 40
1.0
176
     1
 40
1.0
176
     1
  0
VISUALSTYLE
  5
C9D
102
{ACAD_REACTORS
330
C88
102
}
330
C88
100
AcDbVisualStyle
  2
Sketchy
 70
    24
177
     3
291
     0
 70
    58
 90
        1
176
     1
 90
        2
176
     1
 90
        2
176
     1
 90
        0
176
     1
 40
0.6
176
     1
 40
30.0
176
     1
 62
     7
420
 16777215
176
     1
 90
        2
176
     1
 90
        2
176
     1
 62
     7
176
     1
 62
     7
176
     1
 90
        1
176
     1
 90
        1
176
     1
 40
40.0
176
     1
 90
       11
176
     1
 62
     7
176
     1
 40
1.0
176
     1
 90
        1
176
     1
 90
        6
176
     1
 90
        2
176
     1
 62
     7
176
     1
 90
        6
176
     1
 90
        0
176
     1
 90
        0
176
     1
290
     0
176
     1
 90
        1
176
     1
 40
0.0
176
     1
 90
        0
176
     1
290
     0
176
     1
290
     1
176
     1
290
     1
176
     1
290
     0
176
     1
290
     0
176
     1
290
     0
176
     1
290
     0
176
     1
290
     0
176
     1
290
     0
176
     1
 90
       50
176
     1
 40
0.0
176
     1
 40
1.0
176
     1
 90
        0
176
     1
 62
    18
420
        0
176
     1
 90
       50
176
     1
 90
        3
176
     1
 62
     5
420
      255
176
     1
290
     0
176
     1
 90
       50
176
     1
 90
       50
176
     1
 90
       50
176
     1
290
     0
176
     1
 90
       50
176
     1
 62
   256
176
     0
 40
1.0
176
     0
 90
        2
176
     1
  1
strokes_ogs.tif
176
     1
290
     0
176
     1
 40
1.0
176
     1
 40
1.0
176
     1
  0
VISUALSTYLE
  5
C95
102
{ACAD_REACTORS
330
C88
102
}
330
C88
100
AcDbVisualStyle
  2
Thicken
 70
    13
177
     3
291
     1
 70
    58
 90
        2
176
     1
 90
        2
176
     1
 90
        0
176
     1
 90
        0
176
     1
 40
0.6
176
     1
 40
30.0
176
     1
 62
     7
420
 16777215
176
     1
 90
        1
176
     1
 90
        4
176
     1
 62
     7
176
     1
 62
   257
176
     1
 90
        1
176
     1
 90
        1
176
     1
 40
1.0
176
     1
 90
       12
176
     1
 62
     7
176
     1
 40
1.0
176
     1
 90
        1
176
     1
 90
        6
176
     1
 90
        2
176
     1
 62
     7
176
     1
 90
        5
176
     1
 90
        0
176
     1
 90
        0
176
     1
290
     0
176
     1
 90
        1
176
     1
 40
0.0
176
     1
 90
        0
176
     1
290
     0
176
     1
290
     1
176
     1
290
     1
176
     1
290
     0
176
     1
290
     0
176
     1
290
     0
176
     1
290
     0
176
     1
290
     0
176
     1
290
     0
176
     1
 90
       50
176
     1
 40
0.0
176
     1
 40
1.0
176
     1
 90
        0
176
     1
 62
    18
420
        0
176
     1
 90
       50
176
     1
 90
        3
176
     1
 62
     5
420
      255
176
     1
290
     0
176
     1
 90
       50
176
     1
 90
       50
176
     1
 90
       50
176
     1
290
     0
176
     1
 90
       50
176
     1
 62
   256
176
     0
 40
1.0
176
     0
 90
        2
176
     1
  1
strokes_ogs.tif
176
     1
290
     0
176
     1
 40
1.0
176
     1
 40
1.0
176
     1
  0
VISUALSTYLE
  5
C8E
102
{ACAD_REACTORS
330
C88
102
}
330
C88
100
AcDbVisualStyle
  2
Wireframe
 70
     5
177
     3
291
     0
 70
    58
 90
        0
176
     1
 90
        2
176
     1
 90
        0
176
     1
 90
        0
176
     1
 40
0.6
176
     1
 40
30.0
176
     1
 62
     7
420
 16777215
176
     1
 90
        1
176
     1
 90
        4
176
     1
 62
     7
176
     1
 62
   257
176
     1
 90
        1
176
     1
 90
        1
176
     1
 40
1.0
176
     1
 90
        0
176
     1
 62
   257
176
     1
 40
1.0
176
     1
 90
        1
176
     1
 90
        6
176
     1
 90
        2
176
     1
 62
     7
176
     1
 90
        3
176
     1
 90
        0
176
     1
 90
        0
176
     1
290
     0
176
     1
 90
        1
176
     1
 40
0.0
176
     1
 90
        0
176
     1
290
     0
176
     1
290
     1
176
     1
290
     1
176
     1
290
     0
176
     1
290
     0
176
     1
290
     0
176
     1
290
     0
176
     1
290
     0
176
     1
290
     0
176
     1
 90
       50
176
     1
 40
0.0
176
     1
 40
1.0
176
     1
 90
        0
176
     1
 62
    18
420
        0
176
     1
 90
       50
176
     1
 90
        3
176
     1
 62
     5
420
      255
176
     1
290
     0
176
     1
 90
       50
176
     1
 90
       50
176
     1
 90
       50
176
     1
290
     0
176
     1
 90
       50
176
     1
 62
   256
176
     0
 40
1.0
176
     0
 90
        2
176
     1
  1
strokes_ogs.tif
176
     1
290
     0
176
     1
 40
1.0
176
     1
 40
1.0
176
     1
  0
VISUALSTYLE
  5
C9E
102
{ACAD_REACTORS
330
C88
102
}
330
C88
100
AcDbVisualStyle
  2
X-Ray
 70
    25
177
     3
291
     0
 70
    58
 90
        2
176
     1
 90
        2
176
     1
 90
        1
176
     1
 90
        1
176
     1
 40
0.5
176
     1
 40
30.0
176
     1
 62
     7
420
 16777215
176
     1
 90
        1
176
     1
 90
        0
176
     1
 62
     7
176
     1
 62
   257
176
     1
 90
        1
176
     1
 90
        1
176
     1
 40
1.0
176
     1
 90
        8
176
     1
 62
     7
176
     1
 40
1.0
176
     1
 90
        1
176
     1
 90
        6
176
     1
 90
        2
176
     1
 62
     7
176
     1
 90
        3
176
     1
 90
        0
176
     1
 90
        0
176
     1
290
     0
176
     1
 90
       13
176
     1
 40
0.0
176
     1
 90
        0
176
     1
290
     0
176
     1
290
     1
176
     1
290
     1
176
     1
290
     0
176
     1
290
     0
176
     1
290
     0
176
     1
290
     0
176
     1
290
     0
176
     1
290
     0
176
     1
 90
       50
176
     1
 40
0.0
176
     1
 40
1.0
176
     1
 90
        0
176
     1
 62
    18
420
        0
176
     1
 90
       50
176
     1
 90
        3
176
     1
 62
     5
420
      255
176
     1
290
     0
176
     1
 90
       50
176
     1
 90
       50
176
     1
 90
       50
176
     1
290
     0
176
     1
 90
       50
176
     1
 62
   256
176
     0
 40
1.0
176
     0
 90
        2
176
     1
  1
strokes_ogs.tif
176
     1
290
     0
176
     1
 40
1.0
176
     1
 40
1.0
176
     1
  0
DICTIONARYVAR
  5
CD0
102
{ACAD_REACTORS
330
CCF
102
}
330
CCF
100
DictionaryVariables
280
     0
  1
1:1
  0
DICTIONARYVAR
  5
CD4
102
{ACAD_REACTORS
330
CCF
102
}
330
CCF
100
DictionaryVariables
280
     0
  1
Standard
  0
DICTIONARYVAR
  5
CD6
102
{ACAD_REACTORS
330
CCF
102
}
330
CCF
100
DictionaryVariables
280
     0
  1
0
  0
DICTIONARYVAR
  5
CD7
102
{ACAD_REACTORS
330
CCF
102
}
330
CCF
100
DictionaryVariables
280
     0
  1
0
  0
DICTIONARY
  5
D49
330
CC7
100
AcDbDictionary
280
     1
281
     1
  3
ACAD_ROUNDTRIP_2008_TABLESTYLE_CELLSTYLEMAP
360
D4A
  0
CELLSTYLEMAP
  5
D4A
102
{ACAD_REACTORS
330
D49
102
}
330
D49
100
AcDbCellStyleMap
 90
        3
300
CELLSTYLE
  1
TABLEFORMAT_BEGIN
 90
        5
170
     1
 91
        0
 92
        0
 62
   257
 93
        1
300
CONTENTFORMAT
  1
CONTENTFORMAT_BEGIN
 90
        0
 91
        0
 92
        4
 93
        0
300

 40
0.0
140
1.0
 94
        5
 62
     0
340
11
144
6.0
309
CONTENTFORMAT_END
171
     1
301
MARGIN
  1
CELLMARGIN_BEGIN
 40
1.5
 40
1.5
 40
1.5
 40
1.5
 40
1.5
 40
1.5
309
CELLMARGIN_END
 94
        6
 95
        1
302
GRIDFORMAT
  1
GRIDFORMAT_BEGIN
 90
        0
 91
        1
 62
     0
 92
       -2
340
14
 93
        0
 40
0.045
309
GRIDFORMAT_END
 95
        2
302
GRIDFORMAT
  1
GRIDFORMAT_BEGIN
 90
        0
 91
        1
 62
     0
 92
       -2
340
14
 93
        0
 40
0.045
309
GRIDFORMAT_END
 95
        4
302
GRIDFORMAT
  1
GRIDFORMAT_BEGIN
 90
        0
 91
        1
 62
     0
 92
       -2
340
14
 93
        0
 40
0.045
309
GRIDFORMAT_END
 95
        8
302
GRIDFORMAT
  1
GRIDFORMAT_BEGIN
 90
        0
 91
        1
 62
     0
 92
       -2
340
14
 93
        0
 40
0.045
309
GRIDFORMAT_END
 95
       16
302
GRIDFORMAT
  1
GRIDFORMAT_BEGIN
 90
        0
 91
        1
 62
     0
 92
       -2
340
14
 93
        0
 40
0.045
309
GRIDFORMAT_END
 95
       32
302
GRIDFORMAT
  1
GRIDFORMAT_BEGIN
 90
        0
 91
        1
 62
     0
 92
       -2
340
14
 93
        0
 40
0.045
309
GRIDFORMAT_END
309
TABLEFORMAT_END
  1
CELLSTYLE_BEGIN
 90
        1
 91
        1
300
_TITLE
309
CELLSTYLE_END
300
CELLSTYLE
  1
TABLEFORMAT_BEGIN
 90
        5
170
     1
 91
        0
 92
        0
 62
   257
 93
        1
300
CONTENTFORMAT
  1
CONTENTFORMAT_BEGIN
 90
        0
 91
        0
 92
        4
 93
        0
300

 40
0.0
140
1.0
 94
        5
 62
     0
340
11
144
4.5
309
CONTENTFORMAT_END
171
     1
301
MARGIN
  1
CELLMARGIN_BEGIN
 40
1.5
 40
1.5
 40
1.5
 40
1.5
 40
1.5
 40
1.5
309
CELLMARGIN_END
 94
        6
 95
        1
302
GRIDFORMAT
  1
GRIDFORMAT_BEGIN
 90
        0
 91
        1
 62
     0
 92
       -2
340
14
 93
        0
 40
0.045
309
GRIDFORMAT_END
 95
        2
302
GRIDFORMAT
  1
GRIDFORMAT_BEGIN
 90
        0
 91
        1
 62
     0
 92
       -2
340
14
 93
        0
 40
0.045
309
GRIDFORMAT_END
 95
        4
302
GRIDFORMAT
  1
GRIDFORMAT_BEGIN
 90
        0
 91
        1
 62
     0
 92
       -2
340
14
 93
        0
 40
0.045
309
GRIDFORMAT_END
 95
        8
302
GRIDFORMAT
  1
GRIDFORMAT_BEGIN
 90
        0
 91
        1
 62
     0
 92
       -2
340
14
 93
        0
 40
0.045
309
GRIDFORMAT_END
 95
       16
302
GRIDFORMAT
  1
GRIDFORMAT_BEGIN
 90
        0
 91
        1
 62
     0
 92
       -2
340
14
 93
        0
 40
0.045
309
GRIDFORMAT_END
 95
       32
302
GRIDFORMAT
  1
GRIDFORMAT_BEGIN
 90
        0
 91
        1
 62
     0
 92
       -2
340
14
 93
        0
 40
0.045
309
GRIDFORMAT_END
309
TABLEFORMAT_END
  1
CELLSTYLE_BEGIN
 90
        2
 91
        1
300
_HEADER
309
CELLSTYLE_END
300
CELLSTYLE
  1
TABLEFORMAT_BEGIN
 90
        5
170
     1
 91
        0
 92
        0
 62
   257
 93
        1
300
CONTENTFORMAT
  1
CONTENTFORMAT_BEGIN
 90
        0
 91
        0
 92
        4
 93
        0
300

 40
0.0
140
1.0
 94
        2
 62
     0
340
11
144
4.5
309
CONTENTFORMAT_END
171
     1
301
MARGIN
  1
CELLMARGIN_BEGIN
 40
1.5
 40
1.5
 40
1.5
 40
1.5
 40
1.5
 40
1.5
309
CELLMARGIN_END
 94
        6
 95
        1
302
GRIDFORMAT
  1
GRIDFORMAT_BEGIN
 90
        0
 91
        1
 62
     0
 92
       -2
340
14
 93
        0
 40
0.045
309
GRIDFORMAT_END
 95
        2
302
GRIDFORMAT
  1
GRIDFORMAT_BEGIN
 90
        0
 91
        1
 62
     0
 92
       -2
340
14
 93
        0
 40
0.045
309
GRIDFORMAT_END
 95
        4
302
GRIDFORMAT
  1
GRIDFORMAT_BEGIN
 90
        0
 91
        1
 62
     0
 92
       -2
340
14
 93
        0
 40
0.045
309
GRIDFORMAT_END
 95
        8
302
GRIDFORMAT
  1
GRIDFORMAT_BEGIN
 90
        0
 91
        1
 62
     0
 92
       -2
340
14
 93
        0
 40
0.045
309
GRIDFORMAT_END
 95
       16
302
GRIDFORMAT
  1
GRIDFORMAT_BEGIN
 90
        0
 91
        1
 62
     0
 92
       -2
340
14
 93
        0
 40
0.045
309
GRIDFORMAT_END
 95
       32
302
GRIDFORMAT
  1
GRIDFORMAT_BEGIN
 90
        0
 91
        1
 62
     0
 92
       -2
340
14
 93
        0
 40
0.045
309
GRIDFORMAT_END
309
TABLEFORMAT_END
  1
CELLSTYLE_BEGIN
 90
        3
 91
        2
300
_DATA
309
CELLSTYLE_END
  0
ENDSEC
  0
EOF
